#TITLE:REcollect;
#SUBTITLE:;
#ARTIST:猫叉Master feat. 常盤ゆう;
#TITLETRANSLIT:;
#SUBTITLETRANSLIT:;
#ARTISTTRANSLIT:Nekomata Master feat. Yu Tokiwa;
#GENRE:SOFT POP;
#CREDIT:;
#BANNER:REcollect.png;
#BACKGROUND:REcollect-bg.png;
#LYRICSPATH:;
#CDTITLE:cdtitle.png;
#MUSIC:REcollect.ogg;
#OFFSET:-0.391000;
#SAMPLESTART:91.881851;
#SAMPLELENGTH:17.543480;
#SELECTABLE:YES;
#BPMS:0.000000=115.000000
;
#STOPS:
;
#BGCHANGES:;
#KEYSOUNDS:;
#ATTACKS:;

//---------------dance-single - ----------------
#NOTES:
     dance-single:
     :
     Hard:
     8:
     0.298660,0.393535,0.024692,0.024692,0.000000,254.000000,251.000000,3.000000,3.000000,0.000000,0.000000,0.298660,0.393535,0.024692,0.024692,0.000000,254.000000,251.000000,3.000000,3.000000,0.000000,0.000000:
// measure 0
0000
0000
0000
0000
,  // measure 1
0000
0000
0000
0000
,  // measure 2
0000
0000
0000
0000
,  // measure 3
0000
0000
0000
0000
,  // measure 4
1000
0010
1000
0100
,  // measure 5
0010
0001
1000
0010
,  // measure 6
1000
0100
1000
0010
,  // measure 7
0100
0001
1000
0000
,  // measure 8
1001
0001
0100
0010
,  // measure 9
1000
0001
0010
0100
,  // measure 10
1000
0010
1000
0100
,  // measure 11
0010
0001
0100
0001
,  // measure 12
1000
0000
1000
0000
0001
0000
1000
0010
,  // measure 13
1000
0001
0100
0000
0001
0010
0100
0010
,  // measure 14
0001
0001
1000
1000
,  // measure 15
0010
0000
0100
0000
0001
0000
1000
0001
,  // measure 16
1000
0000
0010
1000
0100
0000
0010
0001
,  // measure 17
0100
0010
0100
0000
0001
0010
0100
1000
,  // measure 18
0001
0000
0001
0000
1000
0100
0010
0001
,  // measure 19
1000
0001
0000
0110
,  // measure 20
1001
0000
1000
0000
0001
0000
1000
0010
,  // measure 21
0100
0010
1000
0000
0100
0010
0001
0100
,  // measure 22
0010
0010
1000
1000
,  // measure 23
0100
0100
0010
0010
,  // measure 24
0001
0000
0001
0000
1000
0000
0001
0100
,  // measure 25
0010
0100
0001
0000
1000
0100
0010
0001
,  // measure 26
1000
0000
0001
0000
1000
0010
1000
0100
,  // measure 27
0000
0010
0001
1000
0000
0010
0100
0000
,  // measure 28
0001
0000
0001
0000
1000
0000
0001
1000
,  // measure 29
0000
0000
1000
0100
0000
0100
0010
0001
,  // measure 30
1000
1000
0001
1000
,  // measure 31
0010
0000
0100
0000
0010
1000
0100
0010
,  // measure 32
0001
0000
0001
0000
0100
0010
1000
0100
,  // measure 33
0000
0000
1000
0001
0000
0000
0001
0100
,  // measure 34
0010
0010
1000
0100
,  // measure 35
0010
0010
0100
1000
,  // measure 36
0001
0000
0000
0000
0000
0000
1000
0001
,  // measure 37
0000
0000
0001
0100
0000
0100
0001
1000
,  // measure 38
0100
0000
0000
0010
,  // measure 39
0001
0100
0010
1000
,  // measure 40
0001
1000
0001
1000
0001
1000
0001
1000
,  // measure 41
0001
0010
0001
0010
0100
1000
0100
1000
,  // measure 42
0010
0100
0010
0100
0010
0100
0010
0200
,  // measure 43
0000
0000
0000
0000
0000
0000
0300
0001
,  // measure 44
2000
0000
0000
3100
0000
0000
0000
0010
,  // measure 45
0001
1000
0010
1000
0000
0001
0010
0100
,  // measure 46
0010
0000
0001
0000
1000
0000
0001
1000
,  // measure 47
0010
0000
0100
0000
0001
0000
0010
0100
,  // measure 48
1000
0010
0100
0010
0000
0000
0000
1000
,  // measure 49
0001
0010
0100
0010
0000
0001
1000
0010
,  // measure 50
1000
0000
0100
0000
0010
0000
0001
1000
,  // measure 51
0001
0100
0010
1000
,  // measure 52
0100
0100
0010
0010
,  // measure 53
0001
0100
0001
1000
,  // measure 54
0001
0010
0001
0010
0100
1000
0010
0200
,  // measure 55
0000
0000
0000
0000
,  // measure 56
0000
0300
0000
0000
;

//---------------dance-single - ----------------
#NOTES:
     dance-single:
     :
     Medium:
     6:
     0.235165,0.254640,0.008231,0.016462,0.000000,200.000000,199.000000,1.000000,2.000000,0.000000,0.000000,0.235165,0.254640,0.008231,0.016462,0.000000,200.000000,199.000000,1.000000,2.000000,0.000000,0.000000:
0000
0000
0000
0000
,
0000
0000
0000
0000
,
0000
0000
0000
0000
,
0000
0000
0000
0000
,
1000
0001
1000
0001
,
0100
0010
0100
0010
,
1000
0001
1000
0001
,
0010
0100
0010
0100
,
1000
0010
0100
0001
,
1000
0100
0010
0100
,
1000
0010
0100
0010
,
1000
0100
0010
0001
,
1000
1000
0001
0001
,
0100
0010
1000
0001
,
1000
0100
0010
0100
,
1000
0000
0010
0000
0100
0000
0001
1000
,
0001
0000
1000
0001
1000
0000
0100
0000
,
0010
0001
0100
0010
,
1000
0000
0000
0001
,
1000
0001
0000
1001
,
1000
0000
1000
0000
0010
0000
0100
0001
,
0100
0001
0010
0100
,
1000
1000
0010
0010
,
1000
0100
0010
0001
,
1000
0000
1000
0000
0001
0000
0100
0010
,
0100
0000
0001
0000
0010
0000
0100
1000
,
0100
1000
0001
0100
,
0010
1000
0001
0010
,
0001
0001
0100
0100
,
0010
0010
1000
1000
,
0001
0001
0010
0010
,
0100
0100
1000
1000
,
0001
0100
0010
1000
,
0001
0010
0100
1000
,
0010
0100
0001
1000
,
0100
0010
0001
1000
,
0001
1000
0000
1000
,
0000
0010
0000
0010
,
0100
0001
0000
0001
,
0000
1000
0000
1000
,
0001
1000
0001
0000
1000
0000
0010
0000
,
1000
0001
1000
0000
0001
0000
0010
0000
,
0001
1000
0001
0000
1000
0000
0100
0020
,
0000
0000
0000
0000
,
0031
0001
1000
0000
,
0010
0100
0010
0000
,
1000
0000
1000
0000
0001
0000
0100
0010
,
0100
0001
0010
0100
,
1000
1000
0001
0000
,
0100
0010
0100
0000
,
0001
0000
0001
0000
1000
0000
0010
0100
,
0010
1000
0100
0010
,
0001
0100
0001
1000
,
0100
0010
0001
0100
,
0010
0000
0010
0000
1000
0000
0001
2000
,
0000
0000
0000
0000
,
0000
3000
0000
0000
;

//---------------dance-single - ----------------
#NOTES:
     dance-single:
     :
     Easy:
     4:
     0.181077,0.225318,0.008231,0.000000,0.000000,154.000000,153.000000,1.000000,0.000000,0.000000,0.000000,0.181077,0.225318,0.008231,0.000000,0.000000,154.000000,153.000000,1.000000,0.000000,0.000000,0.000000:
0000
0000
0000
0000
,
0000
0000
0000
0000
,
0000
0000
0000
0000
,
0000
0000
0000
0000
,
1000
0000
0001
0000
,
1000
0000
0001
0000
,
0100
0000
0010
0000
,
0100
0000
0010
0000
,
1000
0000
0001
0000
,
1000
0000
0001
0000
,
0010
0000
0100
0000
,
0010
0000
0100
0000
,
1000
0001
1000
0000
,
0010
0100
0010
0000
,
1000
0001
1000
0000
,
0100
0010
0100
0000
,
1000
0001
1000
0000
,
0001
0010
0100
0000
,
1000
0001
1000
0000
,
0001
1000
0000
1001
,
0001
1000
0001
1000
,
0100
0010
0100
1000
,
0001
0001
1000
1000
,
0010
0010
0100
0100
,
0001
1000
0001
0010
,
0100
1000
0010
0100
,
0010
1000
0001
1000
,
0100
0010
0001
0100
,
0001
0000
0000
1000
,
1000
0001
0001
1000
,
0001
0000
0000
0010
,
0100
1000
0010
0100
,
0001
0000
0000
1000
,
1000
0010
0010
0100
,
0001
0000
1000
0000
,
0001
0010
0100
0010
,
0001
1000
0000
0010
,
0000
0100
0000
0010
,
0000
1000
0000
0100
,
0000
0010
0000
0001
,
1000
1000
0001
0001
,
0100
0100
0010
0010
,
1000
1000
0001
0001
,
0000
0000
0000
0000
,
1000
0000
0001
0000
,
1000
0100
0010
0001
,
0100
0000
0010
0000
,
1000
1000
0001
0001
,
1000
0000
0001
0000
,
1000
0010
0100
0001
,
0010
0000
0100
0000
,
1000
1000
0001
0001
,
1000
0010
0100
0010
,
1000
0100
0010
0001
,
0100
0010
0100
0001
;

//---------------dance-single - ----------------
#NOTES:
     dance-single:
     :
     Beginner:
     2:
     0.087011,0.112659,0.000000,0.000000,0.000000,74.000000,74.000000,0.000000,0.000000,0.000000,0.000000,0.087011,0.112659,0.000000,0.000000,0.000000,74.000000,74.000000,0.000000,0.000000,0.000000,0.000000:
0000
0000
0000
0000
,
0000
0000
0000
0000
,
0000
0000
0000
0000
,
0000
0000
0000
0000
,
1000
0000
0000
0000
,
0001
0000
0000
0000
,
0010
0000
0000
0000
,
0100
0000
0000
0000
,
1000
0000
0000
0000
,
0001
0000
0000
0000
,
0100
0000
0000
0000
,
0010
0000
0000
0000
,
1000
0000
1000
0000
,
0001
0000
0001
0000
,
1000
0000
1000
0000
,
0001
0000
0001
0000
,
1000
0000
1000
0000
,
0010
0000
0010
0000
,
0100
0000
0100
0000
,
0001
0000
0000
0000
,
1000
0000
0001
0000
,
1000
0000
0000
0000
,
0010
0000
0100
0000
,
0010
0000
0000
0000
,
1000
0000
0001
0000
,
1000
0000
0000
0000
,
0100
0000
0010
0000
,
0100
0000
1000
0000
,
0001
0000
0000
0000
,
1000
0000
0001
0000
,
1000
0000
0000
0000
,
0010
0000
0100
0000
,
0010
0000
0000
0000
,
1000
0000
0001
0000
,
1000
0000
0000
0000
,
0001
0000
0000
0000
,
1000
0000
0000
0000
,
0100
0000
0000
0000
,
0010
0000
0000
0000
,
0001
0000
0000
0000
,
1000
0000
1000
0000
,
0010
0000
0010
0000
,
0100
0000
0100
0000
,
0000
0000
0000
0000
,
0001
0000
0000
0000
,
1000
0000
0010
0000
,
1000
0000
0000
0000
,
0001
0000
0010
0000
,
0001
0000
0000
0000
,
1000
0000
0001
0000
,
1000
0000
0000
0000
,
0010
0000
1000
0000
,
0010
0000
0000
0000
,
1000
0000
0100
0000
,
1000
0000
0000
0001
;
