#VERSION:0.83;
#TITLE:Platinum;
#SUBTITLE:;
#ARTIST:jioyi;
#TITLETRANSLIT:;
#SUBTITLETRANSLIT:;
#ARTISTTRANSLIT:;
#GENRE:UK HARDCORE;
#ORIGIN:;
#CREDIT:;
#BANNER:Platinum.png;
#BACKGROUND:Platinum-bg.png;
#PREVIEWVID:;
#JACKET:Platinum-jacket.png;
#CDIMAGE:;
#DISCIMAGE:;
#LYRICSPATH:;
#CDTITLE:cdtitle.png;
#MUSIC:Platinum.ogg;
#OFFSET:0.000000;
#SAMPLESTART:89.620773;
#SAMPLELENGTH:10.571865;
#SELECTABLE:YES;
#BPMS:0.000=182.000,
176.000=91.000,
192.000=182.000;
#STOPS:;
#DELAYS:;
#WARPS:;
#TIMESIGNATURES:0.000=4=4;
#TICKCOUNTS:0.000=4;
#COMBOS:0.000=1;
#SPEEDS:0.000=1.000=0.000=0;
#SCROLLS:0.000=1.000;
#FAKES:;
#LABELS:0.000=Song Start;
#BGCHANGES:;
#KEYSOUNDS:;
#ATTACKS:
;

//---------------dance-single - ----------------
#NOTEDATA:;
#CHARTNAME:;
#STEPSTYPE:dance-single;
#DESCRIPTION:;
#CHARTSTYLE:;
#DIFFICULTY:Challenge;
#METER:16;
#RADARVALUES:0.822344,0.938048,0.197608,0.034367,0.756066,670.000000,647.000000,23.000000,4.000000,0.000000,0.000000,0.000000,0.000000,0.000000,0.822344,0.938048,0.197608,0.034367,0.756066,670.000000,647.000000,23.000000,4.000000,0.000000,0.000000,0.000000,0.000000,0.000000;
#CREDIT:;
#NOTES:
0000
0000
0000
0000
,
0000
0000
0000
0000
,
0000
0000
0000
0000
,
0000
0000
0000
0000
,
1000
0000
0100
0010
0000
0100
1000
0000
0100
0010
0000
0100
1000
0000
0001
0100
,
0001
0000
0100
0010
0000
0100
0001
0000
0100
0010
0000
0100
0001
1000
0001
1000
,
0001
0000
0010
0100
0000
0010
0001
0000
0010
0100
0000
0010
0001
0000
1000
0010
,
1000
0000
0010
0100
0000
0010
1000
0000
0010
0100
0000
0010
1000
0001
1000
0001
,
1000
0000
0100
0010
0000
0001
1000
0001
1000
0000
0010
0100
0000
0001
1000
0001
,
1000
0000
0100
0010
0000
0001
1000
0001
1000
0000
0010
0100
0000
0001
1000
0001
,
1000
0100
0001
0100
1000
0010
0001
0010
,
1000
0000
0000
0000
0001
0010
0001
0000
1000
0010
1000
0000
1001
0000
0000
0000
,
2000
0000
0000
0000
0000
0000
3001
0100
0001
0000
0000
0000
1000
0000
0100
0000
,
1000
0010
1000
0010
2000
0000
0000
0000
3100
0000
0010
0000
0002
0000
0000
0000
,
0103
0000
0000
0100
0000
0000
0100
0000
0001
0000
0010
0000
1000
0000
0010
0000
,
0001
0000
1001
1001
1001
0000
1000
0000
,
0002
0000
1003
0100
0010
0100
1000
0000
,
0010
0100
0010
0100
0001
0000
1000
0000
0100
0000
0001
0000
0100
0000
1000
0000
,
0001
0001
1000
1000
,
0001
0000
0010
0000
0100
0000
1000
0000
0001
0100
0001
0100
0010
0000
0000
0000
,
1000
0010
0001
0010
1000
0100
0001
0100
,
1000
0010
0100
0010
0001
0010
0100
0001
,
1000
0100
0001
0100
1000
0010
0001
0010
,
1000
0100
0010
0100
0001
0100
0010
0000
,
0001
0100
1000
0100
0001
0010
1000
0010
,
0001
0100
0010
0100
1000
0000
0100
0001
,
1000
0010
0100
0010
0001
0010
0100
0010
,
1000
0000
0100
0000
1000
0000
0100
0000
1000
0001
1000
0001
1000
0000
0000
0000
,
0001
0000
0100
0000
0001
0010
0000
0001
1000
0000
0100
0000
1000
0010
0000
1000
,
0100
0000
1000
0001
0000
0100
0001
0000
0010
0100
0000
1000
0001
0000
0000
0000
,
1000
0000
0010
0000
1000
0100
0000
1000
0001
0000
0010
0000
0001
0100
0000
0001
,
0010
0000
0001
1000
0000
0010
1000
0000
0100
0010
0000
0001
1000
0000
0001
0000
,
1000
0000
0010
0000
1000
0100
0000
0010
0001
0000
0100
0000
0001
0010
0000
0100
,
1000
0000
0010
1000
0000
0001
0010
0000
0001
1000
0000
0100
1000
0000
0000
0000
,
0001
0000
0100
0000
0010
0100
0000
0001
1000
0000
0100
0010
0000
0100
1000
0000
,
0001
0000
0000
0101
0000
0000
1100
0000
0000
1010
0000
0000
0011
0000
1000
0000
,
0001
0000
1000
0000
0010
0000
1000
0100
0000
1000
0010
0000
1000
0001
0000
0010
,
0100
0000
1000
0010
0000
0100
0001
0000
0010
0001
0000
0010
0100
0000
0000
0000
,
1000
0000
0010
0000
1000
0100
0000
1000
0001
0000
0100
0000
0001
0010
0000
0001
,
1000
0000
0100
1000
0000
0001
0100
0000
0001
0010
0000
0001
1000
0000
0010
0000
,
1000
0000
0001
0000
0010
0100
0000
1000
0010
0000
0100
0000
0001
1000
0000
0100
,
0010
0000
0001
0100
0000
0010
0100
0000
0001
1000
0000
0100
0010
0000
0100
0000
,
1000
0010
1000
0010
0100
0001
0100
0001
0010
0100
0010
0100
1000
0001
1000
0001
,
0010
0000
0100
1000
0000
0010
0100
0010
,
1000
0100
1000
0000
0001
0000
0100
0010
0000
0100
0000
0001
0000
0010
0100
1000
,
0001
0000
0000
0100
0000
0000
0001
0000
0000
1000
0000
0000
0100
0000
0000
0000
1000
0000
0000
0010
0000
0000
1000
0000
0000
0001
0000
0000
0010
0000
0000
0000
,
0001
0100
0001
0000
1000
0000
0100
0010
0000
0100
0000
1000
0000
0010
0100
0001
,
1000
0000
0000
0000
0100
0000
0010
0000
0000
0000
0010
0000
0001
0000
0000
0000
0100
0000
0010
0000
0000
0000
0010
0000
1000
0001
1000
0000
0100
0000
0010
0000
,
0100
1000
0001
0000
1001
0000
1000
0010
,
0000
0000
1000
0001
1000
0100
1000
0100
0010
0001
0010
0001
0100
0010
0100
0010
,
1000
0001
0010
0000
1001
0000
0001
0100
,
0000
0000
0001
1000
0001
0010
0001
0010
0100
1000
0100
1000
0010
0100
0010
0100
,
0001
0010
0100
0000
1001
0000
1000
0001
,
1000
0000
0010
0100
0010
0000
1000
0000
0100
0010
0100
0000
0010
0000
0001
1000
,
0001
0100
0010
0000
0010
0000
1000
0010
,
0000
0000
0000
1000
0010
0001
0010
1000
,
0001
0010
0100
0000
1000
0000
0001
0000
,
1000
0000
0000
0000
0001
0000
0000
0000
1000
0000
0000
0000
0001
0000
1000
0001
,
1000
0001
1000
0001
,
1000
0000
0000
0000
0001
0000
0000
0000
1000
0000
0000
0000
0001
0000
1000
0001
,
1000
0000
0010
0000
0001
0000
0010
0000
1000
0000
0100
0000
0010
0000
0001
1000
,
0001
0000
0100
0000
1000
0000
0100
0000
0001
0000
0010
0000
0100
0000
1000
0001
,
1000
0010
1000
0010
0100
0001
0100
0001
0010
0100
0010
0100
1000
0000
0000
0000
,
0001
0000
0000
0000
1000
0010
1000
0000
0001
1000
0001
0000
1001
0000
0000
0000
,
1000
0100
0010
0000
0110
0000
0100
1000
,
0000
0010
0100
0001
0000
0010
0100
0010
,
0001
0000
0000
1000
0010
0000
1000
0000
0100
0010
0000
0000
0100
0000
0000
0000
,
1000
0000
0000
0001
0100
0000
0001
0000
0010
0100
0000
0000
0010
0000
0000
0000
,
0001
0100
0010
0000
0110
0000
0100
0001
,
0000
0000
0010
0000
0100
0000
1000
0000
0001
0000
0001
0000
1000
0000
0000
0001
,
1000
0000
0001
0101
0000
1000
1100
0000
,
0001
0000
0011
0000
0000
0000
1000
0000
0010
1000
0010
0000
0100
0000
0001
0000
,
1000
0100
0001
0100
1000
0010
0100
0001
,
0000
0010
0100
0010
0000
0001
0100
0001
,
1000
0000
0000
0100
0010
0000
0100
0000
1000
0001
0000
0000
0100
0000
0000
0000
,
0001
0000
0000
0010
0100
0000
0010
0000
0001
1000
0000
0000
0010
0000
0000
0000
,
1000
0100
0010
0001
0100
0010
1000
0001
,
0000
0010
0100
0010
0000
0001
1000
0100
,
1000
0000
0000
1010
0000
0000
0011
0000
0000
0101
0000
0000
1100
0000
0000
0110
,
0000
0000
1001
0000
0000
1000
0001
0000
0010
0000
0100
0000
1000
0000
0010
0000
,
1000
0100
1000
0100
0010
0001
0010
0001
;

//---------------dance-single - ----------------
#NOTEDATA:;
#CHARTNAME:;
#STEPSTYPE:dance-single;
#DESCRIPTION:;
#CHARTSTYLE:;
#DIFFICULTY:Hard;
#METER:13;
#RADARVALUES:0.644374,0.833820,0.180425,0.042958,0.378033,525.000000,504.000000,21.000000,5.000000,0.000000,0.000000,0.000000,0.000000,0.000000,0.644374,0.833820,0.180425,0.042958,0.378033,525.000000,504.000000,21.000000,5.000000,0.000000,0.000000,0.000000,0.000000,0.000000;
#CREDIT:;
#NOTES:
0000
0000
0000
0000
,
0000
0000
0000
0000
,
0000
0000
0000
0000
,
0000
0000
0000
0000
,
1000
0000
0000
1001
0000
0000
0001
0000
0000
1001
0000
0000
2000
0000
0000
0000
,
3001
0000
0000
0011
0000
0000
0010
0000
0000
0011
0000
0000
0002
0000
0000
0000
,
0103
0000
0000
0110
0000
0000
0010
0000
0000
0110
0000
0000
0200
0000
0000
0000
,
0310
0000
0000
1010
0000
0000
1000
0000
0000
1010
0000
0000
0020
0000
0000
0000
,
1030
0000
0000
0100
0000
0000
0010
0000
0001
0000
0000
0100
0000
0000
0010
0000
,
1000
0000
0000
0001
0000
0000
0010
0000
0100
0000
0000
1000
0000
0000
0010
0000
,
1000
0100
0001
0100
1000
0010
0001
0010
,
1000
0000
0000
0000
0001
0010
0001
0000
1000
0001
1000
0000
1001
0000
0000
0000
,
0002
0000
0000
0000
0000
0000
0103
0010
0100
0000
0000
0000
0010
0000
1000
0000
,
0001
1000
0001
1000
0001
0000
0000
0000
1000
0000
0100
0000
0010
0000
0000
0000
,
0100
0000
0000
0100
0000
0000
0100
0000
1000
0000
0010
0000
0100
0000
0001
0000
,
0010
0000
0010
0100
1000
0000
0001
0000
,
1000
0000
0010
0000
0000
1000
0001
0000
,
1000
0100
1000
0100
1000
0000
0001
0000
0100
0000
1000
0000
0100
0000
0001
0000
,
1000
1000
0001
0001
,
1000
0100
0010
0001
0100
0010
1000
0000
,
0001
0010
0001
0100
0001
0010
0001
0100
,
0010
1000
0100
1000
0010
1000
0100
0000
,
1000
0010
1000
0100
1000
0010
1000
0100
,
0010
0001
0100
0001
0010
0001
0100
0000
,
0001
0010
0100
0010
0001
0010
0100
0010
,
0001
0100
0010
0100
0001
0100
0010
0000
,
1000
0100
0010
0100
1000
0100
0010
0100
,
1000
0010
0100
0001
0010
0100
1000
0000
,
0001
0000
0100
0000
0000
0010
0000
0000
1000
0000
0100
0000
0000
0010
0000
0000
,
0001
0000
0000
0100
0000
0000
1000
0000
0000
0100
0000
0000
0001
0000
0000
0000
,
1000
0000
0100
0000
0000
0010
0000
0000
0001
0000
0100
0000
0000
0010
0000
0000
,
1000
0000
0000
0100
0000
0000
0001
0000
0000
0100
0000
0000
1000
0000
0000
0000
,
0001
0000
1000
0000
0000
0010
0000
0000
1000
0000
0001
0000
0000
0010
0000
0000
,
0001
0000
0000
0100
0000
0000
0010
0000
0000
1000
0000
0000
0001
0000
0000
0000
,
1000
0000
0001
0000
0000
0010
0000
0000
0001
0000
0000
1000
0000
0000
0010
0000
,
1000
0000
0000
1100
0000
0000
0100
0000
0000
0110
0000
0000
0010
0000
0001
0000
,
0000
0000
0001
0000
1000
0000
0000
0010
0000
0000
0100
0000
0000
0001
0000
0000
,
0010
0000
0000
0100
0000
0000
0010
0000
0000
0001
0000
0000
1000
0000
0000
0000
,
0001
0000
0100
0000
0000
0010
0000
0000
0100
0000
0001
0000
0000
1000
0000
0000
,
0100
0000
0000
0100
0000
0000
0010
0000
0000
0010
0000
0000
0001
0000
1000
0000
,
0001
0000
0100
0000
0000
0010
0000
0000
1000
0000
0100
0000
0000
0010
0000
0000
,
0100
0000
0000
0100
0000
0000
1000
0000
0000
1000
0000
0000
0001
0000
0100
0000
,
0001
0010
0001
0010
0100
1000
0100
1000
,
0010
0000
0010
0100
0000
0100
0001
1000
,
0001
0010
0001
0000
1000
0000
0100
0010
0000
0100
0000
1000
0000
0010
0100
0010
,
0100
0000
0000
0100
0000
0000
0010
0000
0000
0010
0000
0000
1000
0000
0000
0000
0001
0000
0000
0001
0000
0000
0010
0000
0000
0010
0000
0000
0100
0000
0000
0000
,
1000
0010
1000
0000
0001
0000
0010
0100
0000
0010
0000
0001
0000
0100
0010
0100
,
0010
0000
0010
1000
0000
1000
0100
0000
0100
0010
0000
0010
0001
0100
1000
0100
,
0001
1000
0001
0000
1001
0000
1000
0001
,
0000
1000
0100
0010
1000
0010
0001
1000
,
0001
1000
0001
0000
1001
0000
1000
0001
,
0000
1000
0010
0100
1000
0100
0001
1000
,
0001
1000
0001
0000
1001
0000
1000
0001
,
0010
0010
0100
1000
1000
0001
0100
0010
,
1000
0100
0010
0000
0011
0000
0001
1000
,
0000
0000
0000
0001
0100
0001
0010
0001
,
1000
0100
0010
0000
0001
0000
1000
0000
,
0001
0000
0000
0000
1000
0000
0000
0000
0001
0000
0000
0000
1000
0000
0001
1000
,
0001
1000
0001
1000
,
0001
0000
0000
0000
1000
0000
0000
0000
0001
0000
0000
0000
1000
0000
0001
1000
,
0001
0010
0100
1000
0001
0100
0010
1000
,
0001
0010
0100
1000
0001
0100
0010
1000
,
0001
0010
1000
0010
0001
1000
0010
0000
,
1000
0000
0000
0000
0001
0100
0001
0000
1000
0001
1000
0000
1001
0000
0000
0000
,
1000
0100
0010
0000
0011
0000
0001
1000
,
0000
0010
0100
0010
0000
1000
0001
0010
,
0001
0000
0000
0100
0000
0000
0010
0000
0000
1000
0000
0000
0100
0000
0000
0000
,
1000
0000
0000
0010
0000
0000
0100
0000
0000
0001
0000
0000
0010
0000
0000
0000
,
0001
0100
0010
0000
1010
0000
1000
0001
,
0000
0010
0100
0010
0000
0001
1000
0010
,
1000
0000
0100
0010
0000
0010
0001
0000
,
0001
0100
0000
0100
0010
1000
0010
1000
,
0001
0010
0100
0001
0100
1000
0010
1000
,
0000
0100
0010
0100
0000
1000
0001
0100
,
0001
0000
0000
0010
0000
0000
0100
0000
0000
1000
0000
0000
0010
0000
0000
0000
,
1000
0000
0000
0100
0000
0000
0010
0000
0000
0001
0000
0000
0100
0000
0000
0000
,
0001
1000
0010
0100
1000
0100
0001
1000
,
0000
0100
0010
0001
0000
0100
0010
0100
,
0001
0000
0000
1001
0000
0000
1000
0000
0000
1100
0000
0000
0100
0000
0000
0110
,
0000
0000
0010
0000
0000
0001
1000
0000
0010
0000
1000
0000
0001
0000
0010
0000
,
0001
0010
0100
1000
0100
1000
0001
1000
;

//---------------dance-single - ----------------
#NOTEDATA:;
#CHARTNAME:;
#STEPSTYPE:dance-single;
#DESCRIPTION:;
#CHARTSTYLE:;
#DIFFICULTY:Medium;
#METER:9;
#RADARVALUES:0.440629,0.555880,0.111692,0.008592,0.090212,359.000000,346.000000,13.000000,1.000000,0.000000,0.000000,0.000000,0.000000,0.000000,0.440629,0.555880,0.111692,0.008592,0.090212,359.000000,346.000000,13.000000,1.000000,0.000000,0.000000,0.000000,0.000000,0.000000;
#CREDIT:;
#NOTES:
0000
0000
0000
0000
,
0000
0000
0000
0000
,
0000
0000
0000
0000
,
0000
0000
0000
0000
,
1000
0000
0000
1010
0000
0000
1001
0000
,
0001
0000
0000
0011
0000
0000
1001
0000
,
1000
0000
0000
1100
0000
0000
1001
0000
,
0001
0000
0000
0101
0000
0000
1001
0000
,
1000
0000
1000
0100
0010
0000
0010
0001
,
0100
0000
0100
0010
1000
0000
1000
0001
,
1000
0000
0001
0000
1000
0001
1000
0001
,
1000
0001
0100
1001
,
0002
0000
0000
0013
0100
0000
1000
0000
,
0001
0100
0010
0000
1000
0001
1000
0000
,
0100
0000
0000
0100
0000
0000
0100
0000
0010
0000
0000
0000
0001
0000
0000
0000
,
1000
0000
1000
0001
1000
0000
0001
0000
,
1000
0000
0010
0000
0000
1000
0001
0000
,
0010
0100
0010
0000
0001
0000
1000
0000
,
0001
0001
0100
0100
,
0010
0000
0010
0000
1000
0001
1000
0000
,
0001
0010
0001
0000
0100
0000
0010
0000
,
1000
1000
0010
0100
,
0001
0001
0010
0010
,
0100
0000
0100
0000
1000
0001
1000
0000
,
0001
1000
0001
0000
0100
0000
0010
0000
,
1000
0000
0001
0010
0001
0000
1000
0000
,
0001
0100
0001
0000
1000
0100
1000
0000
,
0001
0001
1000
1000
0001
0000
1001
0000
,
1000
0010
1000
0001
,
1000
0000
0000
1000
0000
0000
0010
0000
0000
0010
0000
0000
1000
0000
0000
0000
,
0001
0010
0001
1000
,
0001
0000
0000
0001
0000
0000
1000
0000
0000
1000
0000
0000
0010
0000
0000
0000
,
1000
0100
1000
0001
,
1000
0000
0000
1000
0000
0000
0100
0000
0000
0100
0000
0000
0010
0000
0000
0000
,
0001
1000
0001
0100
,
0001
0000
0000
0001
0000
0000
1000
0000
0000
1000
0000
0000
0001
0000
1000
0000
,
0000
0001
0010
0100
,
1000
0010
1000
0001
,
0010
0100
0010
0100
,
1000
0000
0000
1000
0000
0000
0001
0000
0000
0001
0000
0000
1000
0000
0000
0000
,
0100
0010
0100
0010
,
0001
0000
0000
0001
0000
0000
0010
0000
0000
0010
0000
0000
0100
0000
0000
0000
,
1000
1000
0001
0001
,
1000
0000
1000
0010
0000
0010
0100
0000
,
0001
0000
0001
0000
1000
0000
0000
1000
0000
0010
0000
1000
0000
0000
0100
0000
,
1000
1000
0010
0100
0001
0001
0010
0100
,
1000
0000
1000
0000
0001
0000
0000
0001
0000
0100
0000
0010
0000
0000
0100
0000
,
0001
0000
0000
0010
0000
0000
0100
0000
0000
1000
0000
0000
0001
0000
1000
0000
,
0001
1000
0001
0000
1000
0000
0001
1000
,
0000
0000
0000
0000
,
0010
0100
0010
0000
0100
0000
0010
0100
,
0000
0000
0000
0000
,
0001
1000
0001
0000
1000
0000
0001
1000
,
0000
0000
0000
0000
,
0100
0010
0100
0000
0010
0000
0100
0010
,
0000
0000
0000
0000
,
0001
0001
0001
0001
,
0100
0100
0100
0100
,
0010
0010
0010
0010
,
1000
1000
1000
1000
,
0001
0001
0010
0010
,
1000
1000
0010
0010
,
0001
0100
0001
0100
0010
1000
0010
0000
,
1000
0100
0010
1001
,
0001
0100
0010
0100
,
0001
0010
0100
1000
,
0010
0000
0100
0000
0001
1000
0001
0000
,
0010
0000
0100
0000
1000
0001
1000
0000
,
0001
1000
0010
1000
,
0001
0000
0010
0000
0100
1000
0100
0000
,
1000
0000
1000
0010
0000
0010
0100
0000
,
0100
0001
0000
0001
1000
0000
0001
0000
,
1000
0100
0010
0100
,
1000
0010
0100
0001
,
0010
0000
0100
0000
1000
0001
1000
0000
,
0010
0000
0100
0000
0001
1000
0001
0000
,
1000
0001
0010
0001
,
1000
0001
0100
0010
,
1000
0000
0000
1100
0000
0000
0001
0000
,
0000
0101
0000
1000
0010
1000
0001
0000
,
1000
0000
0001
0000
1000
0000
0001
1000
;

//---------------dance-single - ----------------
#NOTEDATA:;
#CHARTNAME:;
#STEPSTYPE:dance-single;
#DESCRIPTION:;
#CHARTSTYLE:;
#DIFFICULTY:Easy;
#METER:5;
#RADARVALUES:0.274933,0.312199,0.060142,0.017183,0.000000,224.000000,217.000000,7.000000,2.000000,0.000000,0.000000,0.000000,0.000000,0.000000,0.274933,0.312199,0.060142,0.017183,0.000000,224.000000,217.000000,7.000000,2.000000,0.000000,0.000000,0.000000,0.000000,0.000000;
#CREDIT:;
#NOTES:
0000
0000
0000
0000
,
0000
0000
0000
0000
,
0000
0000
0000
0000
,
0000
0000
0000
0000
,
1000
0000
0000
1001
,
0001
0000
0000
1001
,
1000
0000
0000
1001
,
0001
0000
0000
1001
,
1000
0000
0100
0000
,
0010
0000
0001
0000
,
0100
0100
0010
0010
,
1000
0000
0001
1001
,
1000
0000
0100
0000
,
1000
0000
0001
0000
,
0100
0000
0001
0000
,
0010
0010
0100
0100
,
1000
0001
0000
1000
,
0010
1000
0000
0001
,
2000
0000
0000
0000
,
3001
0100
0010
1000
,
0001
0001
1000
1000
,
0100
0100
0010
0010
,
0001
0001
1000
1000
,
0010
0010
0100
0100
,
0001
0001
0010
0010
,
0100
0100
1000
1000
,
0001
0001
0100
0100
,
0020
0000
0000
1030
,
0001
0000
0100
0000
,
0001
0010
0100
1000
,
0010
0000
0100
0000
,
0001
1000
0100
0010
,
0001
0000
1000
0000
,
0010
0100
0001
1000
,
0100
0000
0010
0000
,
0001
0000
0000
1000
,
0000
0001
0000
0000
,
1000
0010
1000
0001
,
0010
0000
0100
0000
,
1000
0001
0100
0001
,
0010
0000
0100
0000
,
1000
0010
0100
0001
,
0010
0010
0100
0100
,
1000
0000
0000
0001
,
1000
0100
0010
0100
,
1000
0010
0100
0001
,
1000
0100
0010
0001
,
1000
0010
0100
0010
,
1000
0001
1000
0001
,
0000
0000
0000
0000
,
0010
0100
0010
0100
,
0000
0000
0000
0000
,
1000
0001
1000
0001
,
0000
0000
0000
0000
,
0100
0010
0100
0010
,
0000
0000
0000
0000
,
1000
1000
1000
1000
,
0001
0001
0001
0001
,
1000
1000
1000
1000
,
0001
0001
0001
0001
,
1000
0100
0010
0001
,
1000
0010
0100
0001
,
0010
0010
0100
0100
,
1000
0000
0001
1000
,
0001
0000
0100
0000
,
0001
1000
0001
0000
,
1000
0000
0100
0000
,
1000
0000
0001
0000
,
1000
0000
0010
0000
,
1000
0001
1000
0000
,
0001
0000
0000
1001
,
0000
0000
1000
0100
,
0010
0000
0001
0000
,
0100
0010
0100
0000
,
0001
0000
0010
0000
,
0001
0000
1000
0000
,
0100
0000
0010
0000
,
0001
1000
0001
0000
,
1000
0000
0000
1001
,
0000
0000
0000
0001
,
1000
0010
0100
0001
;

//---------------dance-single - ----------------
#NOTEDATA:;
#CHARTNAME:;
#STEPSTYPE:dance-single;
#DESCRIPTION:;
#CHARTSTYLE:;
#DIFFICULTY:Beginner;
#METER:3;
#RADARVALUES:0.142376,0.277510,0.000000,0.077325,0.000000,116.000000,116.000000,0.000000,9.000000,0.000000,0.000000,0.000000,0.000000,0.000000,0.142376,0.277510,0.000000,0.077325,0.000000,116.000000,116.000000,0.000000,9.000000,0.000000,0.000000,0.000000,0.000000,0.000000;
#CREDIT:;
#NOTES:
// measure 0
0000
0000
0000
0000
,  // measure 1
0000
0000
0000
0000
,  // measure 2
0000
0000
0000
0000
,  // measure 3
0000
0000
0000
0000
,  // measure 4
2000
0000
0000
3000
,  // measure 5
0002
0000
0000
0003
,  // measure 6
0200
0000
0000
0300
,  // measure 7
0020
0000
0000
0030
,  // measure 8
1000
0000
1000
0000
,  // measure 9
0001
0000
0001
0000
,  // measure 10
1000
0000
0001
0000
,  // measure 11
1000
0000
0000
0000
,  // measure 12
0001
0000
0000
0000
,  // measure 13
0100
0000
0010
0000
,  // measure 14
1000
0000
0000
0000
,  // measure 15
0100
0000
0010
0000
,  // measure 16
0001
0000
0000
0000
,  // measure 17
1000
0000
0000
0000
,  // measure 18
0002
0000
0000
0000
,  // measure 19
0000
0000
0000
0003
,  // measure 20
1000
0000
1000
0000
,  // measure 21
0010
0000
0010
0000
,  // measure 22
0100
0000
0100
0000
,  // measure 23
0001
0000
0001
0000
,  // measure 24
1000
0000
1000
0000
,  // measure 25
0100
0000
0100
0000
,  // measure 26
0010
0000
0010
0000
,  // measure 27
0001
0000
0000
0000
,  // measure 28
1000
0000
0000
0000
,  // measure 29
0010
0000
0100
0000
,  // measure 30
0001
0000
0000
0000
,  // measure 31
0010
0000
0100
0000
,  // measure 32
1000
0000
0000
0000
,  // measure 33
0001
0000
0100
0000
,  // measure 34
0001
0000
0000
0000
,  // measure 35
1000
0000
0000
0000
,  // measure 36
0000
0001
0000
0000
,  // measure 37
1000
0000
0010
0000
,  // measure 38
1000
0000
0000
0000
,  // measure 39
0001
0000
0010
0000
,  // measure 40
0001
0000
0000
0000
,  // measure 41
1000
0000
0010
0000
,  // measure 42
0100
0000
0000
0000
,  // measure 43
0001
0000
0000
0000
,  // measure 44
1000
0001
1000
0000
,  // measure 45
0100
0100
0010
0010
,  // measure 46
0001
1000
0001
0000
,  // measure 47
0100
0100
0010
0010
,  // measure 48
2000
0000
0000
0000
0000
0000
0000
3000
,  // measure 49
0000
0000
0000
0000
,  // measure 50
0020
0000
0000
0000
0000
0000
0000
0030
,  // measure 51
0000
0000
0000
0000
,  // measure 52
0200
0000
0000
0000
0000
0000
0000
0300
,  // measure 53
0000
0000
0000
0000
,  // measure 54
0002
0000
0000
0000
0000
0000
0000
0003
,  // measure 55
0000
0000
0000
0000
,  // measure 56
1000
0000
1000
0000
,  // measure 57
0001
0000
0001
0000
,  // measure 58
0010
0000
0010
0000
,  // measure 59
0100
0000
0100
0000
,  // measure 60
1000
0000
1000
0000
,  // measure 61
0001
0000
0001
0000
,  // measure 62
0100
0000
0100
0000
,  // measure 63
0010
0000
0000
0000
,  // measure 64
1000
0000
0000
0000
,  // measure 65
0001
0000
0000
0000
,  // measure 66
0010
0000
0010
0000
,  // measure 67
0100
0000
0100
0000
,  // measure 68
1000
0000
0000
0000
,  // measure 69
0001
0000
0000
0000
,  // measure 70
0100
0000
0000
0100
,  // measure 71
0000
0000
0010
0000
,  // measure 72
1000
0000
0000
0000
,  // measure 73
0100
0000
0000
0000
,  // measure 74
0010
0000
0010
0000
,  // measure 75
0001
0000
0001
0000
,  // measure 76
1000
0000
0000
0000
,  // measure 77
0010
0000
0000
0000
,  // measure 78
0100
0000
0000
0100
,  // measure 79
0000
0000
0000
0001
,  // measure 80
0001
1000
1000
0001
;
