#TITLE:Party Stream !!;
#SUBTITLE:;
#ARTIST:DJ Amane;
#TITLETRANSLIT:;
#SUBTITLETRANSLIT:;
#ARTISTTRANSLIT:;
#GENRE:HAPPY HARDCORE;
#CREDIT:;
#BANNER:Party Stream !!.png;
#BACKGROUND:Party Stream !!-bg.png;
#LYRICSPATH:;
#CDTITLE:cdtitle.png;
#MUSIC:Party Stream !!.ogg;
#OFFSET:-0.240000;
#SAMPLESTART:96.209518;
#SAMPLELENGTH:10.709999;
#SELECTABLE:YES;
#BPMS:0.000000=180.000000
;
#STOPS:
;
#BGCHANGES:;
#KEYSOUNDS:;
#ATTACKS:;

//---------------dance-single - ----------------
#NOTES:
     dance-single:
     :
     Challenge:
     14:
     0.779193,0.951185,0.157977,0.108089,0.606963,656.000000,637.000000,19.000000,13.000000,0.000000,0.000000,0.779193,0.951185,0.157977,0.108089,0.606963,656.000000,637.000000,19.000000,13.000000,0.000000,0.000000:
0000
0000
0000
0000
,
0000
0000
0000
0000
,
0000
0000
0000
0000
,
0000
0000
0000
0000
,
1000
0000
0010
0000
1000
0000
0001
0010
0000
0010
0100
0000
1000
0000
0010
0000
,
0100
0000
0000
0010
0000
0100
0000
0001
0010
0000
0001
1000
0001
0000
0000
0000
,
1000
0000
0100
0000
1000
0000
0001
0100
0000
0100
0010
0000
1000
0000
0100
0000
,
0010
0000
0000
0010
0000
0000
0010
0000
0100
0000
1000
0000
0001
0000
1000
0001
,
1000
0000
0010
0000
0100
0000
0001
0010
0000
0010
0100
0000
0010
0000
0001
0000
,
1000
0000
0000
0000
0010
0000
0100
0010
0100
0001
0000
1000
0001
1000
0001
0000
,
1000
0000
0100
0000
0010
0000
0100
1000
0000
1000
0010
0000
0100
0000
0001
0000
,
0010
0000
0100
0010
0000
0100
0000
1000
0000
0000
0000
0010
1000
0000
0001
1000
,
0001
0010
0001
0010
0100
1000
0100
1000
,
0001
0100
0001
0100
0010
1000
0010
1000
,
0100
0010
0100
0010
0100
0010
0100
0010
0001
1000
0001
1000
0001
1000
0001
1000
,
0002
0000
0000
0000
,
2003
0000
0000
0000
,
3020
0000
0000
0000
,
0230
0000
0000
0000
,
0302
0000
0000
0000
,
0023
0000
0000
0000
,
0230
0000
0000
0000
,
2300
0000
0000
0000
,
3002
0000
0000
0000
,
1003
1000
0010
0010
,
0100
0100
0001
0001
,
1000
1000
0100
0100
,
0010
0010
0001
0001
,
1000
0010
1000
0010
0100
0001
0100
0001
,
0010
0100
0010
0100
1000
0001
1000
0001
,
1000
0010
0001
0010
1000
0010
0001
0010
,
1000
1000
0100
0100
0010
0001
1000
0000
,
0001
0000
0100
0000
0010
1000
0000
1000
0100
0000
1000
0001
1000
0000
0010
0000
,
1000
0100
0010
0100
0001
0100
0010
0100
,
1000
0000
0010
0000
0100
0001
0000
0001
0010
0000
0001
1000
0001
0000
0100
0000
,
0001
0000
0010
0000
0001
0000
1000
0000
0000
0000
0010
0000
0100
0001
0100
0001
,
1000
0000
0100
0000
0010
0001
0000
0001
0100
0000
0001
1000
0001
0000
0010
0000
,
0001
0100
0010
0100
1000
0100
0010
0100
,
0001
0000
0010
0000
0100
1000
0000
1000
0010
0000
1000
0001
1000
0000
0100
0000
,
1000
0000
0010
0000
1000
0000
0001
0000
0100
0000
0100
0000
0010
1000
0010
1000
,
0001
0000
0010
0000
0001
0100
0000
0100
0010
0000
1000
0100
1000
0000
0001
0000
,
1000
0010
0001
0010
1000
0100
0001
0100
,
1000
0000
0010
0000
1000
0100
0000
0100
0010
0000
0001
0100
0001
0000
1000
0000
,
0001
0000
0010
0000
0100
0000
0010
0000
0000
0000
0001
0000
0100
0010
0100
0010
,
1000
0100
0010
0001
1000
0010
0100
0010
,
1000
0100
0010
0100
1000
0010
0100
0001
,
1000
0100
1000
0100
0010
0001
0010
0001
0100
0010
0100
0010
1000
0001
1000
0001
,
2000
0000
0000
0000
0000
0000
0001
3001
,
0020
0000
0000
0000
0031
0100
0001
0100
,
0010
0000
0000
0000
0000
0000
0000
0000
0000
1000
0000
0000
0000
0000
0000
0000
0000
0000
0100
0000
0000
0000
0000
0000
0010
0000
0000
0100
0000
0000
0010
0000
0000
0100
0000
0000
1000
0000
0000
0000
0010
0000
0000
0000
1000
0000
0000
0000
,
0001
0000
0000
0000
0000
0000
0010
0000
0000
0000
0000
0000
1000
0000
0000
0000
0000
0000
0010
0000
0000
0000
0000
0000
0001
0000
0000
0100
0000
0000
0001
0000
0000
0100
0000
0000
0010
0000
0000
0000
1000
0000
0000
0000
0100
0000
0000
0000
,
1000
0000
0000
0000
0000
0000
0000
0000
0000
1001
0000
0000
0000
0000
0000
0000
0000
0000
0001
0000
0000
0000
0000
0000
0101
0000
0000
0000
0000
0000
0100
0000
0000
0000
0000
0000
0010
0000
0000
0000
1000
0000
0000
0000
0010
0000
0000
0000
,
1000
0100
1000
0001
0100
0001
1000
0010
1000
0001
0010
0001
,
1000
0000
0000
0010
0000
0000
0100
0000
0001
1000
0001
1000
0100
0010
0100
0010
,
0100
0000
0000
0100
0000
0000
0100
0000
2000
0000
0000
0000
0000
0000
0000
0000
,
3010
0000
0000
0100
0000
0000
0001
0000
1000
0000
0000
0000
0001
0000
0001
0000
,
1000
1100
0001
0101
,
1000
0000
0000
0000
0000
0000
0010
0000
0000
0000
0000
0000
1000
0000
0000
0100
0000
0000
1000
0000
0000
0100
0000
0000
0010
0000
0000
0001
0000
0000
0010
0000
0000
0001
0000
0000
0100
0000
0000
0000
0010
0000
0000
0000
0100
0000
0000
0000
,
0001
0000
0000
0000
0000
0000
0010
0000
0000
0000
0000
0000
1000
0000
0000
0000
0000
0000
0010
0000
0000
0000
0000
0000
0001
0000
0000
0100
0000
0000
0001
0000
0000
0100
0000
0000
0010
0000
0000
0000
1000
0000
0000
0000
0010
0000
0000
0000
,
1000
0000
0000
0000
0000
0000
0000
0000
0000
1001
0000
0000
0000
0000
0000
0000
0000
0000
0001
0000
0000
0000
0000
0000
0011
0000
0000
0000
0000
0000
0010
0000
0000
0000
0000
0000
0100
0000
0000
0000
1000
0000
0000
0000
0100
0000
0000
0000
,
1000
0010
1000
0001
0010
0001
1000
0100
1000
0001
0100
0001
,
1000
0000
0000
0000
0000
0000
0010
0000
0000
0000
0000
0000
1000
0000
0000
0000
0001
0000
0000
0000
1000
0000
0000
0000
0001
0000
0000
0010
0000
0000
0001
0000
0000
0010
0000
0000
0100
0000
0000
1000
0000
0000
0100
0000
0000
1000
0000
0000
,
0010
0000
0000
0010
0000
0000
0010
0000
1000
0000
0000
0000
1001
0000
0000
0000
,
0001
0000
0000
0010
0000
0000
0100
0000
1000
0000
0000
0000
0001
0000
1000
0001
,
1000
0000
0001
0000
0010
0000
0001
0100
0000
0100
0010
0000
1000
0000
0001
0000
,
1001
0000
1000
0000
0100
0000
1000
0010
0000
0010
0100
0000
0001
0000
1000
0000
,
1001
0000
0001
0000
0010
0000
0001
0100
0000
0100
0010
0000
1000
0000
0001
0000
,
1001
0000
1000
0000
0100
0000
1000
0010
0000
0010
0100
0000
0001
0000
1000
0000
,
1001
0001
0010
0100
0110
0010
0001
1000
,
1010
0010
0100
0001
0011
0010
0100
1000
,
0001
0100
1000
0100
0001
0010
1000
0010
,
0002
0000
0000
0000
,
1003
0000
1010
0000
0010
0100
0000
0001
,
0010
0100
0001
0100
1000
0010
0001
0010
,
1000
0100
1000
0000
0001
0100
0000
0001
,
1000
0100
0010
1000
0010
0001
0100
0001
,
1000
0000
1100
0000
0100
0010
0000
0001
,
0100
0010
0001
0010
1000
0100
0001
0100
,
1000
0000
1010
0000
0010
0100
0000
0001
,
1000
0010
0100
1000
0100
0001
1000
0100
,
0010
0000
0001
1000
0000
0001
1000
0000
0001
0000
0100
0000
1000
0000
0100
0000
,
0010
0000
1000
0001
0000
1000
0001
0000
1000
0000
0100
0000
0001
0000
0100
0000
,
0010
0000
0001
0100
0000
0001
1000
0000
0100
0000
0001
0000
0100
0000
1000
0000
,
0010
0000
1000
0100
0000
1000
0001
0000
0100
0000
1000
0000
0100
0000
0001
1000
,
0001
0010
0100
1000
0001
0100
0010
0100
,
0001
0010
0100
0010
0001
0100
0010
1000
,
0001
0010
0001
0010
0100
1000
0100
1000
0010
0100
0010
0100
0001
1000
0001
1000
,
0001
0000
0000
1001
0000
0000
1000
0000
1100
0000
0100
0000
0010
0000
0001
0000
,
0100
0000
0000
0000
;

//---------------dance-single - ----------------
#NOTES:
     dance-single:
     :
     Hard:
     12:
     0.568953,0.658513,0.166291,0.108089,0.141347,479.000000,459.000000,20.000000,13.000000,0.000000,0.000000,0.568953,0.658513,0.166291,0.108089,0.141347,479.000000,459.000000,20.000000,13.000000,0.000000,0.000000:
0000
0000
0000
0000
,
0000
0000
0000
0000
,
0000
0000
0000
0000
,
0000
0000
0000
0000
,
1000
0000
0100
0000
0010
0000
0000
0001
0000
0100
0001
0000
1000
0000
0010
0000
,
1000
0000
0000
0001
0000
0100
0000
0001
1000
0000
0100
0010
0100
0000
0000
0000
,
1000
0000
0010
0000
0100
0000
0000
0001
0000
0010
0001
0000
1000
0000
0100
0000
,
1000
0000
0000
0010
0000
0000
1000
0000
0001
0000
0000
0000
1000
0000
0001
1000
,
0001
0000
0010
0000
0100
0000
0000
1000
0000
0010
1000
0000
0001
0000
1000
0000
,
0100
0000
0000
0000
0100
0000
0010
0000
0001
0000
0000
0100
0000
0010
1000
0000
,
0001
0000
1000
0000
0100
0000
0000
1000
0000
0010
0100
0000
0001
0000
0010
0000
,
0001
0000
0000
0000
1000
0000
0000
0000
0001
0000
1000
0000
0001
0000
1000
0001
,
1000
0010
1000
0010
0100
0001
0100
0001
,
0010
0100
0010
0100
1000
0001
1000
0001
,
1000
0010
0100
0010
0001
0010
0100
0010
,
2000
0000
0000
0000
,
3002
0000
0000
0000
,
0023
0000
0000
0000
,
0230
0000
0000
0000
,
2300
0000
0000
0000
,
3020
0000
0000
0000
,
0230
0000
0000
0000
,
0302
0000
0000
0000
,
2003
0000
0000
0000
,
3001
0001
1000
1000
,
0100
0100
0010
0010
,
0001
0001
1000
1000
,
0010
0010
0100
0100
,
0001
0010
0001
0000
1000
0010
1000
0000
,
0001
0100
0001
0000
1000
0100
1000
0000
,
0001
0010
0100
1000
0010
0100
0001
1000
,
0001
0001
0010
0010
0100
1000
0001
0000
,
1000
0010
0100
0010
1000
0100
0010
0001
,
1000
0010
0000
1000
0000
0001
0000
0010
,
0001
0100
0010
0100
0001
0010
0100
1000
,
0001
0100
0000
0001
0000
1000
0100
1000
,
0001
0100
0010
1000
0100
0010
0100
1000
,
0010
0100
0000
0001
0000
0010
0000
0100
,
1000
0010
0100
0001
0010
0100
0010
0001
,
0100
0010
0000
1000
0000
0100
0010
0001
,
1000
0010
1000
0100
0010
0001
0100
0001
,
0010
0100
0000
0010
0000
0001
0000
1000
,
0001
0100
0001
0010
0100
1000
0010
1000
,
0100
0010
0000
0100
0000
1000
0001
1000
,
0001
0100
0001
0000
1000
0100
1000
0000
,
0001
0010
0001
0000
1000
0010
1000
0000
,
0001
0100
0010
1000
0100
0010
0001
1000
,
0002
0000
0000
0000
,
1003
0000
1001
0000
,
0001
0000
0000
0001
0000
0000
0001
0000
0200
0000
0000
0000
0000
0000
0000
0000
,
0310
0010
1000
1000
0100
0010
0100
1000
,
0001
0000
0000
0100
0000
0000
0010
0000
1000
0000
0000
0000
0000
0000
0000
0000
,
0001
0010
1000
0010
0001
0100
1000
0100
,
0001
0000
0000
0010
0000
0000
0100
0000
1000
0000
0000
0000
0000
0000
0000
0000
,
0010
0000
0000
0010
0000
0000
0010
0000
1000
0000
0000
0000
0000
0000
0000
0000
,
0100
0000
0000
0010
0000
0000
0001
0000
1000
0000
0000
0000
0000
0000
0000
0000
,
0001
0101
1000
1100
,
0001
0100
0010
0000
1000
0100
0010
0001
,
1000
1000
0010
0010
0100
0001
0010
0100
,
0010
0000
0000
0001
0000
0000
1000
0000
0001
0000
0000
0000
1000
0000
0010
0000
,
1000
0100
0001
0100
1000
0010
0001
0010
,
1000
0000
1100
0000
0001
0100
0001
0000
,
1000
0000
0000
0100
0000
0000
0010
0000
0001
0000
0000
0000
0100
0000
0000
0000
,
0001
0000
0000
0010
0000
0000
0100
0000
1000
0000
0000
0000
0001
0000
1000
0001
,
1000
0001
1000
0001
,
1001
1000
0001
1000
,
1001
0001
1000
0001
,
1001
1000
0001
1000
,
1001
0010
1001
0100
,
1001
0010
1001
0100
,
1010
0011
0101
1100
,
2002
0000
0000
3003
,
1000
0000
1010
0000
0010
0100
0000
0001
,
1000
0001
0000
0010
0000
0100
1000
0010
,
1000
0001
1000
0000
0100
0010
0000
0001
,
0100
0001
0000
0010
0000
0100
1000
0010
,
1000
0000
1001
0000
0001
0010
0000
0001
,
0100
0001
0000
1000
0000
0100
0010
0001
,
1000
0000
1010
0000
0010
0100
0000
0001
,
0010
0100
0000
1000
0010
0001
0010
1000
,
0001
0000
0000
1000
0000
0000
0100
0000
1000
0000
0010
0000
0100
0000
0001
0000
,
1000
0000
0000
0001
0000
0000
0010
0000
0001
0000
0100
0000
0010
0000
1000
0000
,
0001
0000
0000
0100
0000
0000
0001
0000
1000
0000
0100
0000
0010
0000
0001
0000
,
1000
0000
0000
0010
0000
0000
1000
0000
0001
0000
0010
0000
0100
0000
1000
0000
,
0001
0000
0000
0100
0000
0000
0010
0000
1000
0000
0100
0000
0010
0000
0100
0000
,
1000
0000
0000
0010
0000
0000
0100
0000
0001
0000
0010
0000
0100
0000
0010
0000
,
0001
0000
0000
1000
0000
0000
0001
0000
0100
0000
1000
0000
0100
0000
0001
0000
,
1000
0000
0000
1100
0000
0000
0100
0000
0010
0000
0001
0000
0100
0000
0010
0000
,
1000
0000
0000
0000
;

//---------------dance-single - ----------------
#NOTES:
     dance-single:
     :
     Medium:
     9:
     0.419291,0.585345,0.074831,0.099775,0.045730,353.000000,344.000000,9.000000,12.000000,0.000000,0.000000,0.419291,0.585345,0.074831,0.099775,0.045730,353.000000,344.000000,9.000000,12.000000,0.000000,0.000000:
0000
0000
0000
0000
,
0000
0000
0000
0000
,
0000
0000
0000
0000
,
0000
0000
0000
0000
,
1000
0000
0000
0000
0001
0000
0000
1000
0000
0000
0001
0000
0010
0000
0000
0000
,
0001
0000
1000
0000
0010
0100
0010
0000
,
1000
0000
0000
0000
0001
0000
0000
1000
0000
0000
0001
0000
0100
0000
0000
0000
,
0010
0000
1000
0001
1000
0000
0001
0010
,
0001
0000
0000
0000
1000
0000
0000
0001
0000
0000
1000
0000
0010
0000
0000
0000
,
1000
0000
0010
0100
0010
0000
1000
0000
,
0001
0000
0000
0000
1000
0000
0000
0001
0000
0000
1000
0000
0100
0000
0000
0000
,
1000
1000
0001
0001
,
1000
0000
0100
0000
0010
0000
0001
1000
,
0001
0000
0100
0000
0010
0000
1000
0001
,
1000
0000
0001
0000
1000
0100
1000
0100
,
0020
0000
0000
0000
,
0032
0000
0000
0000
,
0203
0000
0000
0000
,
0320
0000
0000
0000
,
2030
0000
0000
0000
,
3200
0000
0000
0000
,
0320
0000
0000
0000
,
0032
0000
0000
0000
,
2003
0000
0000
0000
,
3001
0001
0001
0001
,
1000
1000
1000
1000
,
0010
0010
0010
0010
,
0100
0100
0100
0100
,
0001
0010
0001
0010
,
0100
1000
0100
1000
,
0010
0010
0100
0100
,
0001
0010
0000
0100
0000
0000
0000
0000
,
1000
0000
0010
0000
1000
0001
1000
0000
,
0001
0000
0010
0000
0001
1000
0001
0000
,
1000
0000
0001
0000
0100
0010
0100
0000
,
0001
0000
1000
0000
0100
0010
0100
0010
,
0001
0000
0100
0000
0010
1000
0010
0000
,
1000
0000
0100
0000
0010
0001
0010
0000
,
0001
0000
1000
0000
0010
0100
0010
0000
,
1000
0100
0000
1000
0000
0001
1000
0000
,
0001
0000
0100
0000
0001
0010
0001
0000
,
1000
0000
0010
0000
1000
0100
1000
0000
,
0001
0000
0100
0000
0010
1000
0010
0000
,
1000
0000
0100
0000
0010
0001
0010
0000
,
0001
0001
0100
0100
,
0010
0010
1000
1000
,
0001
0100
0001
0000
1000
0100
1000
0100
,
0020
0000
0000
0000
,
0130
0000
1000
0000
,
0001
0000
0000
0001
0000
0000
0001
0000
1000
0000
0000
0000
0000
0000
0000
0000
,
0010
0000
0100
0000
,
0001
0000
0000
0010
0000
0000
0100
0000
1000
0000
0000
0000
0000
0000
0000
0000
,
0010
0000
1000
0000
,
0100
0000
0000
0100
0000
0000
0100
0000
0010
0000
0000
0000
0000
0000
0000
0000
,
0001
0000
0100
0000
,
0001
0000
0000
0010
0000
0000
0100
0000
1000
0000
0000
0000
0000
0000
0000
0000
,
0001
0100
0001
1000
,
0100
0010
0001
0100
,
0010
0000
0010
0000
1000
0001
1000
0000
,
0100
0000
0000
0010
0000
0000
0001
0000
1000
0000
0000
0000
0001
0000
1000
0000
,
0001
0100
0010
1000
,
0100
0000
0010
0000
0001
1000
0001
0000
,
0100
0100
0010
0010
,
1000
0000
0000
0100
0000
0000
0010
0000
0001
0000
0000
0000
1000
0000
0010
0000
,
1000
1000
1000
1000
,
0001
0001
0001
0001
,
0010
0010
0010
0010
,
0100
0100
0100
0100
,
1001
1000
1001
0001
,
1001
1000
1001
0001
,
1001
0110
1001
0110
,
2002
0000
0000
3003
,
1000
0000
0001
0000
1000
0010
0000
0100
,
0000
0010
0000
1000
0000
0001
0100
0000
,
0001
0000
0010
0000
0100
0010
0000
0001
,
0000
0100
0000
0010
0000
1000
0001
1000
,
0001
0000
0100
0000
0010
1000
0000
0100
,
0000
0010
0000
0100
0000
1000
0001
0000
,
0010
0000
0001
0000
0100
0010
0000
1000
,
0000
0001
0000
0010
0100
0010
0100
0000
,
1000
0000
0010
0000
1000
0001
1000
0000
,
0001
0000
0010
0000
0001
1000
0001
0000
,
1000
0000
0100
0000
1000
0001
1000
0000
,
0001
0000
0100
0000
0001
1000
0001
0000
,
1000
1000
0001
0001
,
0010
0010
0100
0100
,
1000
0001
1000
0000
0001
0100
0001
0100
,
0001
0000
0000
1000
0000
0000
0001
0000
1000
0000
0000
0000
0010
0000
1000
0000
,
0001
0000
0000
0000
;

//---------------dance-single - ----------------
#NOTES:
     dance-single:
     :
     Easy:
     6:
     0.307639,0.365840,0.074831,0.099775,0.000000,259.000000,250.000000,9.000000,12.000000,0.000000,0.000000,0.307639,0.365840,0.074831,0.099775,0.000000,259.000000,250.000000,9.000000,12.000000,0.000000,0.000000:
0000
0000
0000
0000
,
0000
0000
0000
0000
,
0000
0000
0000
0000
,
0000
0000
0000
0000
,
1000
1000
0001
1000
,
0010
0000
0100
0000
,
0001
0001
1000
0001
,
0010
0000
0100
0000
,
1000
1000
0010
0100
,
0001
0000
1000
0000
,
0001
0001
0010
0100
,
1000
0000
0001
0000
,
1000
1000
0001
1000
,
0001
0100
0010
1000
,
0001
0001
1000
1000
,
0002
0000
0000
0000
,
2003
0000
0000
0000
,
3200
0000
0000
0000
,
0320
0000
0000
0000
,
0032
0000
0000
0000
,
0203
0000
0000
0000
,
0320
0000
0000
0000
,
2030
0000
0000
0000
,
3002
0000
0000
0000
,
1003
1000
1000
1000
,
0001
0001
0001
0001
,
0010
0010
0010
0010
,
0100
0100
0100
0100
,
1000
0001
1000
0001
,
0100
0010
0100
0010
,
1000
0100
0010
0001
,
1000
0000
0000
0000
,
0001
0001
0100
0010
,
1000
1000
0100
0010
,
0001
0001
0100
0001
,
1000
1000
0100
1000
,
0001
0001
0010
0001
,
1000
1000
0010
1000
,
0001
0001
0010
0100
,
1000
1000
0010
0100
,
0001
0010
0001
0010
,
0100
1000
0100
1000
,
0010
0100
0010
0100
,
0001
1000
0001
1000
,
0001
0001
0010
0010
,
0100
0100
1000
1000
,
0010
0010
0100
0100
,
0002
0000
0000
0000
,
1003
0000
0001
0000
,
1000
0000
0010
0000
,
1000
0000
0001
0000
,
0010
0000
0001
0000
,
1000
0000
0001
0000
,
1000
0000
0100
0000
,
1000
0000
0001
0000
,
0100
0000
0001
0000
,
1000
1000
0001
0001
,
1000
1000
0001
0001
,
0010
0000
0100
0000
,
1000
0000
0001
0000
,
1000
1000
0010
0010
,
0100
0100
0001
0001
,
1000
0001
1000
0001
,
0010
0000
0100
0000
,
1001
0000
0000
0000
,
0110
0000
0000
0000
,
1001
0000
0000
0000
,
0110
0000
0000
0000
,
1001
0000
0110
0000
,
1001
0000
0110
0000
,
1000
0001
1000
0001
,
2002
0000
0000
3003
,
1000
0100
0010
0100
,
1000
0001
1000
0000
,
0001
0100
0010
0100
,
0001
1000
0001
0000
,
1000
0100
1000
0001
,
0100
0001
1000
0000
,
0001
0010
0001
1000
,
0010
1000
0001
0000
,
1000
1000
0001
0001
,
0010
0010
0100
0100
,
1000
1000
0001
0001
,
0100
0100
0010
0010
,
1000
0100
0010
0001
,
1000
0010
0100
0001
,
1000
1000
0001
0001
,
1000
0000
0100
0010
,
0100
0000
0000
0000
;

//---------------dance-single - ----------------
#NOTES:
     dance-single:
     :
     Beginner:
     4:
     0.150850,0.256088,0.016629,0.024944,0.000000,127.000000,125.000000,2.000000,3.000000,0.000000,0.000000,0.150850,0.256088,0.016629,0.024944,0.000000,127.000000,125.000000,2.000000,3.000000,0.000000,0.000000:
// measure 0
0000
0000
0000
0000
,  // measure 1
0000
0000
0000
0000
,  // measure 2
0000
0000
0000
0000
,  // measure 3
0000
0000
0000
0000
,  // measure 4
1000
0000
0001
0000
,  // measure 5
1000
0000
0000
0000
,  // measure 6
0010
0000
0100
0000
,  // measure 7
0010
0000
0000
0000
,  // measure 8
1000
0000
0001
0000
,  // measure 9
1000
0000
0000
0000
,  // measure 10
0100
0000
0010
0000
,  // measure 11
0100
0000
0000
0000
,  // measure 12
1000
0000
0001
0000
,  // measure 13
1000
0000
0000
0000
,  // measure 14
0001
0000
1000
0000
,  // measure 15
0002
0000
0000
0000
,  // measure 16
0003
0000
0000
0000
,  // measure 17
0000
0000
0000
0000
,  // measure 18
0000
0000
0000
0000
,  // measure 19
0000
0000
0000
0000
,  // measure 20
0000
0000
0000
0000
,  // measure 21
0000
0000
0000
0000
,  // measure 22
0000
0000
0000
0000
,  // measure 23
0000
0000
0000
0000
,  // measure 24
1000
0000
0000
0000
,  // measure 25
0001
0000
0000
0000
,  // measure 26
0100
0000
0000
0000
,  // measure 27
0010
0000
0000
0000
,  // measure 28
1000
0000
0000
0000
,  // measure 29
0001
0000
0000
0000
,  // measure 30
0010
0000
0000
0000
,  // measure 31
0100
0000
0000
0000
,  // measure 32
1000
0000
1000
0000
,  // measure 33
0010
0000
0010
0000
,  // measure 34
0100
0000
0100
0000
,  // measure 35
0001
0000
0001
0000
,  // measure 36
1000
0000
1000
0000
,  // measure 37
0100
0000
0100
0000
,  // measure 38
0010
0000
0010
0000
,  // measure 39
0001
0000
0001
0000
,  // measure 40
1000
0000
1000
0000
,  // measure 41
0001
0000
0001
0000
,  // measure 42
0100
0000
0100
0000
,  // measure 43
0010
0000
0010
0000
,  // measure 44
1000
0000
1000
0000
,  // measure 45
0001
0000
0001
0000
,  // measure 46
0010
0000
0010
0000
,  // measure 47
0200
0000
0000
0300
,  // measure 48
1000
0000
0000
0000
,  // measure 49
0001
0000
0000
0000
,  // measure 50
1000
0000
0000
0000
,  // measure 51
0001
0000
0000
0000
,  // measure 52
0100
0000
0000
0000
,  // measure 53
0010
0000
0000
0000
,  // measure 54
1000
0000
0000
0000
,  // measure 55
0001
0000
0000
0000
,  // measure 56
1000
0000
1000
0000
,  // measure 57
0001
0000
0001
0000
,  // measure 58
1000
0000
0001
0000
,  // measure 59
1000
0000
0000
0000
,  // measure 60
0001
0000
0001
0000
,  // measure 61
1000
0000
1000
0000
,  // measure 62
0001
0000
1000
0000
,  // measure 63
0001
0000
0000
0000
,  // measure 64
1000
0000
0000
0000
,  // measure 65
1001
0000
0000
0000
,  // measure 66
0001
0000
0000
0000
,  // measure 67
1001
0000
0000
0000
,  // measure 68
1000
0000
0001
0000
,  // measure 69
1000
0000
0001
0000
,  // measure 70
1000
1000
0001
0001
,  // measure 71
2000
0000
0000
3000
,  // measure 72
0001
0000
0001
0000
,  // measure 73
0010
0000
0010
0000
,  // measure 74
0100
0000
0100
0000
,  // measure 75
1000
0000
1000
0000
,  // measure 76
0001
0000
0001
0000
,  // measure 77
0100
0000
0100
0000
,  // measure 78
0010
0000
0010
0000
,  // measure 79
1000
0000
1000
0000
,  // measure 80
0001
0000
0001
0000
,  // measure 81
1000
0000
1000
0000
,  // measure 82
0100
0000
0100
0000
,  // measure 83
0010
0000
0010
0000
,  // measure 84
0001
0000
0001
0000
,  // measure 85
1000
0000
1000
0000
,  // measure 86
0010
0000
0010
0000
,  // measure 87
0100
0000
0100
0000
,  // measure 88
0001
0000
0000
0000
;
