#TITLE:ニワトリなのだ;
#SUBTITLE:;
#ARTIST:A.I.Units;
#TITLETRANSLIT:Niwatori nanoda;
#SUBTITLETRANSLIT:;
#ARTISTTRANSLIT:;
#GENRE:TECHNO POP;
#CREDIT:;
#BANNER:Niwatori nanoda.png;
#BACKGROUND:Niwatori nanoda-bg.png;
#LYRICSPATH:;
#CDTITLE:cdtitle.png;
#MUSIC:Niwatori nanoda.ogg;
#OFFSET:-0.460000;
#SAMPLESTART:32.860001;
#SAMPLELENGTH:12.112000;
#SELECTABLE:YES;
#BPMS:0.000000=158.000000
;
#STOPS:
;
#BGCHANGES:;
#KEYSOUNDS:;
#ATTACKS:;

//---------------dance-single - ----------------
#NOTES:
     dance-single:
     :
     Hard:
     11:
     0.449798,0.535260,0.122445,0.760909,0.148683,360.000000,346.000000,14.000000,87.000000,0.000000,0.000000,0.449798,0.535260,0.122445,0.760909,0.148683,360.000000,346.000000,14.000000,87.000000,0.000000,0.000000:
// measure 0
0000
0000
0000
0000
,  // measure 1
1000
0000
0000
0001
0010
0000
0100
0000
1000
0000
0000
0000
1000
0000
0010
0000
,  // measure 2
0001
0000
0001
0010
1000
0000
1001
0000
,  // measure 3
0001
0000
0000
1000
0100
0000
0010
0000
0001
0000
0000
0000
0001
0000
0100
0000
,  // measure 4
0000
0000
0100
0000
0010
0000
0100
0000
0001
1000
0000
0000
1001
0000
0000
0000
,  // measure 5
0001
0000
0001
0010
0100
0000
0100
0010
,  // measure 6
0001
0000
0001
0100
0010
1000
0100
0000
,  // measure 7
1000
0000
0000
0000
1000
0000
0000
0010
0100
0000
0010
0000
1000
0000
0100
0000
,  // measure 8
0010
0000
0010
0001
0100
0000
0110
0000
,  // measure 9
0010
0000
0000
0000
0010
0000
0000
1000
0100
0000
0000
0000
0100
0000
0000
0010
,  // measure 10
0001
0000
0001
0100
1000
0000
0100
0000
,  // measure 11
0001
0000
0000
0000
0010
0000
0000
0100
1000
0000
0010
0000
1000
0000
0100
0000
,  // measure 12
0010
0000
0001
0000
0100
0000
0001
0000
1000
0000
0000
0000
0001
1000
0001
0000
,  // measure 13
2000
3200
0320
0032
,  // measure 14
0103
0000
0000
0010
0200
0000
0000
0000
0300
0000
0000
0000
0002
0000
0000
0000
,  // measure 15
0023
0000
0000
0000
0130
0000
0000
1000
0001
0000
0100
0000
1000
0000
0100
0000
,  // measure 16
0010
0000
0000
1000
0002
0000
0000
0000
0003
0000
0000
0000
0000
0000
0000
0000
,  // measure 17
2000
0000
0000
0000
3100
0000
0000
1000
0010
0000
0100
0000
0001
0000
0010
0000
,  // measure 18
0001
0000
0000
0100
0020
0000
0000
0000
0030
0000
0000
0000
2000
0000
0000
0000
,  // measure 19
3002
0000
0000
0000
0013
0000
0000
0100
1000
0000
0010
0000
0001
0000
0010
0000
,  // measure 20
1000
1001
0000
0001
0011
0000
1000
1010
,  // measure 21
0000
0000
0000
0002
0000
1003
0200
0000
,  // measure 22
0320
0000
0000
0032
0000
0103
0020
0000
,  // measure 23
2030
0000
0000
3000
0000
0000
0002
0000
,  // measure 24
0023
0000
0000
2030
0000
0000
3020
0000
,  // measure 25
0032
0000
0000
0000
0103
0000
0010
1000
,  // measure 26
0200
0320
0230
2300
,  // measure 27
3020
0230
0302
2003
,  // measure 28
3001
0000
0010
0100
0010
0100
0010
0100
0010
0000
0001
0000
1000
0000
0010
0000
,  // measure 29
1000
0000
0001
2000
0000
3100
0020
0000
,  // measure 30
0032
0000
0000
0203
0000
0310
2000
0000
,  // measure 31
3200
0000
0000
0300
0000
0000
2000
0000
,  // measure 32
3020
0000
0000
0032
0000
0000
0023
0000
,  // measure 33
2030
0000
0000
0000
3100
0000
0010
0001
,  // measure 34
0200
0320
0230
0302
,  // measure 35
0023
0000
0000
0000
,  // measure 36
0230
0000
0000
0000
0000
0000
1300
0001
,  // measure 37
1000
0000
0000
0001
0100
0000
0010
0000
1000
0000
0000
0000
1000
0000
0100
0000
,  // measure 38
0001
0000
0001
0100
1000
0000
1001
0000
,  // measure 39
0001
0000
0000
1000
0010
0000
0100
0000
0001
0000
0000
0000
0001
0000
0010
0000
,  // measure 40
0000
0000
0010
0000
0100
0000
0010
0000
0001
1000
0000
0000
1001
0000
0000
0000
,  // measure 41
0001
0000
0000
0000
0100
0000
0000
0010
1000
0000
0000
0000
0100
0000
0000
0010
,  // measure 42
0001
0000
0000
0000
1000
0000
0000
0001
0100
0000
0000
0000
0010
0000
0000
0000
,  // measure 43
1000
0000
0000
0000
0100
0000
0000
1000
0001
0000
0100
0000
1000
0000
0100
0000
,  // measure 44
0001
0000
0010
0100
1000
0000
0001
0000
,  // measure 45
1000
0000
0000
0000
0010
0000
0000
0100
0001
0000
0000
0000
0010
0000
0000
0100
,  // measure 46
1000
0000
0010
0100
0010
0000
0100
0000
,  // measure 47
0002
0000
0000
0000
0003
0000
1000
0100
1000
0000
0001
0000
1000
0000
0000
0000
,  // measure 48
2000
0000
0000
0000
3000
0000
0001
0100
0001
0000
1000
0000
0001
0000
0000
0000
,  // measure 49
1000
1010
0000
0000
0001
0011
0000
0000
,  // measure 50
0000
0000
0000
2000
0000
3001
0200
0000
,  // measure 51
0320
0000
0000
2030
0000
3100
0020
0000
,  // measure 52
0032
0000
0003
2000
,  // measure 53
3020
0000
0000
0032
0000
0000
0023
0000
,  // measure 54
2030
0000
0000
0000
3100
0000
0010
0001
,  // measure 55
0200
0320
0230
0302
,  // measure 56
0023
0230
2300
3002
,  // measure 57
1003
0000
0010
0100
0010
0100
0010
0100
0010
0000
1000
0000
0001
0000
0010
0000
,  // measure 58
0001
0000
1000
0002
0000
0103
0020
0000
,  // measure 59
2030
0000
0000
3100
0010
0001
0200
0000
,  // measure 60
0320
0000
0030
2000
,  // measure 61
3200
0000
0000
0302
0000
0000
0203
0000
,  // measure 62
2300
0000
0000
0000
3010
0000
0100
0001
,  // measure 63
0020
0230
0320
0032
,  // measure 64
0203
0000
0000
0000
,  // measure 65
0320
0000
0000
0000
0000
0000
1030
0001
,  // measure 66
1000
0000
0000
0001
0010
0000
0100
0000
1000
0000
0000
0000
1000
0000
0010
0000
,  // measure 67
0001
0000
0001
0010
1000
0000
1001
0000
,  // measure 68
0001
0000
0000
1000
0100
0000
0010
0000
0001
0000
0000
0000
0001
0000
0100
0000
,  // measure 69
1000
0000
1000
0100
0001
0000
2002
0000
,  // measure 70
0000
0000
0000
0000
,  // measure 71
3003
0000
1000
0000
0100
0000
1000
0000
0001
0100
0000
0000
0110
0000
0000
0000
,  // measure 72
1001
0000
0000
0000
;

//---------------dance-single - ----------------
#NOTES:
     dance-single:
     :
     Medium:
     7:
     0.361088,0.440802,0.078715,0.279874,0.000000,289.000000,280.000000,9.000000,32.000000,0.000000,0.000000,0.361088,0.440802,0.078715,0.279874,0.000000,289.000000,280.000000,9.000000,32.000000,0.000000,0.000000:
0000
0000
0000
0000
,
1000
0000
1000
0010
1000
0000
0001
0010
,
0001
0000
1000
0001
1000
0000
1001
0000
,
0001
0000
0001
0100
0001
0000
1000
0100
,
0000
1000
0010
1000
0010
0000
0110
0000
,
1000
1000
0001
0001
,
0010
0010
0100
0100
,
1000
1000
0001
0001
,
0100
0100
0010
0010
,
1000
1000
0100
0100
,
0010
0010
0001
0001
,
1000
1000
0010
0010
,
0100
0010
0100
0010
0100
0000
1001
0000
,
0001
0010
0100
1000
,
0010
0100
0000
0010
,
1000
0100
0010
0001
,
1000
0001
0000
0000
,
1000
0010
0100
0001
,
0010
0100
0000
0010
,
0001
0100
0010
1000
,
0001
1000
0000
1000
0001
0000
0001
1000
,
0000
0000
0000
0001
0000
1000
0001
0000
,
2000
0000
0000
3100
0000
0010
0100
0000
,
0020
0000
0000
0030
0000
0000
0001
0000
,
0020
0000
0000
0230
0000
0000
2300
0000
,
3002
0000
1003
0010
,
1000
0100
0010
0001
,
1000
0010
0100
0010
,
1000
0001
1000
0001
1000
0000
0001
0000
,
0010
0010
0100
0100
,
2000
0000
0000
3010
0000
0100
0010
0000
,
0200
0000
0000
0300
0000
0000
0001
0000
,
0200
0000
0000
0320
0000
0000
2030
0000
,
3002
0000
1003
0100
,
1000
0010
0100
0001
,
0020
0000
0000
0000
,
0230
0000
0000
0000
0000
0000
1300
0001
,
1000
0000
1000
0010
1000
0000
0001
0010
,
0001
0000
1000
0001
1000
0000
1001
0000
,
0001
0000
0001
0100
0001
0000
1000
0100
,
0000
1000
0010
1000
0010
0000
0110
0000
,
1000
1000
0001
0001
,
0010
0010
0100
0100
,
1000
0000
1000
0000
0010
0100
0010
0100
,
0001
0000
1000
0100
1000
0000
0001
0000
,
0100
0100
0010
0010
,
1000
0000
1000
0001
1000
0000
0100
0000
,
0020
0000
0000
0030
0001
0000
0100
0000
,
0002
0000
0000
0003
0010
0000
0100
0000
,
1000
0001
0000
0000
0001
1000
0000
0000
,
0000
0000
0000
0001
0000
1000
0001
0000
,
2000
0000
0000
3010
0000
0100
0010
0000
,
0200
0000
0000
0300
0000
0000
0001
0000
,
0200
0000
0000
0320
0000
0000
2030
0000
,
3002
0000
1003
0100
,
1000
0010
0100
0001
,
1000
0100
0010
0100
,
1000
0001
1000
0001
1000
0000
0001
0000
,
0100
0100
0010
0010
,
2000
0000
0000
3100
0000
0010
0100
0000
,
0020
0000
0000
0030
0000
0000
0001
0000
,
0020
0000
0000
0230
0000
0000
2300
0000
,
3002
0000
1003
0010
,
1000
0100
0010
0001
,
0200
0000
0000
0000
,
0320
0000
0000
0000
0000
0000
1030
0001
,
1000
0000
1000
0100
1000
0000
0001
0100
,
0001
0000
1000
0001
1000
0000
1001
0000
,
0001
0000
0001
0010
0001
0000
1000
0010
,
1000
0000
0001
1000
0001
0000
2002
0000
,
0000
0000
0000
0000
,
3003
1000
0100
1000
0001
0000
1001
0000
,
0110
0000
0000
0000
;

//---------------dance-single - ----------------
#NOTES:
     dance-single:
     :
     Easy:
     5:
     0.269879,0.283373,0.026238,0.166175,0.000000,216.000000,213.000000,3.000000,19.000000,0.000000,0.000000,0.269879,0.283373,0.026238,0.166175,0.000000,216.000000,213.000000,3.000000,19.000000,0.000000,0.000000:
0000
0000
0000
0000
,
1000
1000
0001
0001
,
0010
0010
0100
0100
,
1000
1000
0001
0001
,
0000
1000
0001
1000
,
0001
0000
0100
0000
,
0010
0000
1000
0000
,
0001
0000
0010
0000
,
0100
0000
1000
0000
,
0001
0000
1000
0000
,
0010
0000
0100
0000
,
0001
0000
1000
0000
,
0100
0000
0010
0000
,
0001
0001
1000
1000
,
0010
0100
0000
0001
,
1000
1000
0001
0001
,
0010
0100
0000
0000
,
1000
1000
0010
0010
,
0100
0001
0000
1000
,
0001
0001
0010
0010
,
0100
0000
0000
0100
0000
0000
0100
0000
,
0000
0000
0000
0000
,
2000
0000
0000
3001
0000
0000
0100
0000
,
0020
0000
0030
1000
,
0100
0000
0000
0010
0000
0000
0001
0000
,
2000
0000
3001
0100
,
0001
0010
0100
0010
,
0001
1000
0010
0100
,
0001
0001
1000
1000
,
0010
0010
0100
0100
,
0002
0000
0000
1003
0000
0000
0010
0000
,
0200
0000
0300
0001
,
0010
0000
0000
0100
0000
0000
1000
0000
,
0002
0000
1003
0010
,
1000
0100
0010
0100
,
2000
0000
0000
0000
,
3002
0000
0000
1003
,
0001
0001
1000
1000
,
0010
0010
0100
0100
,
0001
0001
1000
1000
,
0000
0001
1000
0001
,
1000
1000
0100
0100
,
0010
0010
0001
0100
,
0001
0001
0010
0100
,
1000
0010
0100
0100
,
0001
0001
1000
1000
,
0100
0100
0010
0001
,
0200
0000
0310
0000
,
0020
0000
0130
0000
,
1001
0000
0110
0000
,
0000
0000
0000
0000
,
0002
0000
0000
1003
0000
0000
0100
0000
,
0020
0000
0030
0001
,
0100
0000
0000
0010
0000
0000
1000
0000
,
0002
0000
1003
0100
,
1000
0010
0100
0010
,
1000
0001
0010
0100
,
1000
1000
0001
0001
,
0010
0010
0100
0100
,
2000
0000
0000
3001
0000
0000
0010
0000
,
0200
0000
0300
1000
,
0010
0000
0000
0100
0000
0000
0001
0000
,
2000
0000
3001
0010
,
0001
0100
0010
0100
,
0002
0000
0000
0000
,
2003
0000
0000
3001
,
1000
1000
0001
0001
,
0010
0010
0100
0100
,
1000
1000
0001
0001
,
0100
0100
0010
0020
,
0000
0000
0000
0000
,
0030
1000
0001
1000
,
1001
0000
0000
0000
;

//---------------dance-single - ----------------
#NOTES:
     dance-single:
     :
     Beginner:
     2:
     0.132441,0.188915,0.008746,0.201160,0.000000,106.000000,105.000000,1.000000,23.000000,0.000000,0.000000,0.132441,0.188915,0.008746,0.201160,0.000000,106.000000,105.000000,1.000000,23.000000,0.000000,0.000000:
0000
0000
0000
0000
,
1000
0000
0001
0000
,
0100
0000
0010
0000
,
1000
0000
0001
0000
,
0000
0010
0010
0010
,
0001
0000
0000
0000
,
1000
0000
0000
0000
,
0100
0000
0000
0000
,
0010
0000
0000
0000
,
0001
0000
0000
0000
,
1000
0000
0000
0000
,
0010
0000
0000
0000
,
0100
0000
0000
0000
,
0001
0000
1000
0000
,
0001
0000
0000
0000
,
1000
0000
0010
0000
,
1000
0000
0000
0000
,
0001
0000
0010
0000
,
0001
0000
0000
0000
,
1000
0000
0001
0000
,
1000
0000
0000
0000
,
0000
0000
0000
0000
,
0002
0000
0003
0000
,
2000
0000
3000
0000
,
0200
0000
0300
0000
,
0020
0000
0030
0000
,
0001
0000
1000
0000
,
0001
0000
1000
0000
,
0010
0000
0010
0000
,
0100
0000
0000
0000
,
0002
0000
0003
0000
,
0020
0000
0030
0000
,
0200
0000
0300
0000
,
2000
0000
3000
0000
,
0001
0000
1000
0000
,
0002
0000
0000
0003
,
2000
0000
0000
3000
,
0001
0000
1000
0000
,
0010
0000
0100
0000
,
0001
0000
1000
0000
,
0000
0100
0100
0100
,
1000
0000
1000
0000
,
0001
0000
0001
0000
,
0100
0000
0100
0000
,
0010
0000
0010
0000
,
1000
0000
1000
0000
,
0001
0000
0001
0000
,
0020
0000
0030
0000
,
0200
0000
0300
0000
,
1000
0000
0001
0000
,
0000
0000
0000
0000
,
2000
0000
3000
0000
,
0002
0000
0003
0000
,
0200
0000
0300
0000
,
0020
0000
0030
0000
,
1000
0000
0001
0000
,
1000
0000
0001
0000
,
0010
0000
0010
0000
,
0100
0000
0000
0000
,
2000
0000
3000
0000
,
0020
0000
0030
0000
,
0200
0000
0300
0000
,
0002
0000
0003
0000
,
1000
0000
0001
0000
,
2000
0000
0000
3000
,
0002
0000
0000
0003
,
1000
0000
0001
0000
,
0010
0000
0100
0000
,
1000
0000
0001
0000
,
0100
0000
0010
0020
,
0000
0000
0000
0000
,
0030
1000
0001
1000
,
1001
0000
0000
0000
;
