#TITLE:Nigra Ludia;
#SUBTITLE:;
#ARTIST:Akhuta;
#TITLETRANSLIT:;
#SUBTITLETRANSLIT:;
#ARTISTTRANSLIT:;
#GENRE:SYMPHONIC METAL;
#CREDIT:;
#BANNER:Nigra Ludia.png;
#BACKGROUND:Nigra Ludia-bg.png;
#LYRICSPATH:;
#CDTITLE:cdtitle.png;
#MUSIC:Nigra Ludia.ogg;
#OFFSET:-0.560000;
#SAMPLESTART:9.321667;
#SAMPLELENGTH:10.892202;
#SELECTABLE:YES;
#BPMS:0.000000=177.000000
;
#STOPS:
;
#BGCHANGES:;
#KEYSOUNDS:;
#ATTACKS:;

//---------------dance-single - ----------------
#NOTES:
     dance-single:
     :
     Challenge:
     17:
     0.854622,1.043771,0.299601,0.164297,0.811822,619.000000,588.000000,31.000000,17.000000,0.000000,0.000000,0.854622,1.043771,0.299601,0.164297,0.811822,619.000000,588.000000,31.000000,17.000000,0.000000,0.000000:
0000
0000
0000
0000
,
0000
0000
0000
0000
,
0000
0000
0000
0000
,
1000
0000
0001
0010
0001
0000
1000
0010
1000
0100
1000
0100
0010
0000
0001
0100
,
0001
0000
1000
0100
1000
0010
1000
0010
0100
0000
0001
1000
0001
0000
0010
0000
,
0001
1000
0001
0000
0200
0000
0000
0000
0000
0000
0000
0000
0000
0000
0000
0000
,
0000
0000
0310
0100
0010
0000
0000
0000
1000
0000
0100
0000
0010
0000
0100
1000
,
0100
0000
1000
0000
0001
0000
0100
0000
0010
0000
0100
0000
0001
0000
0010
0100
,
0010
0001
1000
0001
1000
0100
0001
0100
,
1000
0000
0010
0000
0001
0000
0010
0000
1000
0100
1000
0100
0010
0001
0010
0001
,
0100
0000
0001
0000
0010
0000
0100
0000
1000
0000
0010
0000
0100
0000
0010
1000
,
0010
0000
0100
0000
0001
0000
0010
0000
0100
0000
0010
0000
0001
0000
0100
0010
,
0100
0001
1000
0100
1100
0000
0000
0101
,
0000
0000
0011
0000
0000
1010
0000
0000
,
2002
0000
0000
3003
,
1000
0000
0000
0000
0001
0000
0000
0000
1000
0000
0100
0000
0010
0000
0001
1000
,
0001
0000
0100
0000
0010
0000
1000
0000
0001
0000
0010
0000
0100
0000
1000
0001
,
1000
0000
0010
0000
0100
0000
0001
1000
0001
0000
1000
0100
1000
0000
0001
0100
,
0001
0000
1000
0010
1000
0000
0001
0010
0001
0000
1000
0100
1000
0100
0010
0001
,
0010
0000
0001
0000
0100
0000
0000
0000
0001
0000
0010
0000
0100
0000
1000
0001
,
1000
0000
0010
0000
0100
0000
0001
0000
1000
0000
0100
0000
0010
0000
0001
1000
,
0001
0000
0100
0000
0010
0000
1000
0001
1000
0000
0001
0010
0001
0000
1000
0000
,
0010
0000
1000
0100
1000
0000
0001
0000
0100
0000
0001
0010
0001
0010
0100
1000
,
0100
1000
0001
0000
1000
0000
0100
0000
,
0001
0010
1000
0001
,
2002
0000
0000
0000
3003
0000
0000
0000
1000
0100
1000
0100
0010
0000
0001
0100
,
0001
0100
0010
0000
1000
0001
1000
0001
0010
0000
0001
0100
0001
0000
0010
0000
,
0100
0000
1000
0000
0020
0000
0000
0000
1030
0001
1000
0001
0100
0000
0001
0010
,
0001
0100
0001
0100
0010
1000
0010
1000
0100
0000
1000
0010
1000
0000
0001
0000
,
0010
0000
0100
0000
2000
0000
0000
0000
3001
0000
1000
0010
1000
0000
0001
0010
,
0001
0000
1000
0100
0010
0001
0010
0100
1000
0000
0001
0100
0001
0000
1000
0100
,
1000
0000
0001
0010
0100
1000
0100
0010
0001
0000
1000
0010
1000
0000
0001
0010
,
0001
0100
0001
0100
0010
1000
0010
1000
0001
0000
0100
0000
1000
0000
0100
0000
,
0002
0000
0000
0010
0000
0000
0013
0000
1000
0000
0000
0000
1010
0000
0000
0000
,
0001
0000
0000
0010
0000
0000
0100
1000
0100
0000
1000
0000
0010
0000
1000
0000
,
0001
0000
0000
0010
0000
0000
0100
0000
0010
0000
0000
0001
0000
0000
1000
0000
,
0010
0000
0000
0100
0000
0000
0010
0000
1000
0000
0000
0100
0000
0000
0020
0000
,
0000
0000
0000
0000
0000
0000
0031
1000
0002
0000
0000
0000
0000
0000
0000
0000
,
1003
0010
1000
0010
0100
0001
0100
0001
0010
0100
0010
0100
1000
0001
1000
0001
,
0100
0010
0100
0010
1000
0000
0000
0000
0001
0000
0100
0000
1000
0000
0100
0000
,
0001
0000
0000
0010
0000
0000
1000
0000
0000
0010
0000
0000
0001
0000
0000
1000
0000
0000
0001
0000
0010
0000
0001
0000
,
1000
0010
1000
0100
0010
0001
0200
0000
0000
0000
0000
0000
,
0000
0000
0320
0000
,
0000
0000
1030
0000
1001
0001
0100
0010
,
1010
0000
1000
0100
1000
0000
0010
0000
0110
0000
0000
0000
0101
0000
0000
0000
,
0011
0000
0000
0000
0002
0000
0000
0000
1003
0000
0000
0010
0100
0000
0010
0000
,
0001
0000
0000
0010
0100
0000
0010
0000
1000
0000
0000
0100
0010
0000
0001
0000
,
1000
0010
1000
0010
0100
0001
0100
0001
1000
0000
0000
0100
0010
0000
0100
0000
,
0001
0000
0000
0100
0010
0000
0100
0000
1000
0000
0000
0010
0100
0000
0001
0000
,
1000
0100
1000
0100
0010
0001
0010
0001
1000
0000
0001
0010
0100
0010
0001
0100
,
0010
0100
0001
0010
0100
1000
0010
0100
0001
0000
1000
0100
1000
0000
0001
0100
,
0001
0000
1000
0001
1000
0001
0100
0001
0100
0000
0010
1000
0010
0000
1000
0000
,
0100
0000
0010
0001
0010
0000
0001
0000
1000
0000
0010
0100
0010
0100
0001
1000
,
0200
0000
0000
0000
0000
0000
0000
0000
1300
0000
0000
0010
0100
0000
0001
0000
,
0010
0000
0000
0100
0010
0000
0001
0000
0100
0000
0000
0010
1000
0000
0100
0000
,
1000
0010
1000
0010
0100
0001
0100
0001
1000
0000
0000
0100
0010
0000
0001
0000
,
0100
0000
0000
0010
0100
0000
0001
0000
0010
0000
0000
0100
1000
0000
0010
0000
,
1000
0100
1000
0100
0010
0001
0010
0001
1000
0000
0001
0100
0010
0100
0001
0010
,
0100
0010
0001
0100
0010
1000
0100
0010
0001
0000
1000
0010
1000
0000
0001
0010
,
0001
0000
1000
0100
1000
0001
1000
0001
0100
0000
0010
1000
0010
0000
1000
0000
,
0100
0000
0010
0001
0010
0000
0001
0000
1001
0000
0000
0000
0110
0000
0000
0000
,
1001
0000
1000
0001
1000
0001
1000
0001
1000
0000
0000
0000
0000
0000
0000
0000
,
1010
0000
0011
0000
,
0101
0000
1100
0000
,
1001
0000
0101
0011
,
2002
3003
1001
0000
,
1010
0000
0011
0101
,
1100
0000
2000
0000
3001
0010
1000
0010
,
0001
0000
0100
0010
0100
0000
0010
0000
1000
0000
0100
0010
0100
0000
1000
0000
,
0001
0000
0000
1000
0000
0000
0001
0000
0000
0000
0000
0000
1000
0000
0000
0000
0100
0000
0000
0000
0010
0000
0000
0000
0100
0000
0000
0000
1000
0000
0000
0000
0010
0000
0000
0000
0100
0000
0000
0000
0001
0000
0000
0000
0010
0000
0000
0000
,
0100
0000
1000
0000
0001
1000
0001
1000
0001
0000
1000
0100
1000
0000
0010
0000
,
0100
0000
0001
0010
0001
0000
1000
0000
1010
0000
0000
0000
0011
0000
0000
0000
,
1001
0000
0000
0000
;

//---------------dance-single - ----------------
#NOTES:
     dance-single:
     :
     Hard:
     14:
     0.680660,0.869809,0.212620,0.086981,0.343091,493.000000,471.000000,22.000000,9.000000,0.000000,0.000000,0.680660,0.869809,0.212620,0.086981,0.343091,493.000000,471.000000,22.000000,9.000000,0.000000,0.000000:
0000
0000
0000
0000
,
0000
0000
0000
0000
,
0000
0000
0000
0000
,
1000
0000
0001
0100
0001
0000
1000
0010
1000
0000
0100
0000
0010
0000
0001
1000
,
0001
0000
0100
0010
0100
0000
0001
0000
1000
0000
0100
0000
0010
0000
0001
0000
,
0100
0010
2000
0000
0000
0000
0000
0000
,
0000
0000
3001
1000
0001
0000
0000
0000
1000
0000
0100
0000
0010
0000
0100
0000
,
0001
0100
0010
0100
1000
0010
0100
0010
,
0001
0010
0100
0010
1000
0100
0001
0100
,
1000
0000
0010
0000
0001
0000
0010
0000
1000
0100
1000
0100
0010
0001
0010
0000
,
0001
0100
0010
1000
0001
0010
0100
0010
,
1000
0010
0100
0010
0001
0100
0010
0100
,
0001
0000
1000
0001
1001
0000
0000
1100
,
0000
0000
0101
0000
0000
0011
0000
0000
,
2010
0000
0000
0000
,
3001
0000
1000
0000
0001
0010
0001
1000
,
0010
1000
0001
1000
0001
0100
0001
1000
,
0100
0000
1000
0000
0001
0000
1000
0010
1000
0000
0010
0100
0010
0000
0100
0001
,
0100
0000
0001
0010
0001
0000
1000
0001
1000
0000
0010
0000
0100
0000
0001
0000
,
0010
0100
2000
0000
3001
0100
0010
0100
,
0001
0010
0100
1000
0010
0100
0010
1000
,
0100
0000
0010
0000
0001
0000
0100
0010
0100
0000
0010
1000
0010
0000
1000
0000
,
0100
0000
1000
0010
1000
0000
0001
0000
0100
0000
0001
0010
0001
0000
0100
0000
,
0001
1000
0001
0000
1000
0000
0100
0000
,
0010
0001
0100
0010
,
2000
0000
3000
0000
0001
0010
1000
0001
,
0100
1000
0001
0010
1000
0001
0100
1000
,
0010
1000
0001
0000
1000
0100
0001
1000
,
0010
0001
0100
0010
1000
0001
0010
0100
,
0010
0000
0001
0000
1000
0000
0000
0000
0001
0000
1000
0100
1000
0000
0001
0100
,
0001
0000
1000
0000
0100
0000
0010
0000
0001
0000
1000
0010
1000
0000
0001
0010
,
0001
0000
1000
0000
0010
0000
0100
0000
0001
0000
0010
0100
0010
0000
0001
1000
,
0001
0100
0010
1000
0100
0001
0100
1000
,
0010
0000
0000
0010
0000
0000
0010
0000
1000
0000
0000
0000
1000
0000
0000
0000
,
0100
0000
0000
0010
0000
0000
0001
0000
0100
0000
0010
0000
1000
0000
0100
0000
,
0010
0000
0000
0100
0000
0000
1000
0000
0001
0000
0000
0100
0000
0000
0010
0000
,
1000
0000
0000
0100
0000
0000
0010
0000
0001
0000
0000
1000
0000
0000
0002
0000
,
0000
0000
0000
0000
0000
0000
1003
0010
2000
0000
0000
0000
0000
0000
0000
0000
,
3001
0010
1000
0010
0001
0100
1000
0100
,
0001
0010
0100
0000
1000
0010
0100
0001
,
1000
0000
0000
0100
0000
0000
1000
0000
0000
0001
0000
0000
0100
0000
0000
0001
0000
0000
0010
0000
0100
0000
0010
0000
,
0001
1000
0001
1000
0100
0010
0002
0000
0000
0000
0000
0000
,
0000
0000
2003
0000
,
0000
0000
3001
0000
1001
1000
0100
0010
,
0001
0000
0100
0010
0100
0000
0010
0000
1000
0000
0000
0000
1100
0000
0000
0000
,
0101
0000
0000
0000
0000
0000
0000
0000
0001
0000
0000
0010
0000
0000
0001
0000
,
1000
0000
0000
0010
0000
0000
1000
0000
0001
0000
0000
0100
0000
0000
0001
0000
,
1000
0000
0100
0000
0001
0000
0100
0000
1000
0000
0000
0010
0000
0000
1000
0000
,
0001
0000
0000
0010
0000
0000
0001
0000
1000
0000
0000
0100
0000
0000
1000
0000
,
0001
0000
0100
0000
1000
0000
0100
0000
0001
0000
1000
0010
1000
0000
0100
0000
,
0010
0000
0001
0000
0100
0000
0010
0000
1000
0000
0100
0010
0100
0000
1000
0001
,
1000
0000
0010
0100
0010
0000
0000
0000
1000
0000
0100
0000
0010
0000
0001
0000
,
0100
0010
1000
0001
0010
0100
1000
0001
,
1000
0000
0000
0000
0000
0000
0000
0000
0001
0000
0000
0100
0000
0000
0001
0000
,
1000
0000
0000
0100
0000
0000
1000
0000
0001
0000
0000
0010
0000
0000
0001
0000
,
1000
0000
0010
0000
0001
0000
0010
0000
1000
0000
0000
0100
0000
0000
1000
0000
,
0001
0000
0000
0100
0000
0000
0001
0000
1000
0000
0000
0010
0000
0000
1000
0000
,
0001
0000
0010
0000
1000
0000
0010
0000
0001
0000
1000
0100
1000
0000
0010
0000
,
0100
0000
0001
0000
0010
0000
0100
0000
1000
0000
0010
0100
0010
0000
1000
0001
,
1000
0000
0100
0010
0100
0010
0100
0010
0001
0000
1000
0010
1000
0000
0001
0000
,
1000
0000
0001
0010
0001
0000
1000
0000
1001
0000
0000
0000
0110
0000
0000
0000
,
1001
0000
0001
0000
,
0101
0000
1000
0000
,
1100
0000
0001
0000
,
0011
0000
1000
1010
,
1001
0000
0001
0000
,
0101
0000
1000
1100
,
1001
0000
0001
0000
0100
0010
0100
0010
,
1000
0000
0100
0000
0010
0000
0001
0000
0100
0000
0001
0010
0001
0000
0100
0000
,
0010
0000
0000
1000
0000
0000
0010
0000
0000
0000
0000
0000
1000
0000
0000
0000
0100
0000
0000
0000
0010
0000
0000
0000
0001
0000
0000
0000
0010
0000
0000
0000
0100
0000
0000
0000
1000
0000
0000
0000
0010
0000
0000
0000
1000
0000
0000
0000
,
0002
0000
0000
0000
0103
0000
0000
0000
0001
0000
1000
0100
1000
0000
0001
0000
,
1000
0000
0001
0100
0001
0000
0010
0000
0110
0000
0000
0000
1001
0000
0000
0000
,
0110
0000
0000
0000
;

//---------------dance-single - ----------------
#NOTES:
     dance-single:
     :
     Medium:
     10:
     0.466659,0.521885,0.270607,0.193291,0.024161,338.000000,310.000000,28.000000,20.000000,0.000000,0.000000,0.466659,0.521885,0.270607,0.193291,0.024161,338.000000,310.000000,28.000000,20.000000,0.000000,0.000000:
0000
0000
0000
0000
,
0000
0000
0000
0000
,
0000
0000
0000
0000
,
1000
0000
0000
1000
0001
0000
0000
0001
0100
0000
0010
0000
1000
0000
0000
1000
,
0001
0000
0000
0001
0010
0000
0100
0000
1000
0000
0000
0000
1000
0000
0010
0000
,
0000
0010
0200
0000
0000
0000
0000
0000
,
0000
0000
0301
0000
0020
0000
0000
0130
,
1000
0000
0010
0100
0002
0000
0000
1003
,
0100
0000
1000
0010
1000
0000
0001
0000
,
0010
0100
0010
0000
0001
0100
0010
0100
,
0001
1000
0001
1000
0002
0000
0000
1003
,
0100
0000
0010
0001
0200
0000
0000
0310
,
1000
0000
0001
0010
0001
0000
0000
0101
,
0000
0000
1100
0000
0000
1010
0000
0000
,
0012
0000
0000
0000
,
1003
0000
0001
0000
1000
0100
1000
0000
,
0010
0100
0001
0010
,
0100
0000
1000
0000
0001
0100
0001
0000
,
1000
0100
1000
0000
0010
0100
0010
0100
,
0001
1000
0001
0000
1000
0100
0010
0000
,
0100
0000
1000
0000
0001
0100
0010
0000
,
0100
0000
0001
0000
1000
0100
1000
0000
,
0001
0100
0001
0000
0010
0000
0100
0000
,
1000
0001
1000
0000
0001
0000
0001
0000
,
0010
0010
0100
0100
,
2000
0000
3000
0000
0001
0000
0001
0100
,
0000
0100
0010
0000
0010
1000
0000
1000
,
0100
0010
0001
0000
1000
0000
1000
0010
,
0000
0010
0100
0001
0010
0000
0001
0000
,
1000
0001
1000
0000
0001
0000
0001
0000
,
0100
0010
1000
0100
1000
0000
1000
0000
,
0100
0010
0001
0100
0001
0000
0001
0000
,
0010
0100
0010
0001
1000
0010
0100
0010
,
2000
0000
3002
0000
,
0000
0000
0000
0000
0013
0100
0010
0100
,
1000
0010
0001
0010
,
1000
0000
0000
0000
0100
0000
0000
0000
0001
0000
0000
0100
0000
0000
2000
0000
,
0000
0000
0000
3001
0200
0000
0000
0000
,
0310
1000
0010
1000
0100
0010
0100
0000
,
1000
0001
1000
0000
0001
0000
1000
0010
,
1000
0001
0010
0100
0010
0100
2000
0000
,
3020
0230
0302
0000
,
0000
0000
2003
0000
,
0000
3001
1001
0000
,
0110
0000
1001
0110
,
1001
0000
1000
1000
,
0001
0001
1000
1000
,
0001
0100
1000
0100
0001
0000
0001
0000
,
1000
1000
0001
0001
,
1000
0100
0001
0100
1000
0000
0010
0000
,
0100
0000
0001
0010
0001
0000
0100
0000
,
0010
0000
1000
0100
1000
0000
0001
0100
,
0001
0000
1000
0010
1000
0000
0001
0010
,
0001
0000
1000
1000
,
0001
0001
1000
1000
,
0001
0010
1000
0010
0001
0000
0001
0000
,
1000
1000
0001
0001
,
1000
0010
0001
0010
1000
0000
0100
0000
,
0010
0000
0001
0100
0001
0000
0010
0000
,
0100
0000
1000
0010
1000
0000
0000
0000
,
0110
0000
1001
0110
,
1001
0000
0001
0000
,
0110
0000
1000
0000
,
0110
0000
0001
0000
,
0110
0000
1001
0110
,
1001
0000
1000
0000
,
0110
0000
1001
0110
,
1001
0001
1000
0010
,
0100
0001
0100
0000
0001
0010
0001
1000
,
0010
1000
0002
0000
0203
0000
0320
0000
,
2030
3100
0110
0000
,
1001
0000
0110
1001
,
0110
0000
0000
0000
;

//---------------dance-single - ----------------
#NOTES:
     dance-single:
     :
     Easy:
     7:
     0.352066,0.452301,0.154633,0.202955,0.000000,255.000000,239.000000,16.000000,21.000000,0.000000,0.000000,0.352066,0.452301,0.154633,0.202955,0.000000,255.000000,239.000000,16.000000,21.000000,0.000000,0.000000:
0000
0000
0000
0000
,
0000
0000
0000
0000
,
0000
0000
0000
0000
,
1000
0001
0001
0100
,
0100
0000
0010
0000
1000
0000
0000
0001
,
0000
2000
0000
0000
,
0000
3001
0020
0000
,
0130
1000
0002
0000
,
0103
0010
1000
0100
,
0010
0001
0100
0010
,
1000
0001
1000
0000
0002
0000
0000
0000
,
0103
0010
2000
0000
,
3100
0000
0010
0000
0001
0000
0000
1000
,
0000
0000
0001
0000
0000
1000
0000
0000
,
2002
0000
0000
3003
,
0001
1000
0001
0100
,
0010
0010
1000
0100
,
0010
0010
0001
0100
,
0010
1000
0100
0010
,
0001
1000
0001
0000
1000
0000
0010
0000
,
0100
0100
0001
0010
,
0100
0100
1000
0010
,
0100
0001
0010
0100
,
1000
0001
1000
0000
0001
0000
0010
0000
,
0100
1000
0010
0100
,
0002
0003
1000
0100
,
0010
0100
1000
0010
,
0100
0001
1000
0100
,
0010
0001
0100
0010
,
0100
0001
1000
1000
,
0100
0010
0001
0001
,
0100
0010
1000
1000
,
0100
0000
0010
0000
0001
1000
0001
0000
,
2000
0000
3002
0000
,
0000
0000
1003
0010
,
0100
0010
1000
0100
,
0010
0001
0100
0010
,
1000
0000
0002
0000
,
1003
0100
0001
0100
,
1000
0001
0010
0000
,
0100
0000
1000
0020
,
0230
0302
2003
0000
,
0000
0000
3002
0000
,
0000
0003
1000
0000
,
0001
0000
1001
0110
,
1001
0000
1000
1000
,
0010
0010
0100
0100
,
0001
0010
0100
0100
,
1000
1000
0010
0010
,
0100
0001
0010
0010
,
0100
1000
0001
0100
,
1000
0100
0001
0001
,
1000
1000
0001
1000
,
0001
0000
1000
1000
,
0100
0100
0010
0010
,
0001
0100
0010
0010
,
1000
1000
0100
0100
,
0010
0001
0100
0100
,
0010
1000
0001
0010
,
1000
0010
0001
0000
,
1001
0000
1001
0110
,
1001
0000
1000
0000
,
1100
0000
0001
0000
,
0101
0000
1000
0000
,
1010
0000
0001
1000
,
0001
0000
1000
0000
,
1001
0000
0001
1000
,
0002
1003
0100
0010
,
0001
1000
0001
0000
1000
0100
1000
0001
,
0100
0001
0020
0000
0230
0000
2300
0000
,
3001
0200
0310
0000
,
1001
0000
0110
1001
,
0110
0000
0000
0000
;

//---------------dance-single - ----------------
#NOTES:
     dance-single:
     :
     Beginner:
     5:
     0.194672,0.278339,0.000000,0.009665,0.000000,141.000000,141.000000,0.000000,1.000000,0.000000,0.000000,0.194672,0.278339,0.000000,0.009665,0.000000,141.000000,141.000000,0.000000,1.000000,0.000000,0.000000:
// measure 0
0000
0000
0000
0000
,  // measure 1
0000
0000
0000
0000
,  // measure 2
0000
0000
0000
0000
,  // measure 3
0001
0001
1000
0001
,  // measure 4
1000
1000
0001
0000
,  // measure 5
0000
2000
0000
0000
,  // measure 6
0000
3001
1000
0000
,  // measure 7
0010
0000
0100
0000
,  // measure 8
0001
0000
0010
0000
,  // measure 9
0100
0000
1000
0000
,  // measure 10
0001
1000
0001
0000
,  // measure 11
0100
0000
0010
0000
,  // measure 12
1000
0000
0100
0000
,  // measure 13
0000
0010
0000
0000
,  // measure 14
0001
0000
0000
0000
,  // measure 15
1000
0001
1000
0000
,  // measure 16
1000
0000
0001
0000
,  // measure 17
0001
0000
0100
0000
,  // measure 18
0100
0000
0010
0000
,  // measure 19
0010
0000
1000
0000
,  // measure 20
1000
0000
0001
0000
,  // measure 21
0001
0000
0010
0000
,  // measure 22
0010
0000
0100
0000
,  // measure 23
0100
0000
1000
0000
,  // measure 24
0000
0000
0000
0000
,  // measure 25
0000
0000
0001
0000
,  // measure 26
1000
0000
0001
0000
,  // measure 27
0000
0000
0100
0000
,  // measure 28
0010
0000
0100
0000
,  // measure 29
0000
0000
0001
0000
,  // measure 30
0001
0000
0010
0000
,  // measure 31
0010
0000
0100
0000
,  // measure 32
0100
0000
1000
0000
,  // measure 33
0001
0000
1000
0000
,  // measure 34
0000
0000
0001
0000
,  // measure 35
0100
0000
0010
0000
,  // measure 36
1000
0000
0100
0000
,  // measure 37
0010
0000
0001
0000
,  // measure 38
1000
1000
0001
0001
,  // measure 39
1000
0001
1000
0000
,  // measure 40
0010
0000
0100
0010
,  // measure 41
0000
0000
1000
0000
,  // measure 42
0000
0000
0001
0000
,  // measure 43
0000
0000
1000
0000
,  // measure 44
0001
0000
1000
0001
,  // measure 45
1000
0000
0001
0000
,  // measure 46
0001
0000
1000
0000
,  // measure 47
1000
0000
0100
0000
,  // measure 48
0100
0000
0010
0000
,  // measure 49
0010
0000
0001
0000
,  // measure 50
0001
0000
1000
0000
,  // measure 51
1000
0000
0010
0000
,  // measure 52
0010
0000
0100
0000
,  // measure 53
0100
0000
0001
0000
,  // measure 54
0001
0000
0010
0000
,  // measure 55
0010
0000
0100
0000
,  // measure 56
0100
0000
1000
0000
,  // measure 57
1000
0000
0001
0000
,  // measure 58
0001
0000
0100
0000
,  // measure 59
0100
0000
0001
0000
,  // measure 60
1000
0000
0001
1000
,  // measure 61
0001
0000
1000
0000
,  // measure 62
0100
0000
0010
0000
,  // measure 63
0001
0000
1000
0000
,  // measure 64
0001
0000
1000
0001
,  // measure 65
1000
0000
0001
0000
,  // measure 66
0100
0000
0001
1000
,  // measure 67
0001
0000
1000
0000
,  // measure 68
0100
0000
1000
0000
,  // measure 69
0000
0001
0000
0100
,  // measure 70
0000
0010
1000
0000
,  // measure 71
0001
0000
1000
0001
,  // measure 72
1000
0000
0000
0000
;
