#TITLE:七転び八起き;
#SUBTITLE:;
#ARTIST:アンジュルム;
#TITLETRANSLIT:Nanakorobi Yaoki;
#SUBTITLETRANSLIT:;
#ARTISTTRANSLIT:ANGERME;
#GENRE:NU-STYLE GOTH POP;
#CREDIT:;
#BANNER:Nanakorobi Yaoki.png;
#BACKGROUND:Nanakorobi Yaoki-bg.png;
#LYRICSPATH:;
#CDTITLE:cdtitle.png;
#MUSIC:Nanakorobi Yaoki.ogg;
#OFFSET:-0.440000;
#SAMPLESTART:37.426029;
#SAMPLELENGTH:11.944447;
#SELECTABLE:YES;
#BPMS:0.000000=162.000000
;
#STOPS:
;
#BGCHANGES:0.000=Nanakorobi Yaoki.avi=1.000=0=0=0=StretchNoLoop==CrossFade_Fastest==,
99999=-nosongbg-=1.000=0=0=0 // don't automatically add -songbackground-
;
#KEYSOUNDS:;
#ATTACKS:;

//---------------dance-single - ----------------
#NOTES:
     dance-single:
     :
     Challenge:
     14:
     0.615322,0.812965,0.342711,0.295978,1.047606,553.000000,509.000000,44.000000,38.000000,0.000000,0.000000,0.615322,0.812965,0.342711,0.295978,1.047606,553.000000,509.000000,44.000000,38.000000,0.000000,0.000000:
0000
0000
0000
0000
,
0000
0000
0000
0000
,
0000
0000
0000
0000
,
0000
0000
0000
0000
,
0000
0000
0000
0000
,
1000
0100
1000
0001
0010
0001
1000
0000
1000
0001
0000
0000
,
0100
0010
0100
0010
1000
0010
1000
0001
1000
0001
0010
0100
,
1000
0000
0000
0001
0100
0001
0100
0000
0010
1000
0000
0000
,
1100
0000
0000
1001
0000
0000
0101
0000
0000
0001
1000
0001
,
1000
0000
1000
0100
0000
0100
0010
0000
0010
0001
0000
0001
,
0100
0000
0100
0010
0000
1000
0000
0000
0001
0010
0000
0010
,
0001
0000
0001
1000
0000
0010
0000
0000
1000
0100
0000
0000
,
1000
0000
0010
0100
0000
0001
0000
0000
1002
0000
0000
0000
,
1003
0000
1000
0100
0000
0100
0001
0000
0001
0100
0000
0100
,
1000
0000
1000
0001
0000
0100
0000
0000
0010
1000
0000
1000
,
0100
0000
0100
0010
0000
0010
0001
0000
0000
0100
0000
0000
,
0011
0000
0000
1001
0000
0000
1010
0000
0000
1000
0100
0010
,
0001
0101
1000
1100
,
0001
0000
1000
0010
0000
1000
0000
0000
0100
0010
0000
0001
,
0000
0000
0001
1000
0000
1000
0010
0000
0010
0100
0000
0100
,
0001
0000
0001
0010
0000
0100
0000
0000
1000
0001
0000
0000
,
1010
0000
0010
0000
0100
0000
0001
0000
0000
1000
0000
0000
,
0011
0000
0010
0000
0100
0000
1000
0000
0000
0001
0000
0000
,
1000
0000
0010
0000
0001
0000
0010
0000
1000
0000
0001
0000
,
0011
0000
0011
0000
0000
0000
1010
0000
1010
0000
0000
2002
,
0000
0000
3003
0001
,
1001
0000
0000
1000
0000
1000
0010
0000
0010
0100
0000
0100
,
0001
0000
0001
0010
0000
0001
0000
0000
1000
0010
0000
2000
,
0000
0000
3100
0010
0000
0010
0100
0000
0100
0010
0000
0010
,
0001
0000
0001
1000
0000
0010
0000
0000
1000
0001
0000
0001
,
2000
3020
0032
0023
,
2030
3200
0302
0203
,
2300
0000
0000
3001
0000
0010
0000
0000
0001
0100
0000
0110
,
0000
0000
1000
0100
0000
0110
0000
0000
0001
0100
0000
0100
,
0001
0000
0001
0010
0000
0010
0100
0000
0100
1000
0000
1000
,
0010
0000
0010
0100
0000
0001
0000
0000
1000
0001
0000
2000
,
0000
0000
3100
0010
0000
0010
0001
0000
0001
0100
0000
0100
,
0010
0000
0010
1000
0000
0001
0000
0000
1000
0100
0000
0100
,
0010
0000
0010
0100
0000
1000
0000
0000
0001
0100
0000
0100
,
0020
2030
3200
0320
,
0032
0000
0000
0000
0000
0000
1003
0000
0010
0100
0010
1000
,
0001
0000
0000
1001
,
0120
0000
1030
0000
,
0100
0000
0010
0000
0001
1000
0001
0000
0100
0000
0010
1000
,
0001
0010
0001
1000
0010
1000
0001
0100
0001
1000
0100
1000
,
0100
0010
0100
0010
0001
0010
0001
0100
0001
0100
0010
1000
,
0010
0000
0000
0010
0000
0000
0210
0000
0000
0000
0000
0301
,
1000
0000
1000
0000
0100
0010
0001
0100
0001
0000
1000
0100
,
1000
0010
1000
0001
0010
0001
1000
0100
1000
0001
0100
0001
,
0100
0010
0100
0010
1000
0010
1000
0100
1000
0100
0010
0100
,
0020
0000
0000
0000
0000
0000
0032
0000
0000
0000
0000
1003
,
0010
0100
0010
0200
0000
0000
0301
0010
0001
2000
0000
0000
,
3100
0010
0100
1000
0010
1000
0002
0000
0000
0013
0100
0010
,
0200
0000
2300
0000
,
3001
0010
0001
1000
0001
1000
0001
0100
0001
1000
0001
1000
,
0100
0010
0100
1000
0001
1000
0010
0100
0010
1000
0001
1000
,
0100
0010
0100
0010
0001
0010
0001
0100
0001
0100
0010
0100
,
0010
1000
0010
1000
0100
1000
0100
0010
0100
0010
0001
0010
,
0001
0000
0101
0000
0101
0000
1000
0000
1100
0000
1100
0000
,
2002
0000
0000
3003
,
1001
0001
0000
0001
,
0000
0000
0000
0001
0000
0000
0000
0000
1100
0000
0000
0000
,
0101
1000
0000
1000
,
0000
0000
1001
0000
0000
0000
0000
0000
0011
0000
0000
0000
,
1010
0001
0000
1001
,
1100
1000
0000
0101
,
1001
0000
0000
0000
0000
0110
0000
0000
0000
0000
0000
0000
,
0002
0000
0000
0000
0000
1003
0100
0010
0100
0010
0100
0010
,
0001
0000
0001
0100
0000
0100
0010
0000
0010
1000
0000
1000
,
0100
0000
0100
0010
0000
0001
0000
0000
1000
0001
0000
2000
,
0000
0000
3010
0100
0000
0100
0001
0000
0001
0010
0000
0010
,
0100
0000
0100
1000
0000
0001
0000
0000
1000
0010
0000
0010
,
0100
0000
0100
0010
0000
1000
0000
0000
0001
0010
0000
0010
,
0200
2300
3020
0230
,
0302
0000
0000
0000
0000
0000
1003
0100
0010
0100
1000
0001
,
1000
0000
0000
1001
,
0001
0100
0001
1000
0010
1000
0001
0000
0001
1000
0000
0000
,
0100
0010
0100
0010
0001
0010
0001
1000
0001
1000
0010
0100
,
0001
0000
0000
1000
0100
1000
0100
0000
0010
0001
0000
0000
,
0101
0000
0000
1001
0000
0000
1100
0000
0000
1000
0010
1000
,
0001
1000
0001
0010
0100
0010
0001
1000
0001
0100
0010
0100
,
0001
0000
0011
0000
1010
0000
1000
0100
0010
0001
0100
0010
,
2000
0000
0000
0000
,
0000
0000
3000
0000
;

//---------------dance-single - ----------------
#NOTES:
     dance-single:
     :
     Hard:
     12:
     0.470671,0.552817,0.257033,0.295978,0.627006,423.000000,390.000000,33.000000,38.000000,0.000000,0.000000,0.470671,0.552817,0.257033,0.295978,0.627006,423.000000,390.000000,33.000000,38.000000,0.000000,0.000000:
0000
0000
0000
0000
,
0000
0000
0000
0000
,
0000
0000
0000
0000
,
0000
0000
0000
0000
,
0000
0000
0000
0000
,
0001
0000
0001
1000
0000
1000
0100
0000
0000
0010
0000
0000
,
0100
0000
0100
0010
0000
0010
0001
0000
0001
1000
0000
1000
,
0020
0230
0302
2003
,
3100
0110
1001
0000
,
1000
0000
1000
0100
0000
0100
0010
0000
0010
0001
0000
0001
,
0100
0000
0100
0010
0000
2000
0000
0000
0000
3001
0000
0001
,
0010
0000
0000
0001
0000
0200
0000
0000
0000
0310
0000
0000
,
1000
0000
0100
0010
0000
0001
0000
0000
2001
0000
0000
0000
,
3001
0000
0001
0100
0000
0100
0010
0000
0010
1000
0000
1000
,
0100
0000
0100
0010
0000
0002
0000
0000
0000
1003
0000
1000
,
0010
0000
0010
0100
0000
0100
0001
0000
0000
1000
0000
0000
,
1001
0110
1001
0000
,
1000
1000
0010
0010
,
0100
0000
0100
0001
0000
0010
0000
0000
0000
0001
0000
0100
,
0000
0000
0010
1000
0000
1000
0100
0000
0100
0010
0000
0010
,
0100
0000
0000
1000
0000
0001
0000
0000
0000
1000
0000
0000
,
0001
0000
0010
0000
0100
0000
1000
0000
0000
1001
0000
0000
,
1000
0000
0010
0000
0100
0000
0001
0000
0000
1001
0000
0000
,
0001
0000
0010
0000
1000
0000
0001
0000
0100
0000
1000
0000
,
0001
0000
1001
0000
0000
0000
1000
0000
1001
0000
0000
0220
,
0000
0000
0330
0001
,
1000
0000
0000
0001
0000
0001
0010
0000
0010
0100
0000
0100
,
1000
0000
1000
0010
0000
0100
0000
0000
0000
0001
0000
1000
,
0000
0000
0100
0010
0000
0010
0001
0000
0001
0100
0000
0100
,
0010
0000
0010
1000
0000
0001
0000
0000
0000
1000
0000
0001
,
1000
0100
0001
0100
,
1000
0010
0001
0010
,
1000
0000
0000
0100
0000
0010
0000
0000
0001
1000
0000
1100
,
0000
0000
1000
0001
0000
0101
0000
0000
0001
1000
0000
1000
,
0001
0000
0001
0010
0000
0010
0100
0000
0100
1000
0000
1000
,
0010
0000
0010
0100
0000
0001
0000
0000
0000
0010
0000
0100
,
0000
0000
1000
0010
0000
0010
0100
0000
0100
0001
0000
0001
,
1000
0000
1000
0100
0000
0010
0000
0000
0000
0001
0000
1000
,
0001
0000
0000
0100
0000
0010
0000
0000
0000
1000
0000
0001
,
2000
3200
0320
0032
,
2003
0000
3002
0000
,
1003
0000
0000
0001
,
0201
0000
0310
0000
,
1000
0000
1000
0000
1000
0100
0010
0000
0010
0000
0010
0001
,
2000
0000
3010
0000
,
0100
0000
0100
0000
0100
0001
0010
0000
0100
0000
1000
0000
,
0001
0100
0110
0000
,
0010
0000
0010
0000
0010
1000
0100
0000
1000
0000
0001
0000
,
1001
0000
0000
1000
0000
0000
1010
0000
0000
0000
0000
0010
,
0100
0000
0100
0001
0000
0001
0010
0000
0010
0100
0000
0100
,
2000
0000
3002
0000
,
0013
0100
0010
0100
0000
0000
1000
0001
1000
0001
0000
0000
,
1000
0000
1000
0010
0000
0010
0200
0000
0000
0000
0000
0000
,
0302
0000
0023
0000
,
0031
0000
0001
0100
0000
0100
1000
0000
1000
0100
0000
0000
,
0001
0000
0001
0010
0000
0010
1000
0000
1000
0010
0000
0000
,
0001
0000
0001
0100
0000
0100
0010
0000
0010
1000
0000
1000
,
0100
0000
0100
0010
0000
0010
0001
0000
0001
1000
0000
1000
,
0001
0000
0001
0000
0001
0000
1000
0000
1000
0000
1000
0000
,
2002
0000
0000
3003
,
1001
1000
0000
1000
,
0000
0000
0000
1000
0000
0000
0000
0000
1010
0000
0000
0000
,
0101
0001
0000
0001
,
0000
0000
0011
0000
0000
0000
0000
0000
1100
0000
0000
0000
,
1001
1000
0000
1010
,
0011
0001
0000
0101
,
1100
0000
0000
0000
0000
1001
0000
0000
0000
0000
0000
0000
,
2000
0000
0000
0000
0000
3001
0010
0000
0010
0001
0000
0001
,
1000
0000
1000
0010
0000
0010
0100
0000
0100
0001
0000
0001
,
0010
0000
0010
0100
0000
1000
0000
0000
0000
0010
0000
0100
,
0000
0000
0001
0010
0000
0010
0100
0000
0100
1000
0000
1000
,
0001
0000
0001
0100
0000
0010
0000
0000
0000
1000
0000
0001
,
1000
0000
0000
0100
0000
0010
0000
0000
0000
0001
0000
1000
,
0002
0203
0320
2030
,
3002
0000
2003
0000
,
3001
0000
0000
1001
,
1000
0000
1000
0001
0000
0001
0100
0000
0000
0010
0000
0000
,
0100
0000
0100
0010
0000
0010
1000
0000
1000
0001
0000
0001
,
0020
0230
2300
3002
,
0103
0110
1001
0000
,
1000
0100
1000
0100
0000
0000
0010
0001
0010
0001
0000
0000
,
1000
0000
0010
0000
0100
0000
0001
0000
0000
1000
0000
0000
,
2002
0000
0000
0000
,
0000
0000
3003
0000
;

//---------------dance-single - ----------------
#NOTES:
     dance-single:
     :
     Medium:
     9:
     0.373867,0.422742,0.257033,0.179144,0.303767,336.000000,303.000000,33.000000,23.000000,0.000000,0.000000,0.373867,0.422742,0.257033,0.179144,0.303767,336.000000,303.000000,33.000000,23.000000,0.000000,0.000000:
0000
0000
0000
0000
,
0000
0000
0000
0000
,
0000
0000
0000
0000
,
0000
0000
0000
0000
,
0000
0000
0000
0000
,
1000
0000
1000
0100
0000
0000
0010
0000
0000
0100
0000
0000
,
1000
0000
1000
0001
0000
0001
1000
0000
1000
0001
0000
0000
,
0020
0230
2300
3001
,
1001
0110
1001
0000
,
1000
0010
0100
0001
,
0010
0000
0000
0100
0000
1000
0000
0000
0000
0010
0000
0000
,
0100
0001
1000
0100
,
0010
0000
0000
0001
0000
0000
1000
0000
1002
0000
0000
0000
,
1003
0100
0010
0001
,
0100
0000
0000
0010
0000
1000
0000
0000
0000
0100
0000
0000
,
0010
0100
1000
0001
,
1001
0110
1001
0000
,
1000
1000
0001
0001
,
1000
0000
0010
0100
0000
0001
0000
0000
0000
1000
0000
0000
,
0001
0000
0001
1000
0000
1000
0100
0000
0000
0010
0000
0010
,
0001
0000
0000
1000
0000
0001
0000
0000
0000
0010
0000
0000
,
0001
0000
0100
0000
0010
0000
1000
0000
0000
0001
0000
0000
,
1000
0000
0100
0000
0010
0000
0001
0000
0000
1000
0000
0000
,
0001
0000
1000
0000
0001
0000
0100
0000
0010
0000
0100
0000
,
0001
0000
1000
0000
0000
0000
1000
0000
0010
0000
0000
0220
,
0000
0000
0330
0100
,
0001
0000
0000
1000
0000
1000
0100
0000
0000
0010
0000
0010
,
0001
0000
0000
0100
0000
0010
0000
0000
0000
1000
0000
0000
,
0001
0000
0000
0010
0000
0010
0100
0000
0000
1000
0000
1000
,
0010
0000
0000
0100
0000
0001
0000
0000
0000
1000
0000
0001
,
1000
0100
0010
0001
,
1000
0010
0100
0001
,
0010
0000
0000
0100
0000
1000
0000
0000
0001
1000
0000
0010
,
0000
0000
1000
0001
0000
0010
0000
0000
0001
1000
0000
1000
,
0001
0000
0000
0100
0000
0100
0010
0000
0000
1000
0000
1000
,
0001
0000
0000
0010
0000
0100
0000
0000
0000
1000
0000
0000
,
0001
0000
0000
0100
0000
0100
0001
0000
0000
0010
0000
0010
,
0100
0000
0000
1000
0000
0010
0000
0000
0000
1000
0000
0001
,
1000
0000
0000
0001
0000
0010
0000
0000
0000
0001
0000
1000
,
0001
1000
0010
0100
,
0002
0000
2003
0000
,
3001
0000
0000
1000
,
0001
0000
1001
0000
,
1000
0000
0100
0000
0010
0000
0001
0000
0000
0000
0000
0000
,
0100
0000
0110
0000
,
0001
0000
0010
0000
0100
0000
1000
0000
0000
0000
0000
0000
,
0001
0001
1001
0000
,
1000
0000
0010
0000
0100
0000
0001
0000
0000
0000
0000
0000
,
1000
0100
0010
0100
,
1000
0010
0100
0001
,
0020
0000
0230
0000
,
1300
0000
1000
0001
0000
0000
0001
0000
0001
1000
0000
0000
,
1000
0010
0200
0000
,
0302
0000
0023
0000
,
0130
1100
1000
1001
,
0001
0101
0100
0110
,
0001
0010
1000
0010
,
0001
0100
1000
0100
,
0001
0000
0001
0000
0001
0000
1000
0000
1000
0000
1000
0000
,
2002
0000
0000
3003
,
1001
0000
0000
0000
,
0000
0000
0000
0000
0000
0000
0000
0000
0110
0000
0000
0000
,
1001
0000
0000
0000
,
0000
0000
1100
0000
0000
0000
0000
0000
0011
0000
0000
0000
,
1001
0000
0000
0110
,
1001
0000
0000
0101
,
1010
0000
0000
0000
0000
1001
0000
0000
0000
0000
0000
0000
,
2000
0000
3000
0001
,
1000
0000
0000
0100
0000
0100
0010
0000
0000
0001
0000
0001
,
1000
0000
0000
0010
0000
0100
0000
0000
0000
0001
0000
0000
,
1000
0000
0000
0100
0000
0100
1000
0000
0000
0010
0000
0010
,
0100
0000
0000
0001
0000
0010
0000
0000
0000
0001
0000
1000
,
0001
0000
0000
1000
0000
0010
0000
0000
0000
1000
0000
0001
,
1000
0001
0010
0100
,
2000
0000
3002
0000
,
1003
0000
0000
0001
,
1000
0000
1000
0010
0000
0000
0100
0000
0000
0010
0000
0000
,
1000
0000
1000
0001
0000
0001
1000
0000
1000
0001
0000
0000
,
0200
0320
2030
3001
,
1001
0110
1001
0000
,
0011
0000
1010
0000
,
1000
0000
0001
0000
1000
0000
0001
0000
0000
0000
0000
0000
,
2002
0000
0000
0000
,
0000
0000
3003
0000
;

//---------------dance-single - ----------------
#NOTES:
     dance-single:
     :
     Easy:
     7:
     0.313781,0.390223,0.194722,0.171356,0.101256,282.000000,257.000000,25.000000,22.000000,0.000000,0.000000,0.313781,0.390223,0.194722,0.171356,0.101256,282.000000,257.000000,25.000000,22.000000,0.000000,0.000000:
0000
0000
0000
0000
,
0000
0000
0000
0000
,
0000
0000
0000
0000
,
0000
0000
0000
0000
,
0000
0000
0000
0000
,
1000
0010
1000
0001
,
0010
0100
0010
0001
,
2000
3020
0230
0301
,
1000
1001
0001
0000
,
1000
0001
0100
0010
,
0100
0001
0010
0100
,
1000
0010
0100
0010
,
1000
0000
0000
0001
0000
0000
1000
0000
0002
0000
0000
0000
,
1003
0100
0010
0100
,
1000
0001
0100
0010
,
1000
0001
0010
0100
,
1000
1001
0001
0000
,
1000
1000
0010
0010
,
0100
0001
0010
0000
,
0001
0001
0100
0100
,
0010
1000
0100
0000
,
1000
0000
0001
0000
1000
0000
0001
0000
0000
0000
0000
0000
,
0100
0000
0010
0000
0100
0000
0010
0000
0000
0000
0000
0000
,
1000
0000
0100
0000
1000
0000
0001
0000
0010
0000
0001
0000
,
1000
0000
1000
0000
0000
0000
0001
0000
0001
0000
0000
2002
,
0000
0000
3003
1000
,
0001
0100
0010
1000
,
0100
0010
0001
0100
,
0010
1000
0100
0010
,
0100
1000
0010
0100
,
0001
0001
1000
1000
,
0100
0010
0001
0100
,
0010
0000
0000
1000
0000
0000
0001
0000
0000
1000
0000
1000
,
0000
0000
0000
0001
0000
0001
0000
0000
0000
0010
0000
0000
,
0001
0100
0010
0100
,
0001
0010
0100
1000
,
0010
0100
0001
1000
,
0100
0010
0100
1000
,
0001
0000
0000
0001
0000
1000
0000
0000
0000
1000
0000
0000
,
0100
0010
0001
0100
,
0020
0000
2030
0000
,
3001
0000
0000
1000
,
1001
0000
0001
0000
,
1000
0000
1010
0000
,
0010
0000
0110
0000
,
0100
0000
0101
0000
,
0001
1000
1100
0000
,
0100
0000
0110
0000
,
0010
0001
1001
0000
,
1000
0010
0100
0001
,
2000
0000
3002
0000
,
0013
0010
0100
0100
,
1000
0010
0200
0000
,
0302
0000
2003
0000
,
3001
0100
1000
0100
,
0001
0010
1000
0010
,
0001
0001
0100
0100
,
0010
0010
1000
1000
,
0001
0000
1000
0000
0001
0000
1000
0000
0001
0000
1000
0000
,
0002
0000
0000
0003
,
1001
0000
0000
0000
,
0000
0000
0000
0000
0000
0000
0000
0000
0110
0000
0000
0000
,
1001
0000
0000
0000
,
0000
0000
0110
0000
0000
0000
0000
0000
1001
0000
0000
0000
,
0110
0000
0000
1001
,
0110
0000
0000
1001
,
0110
0000
0000
0000
0000
1001
0000
0000
0000
0000
0000
0000
,
0002
0000
1003
0001
,
1000
0100
0010
0100
,
1000
0010
0100
0001
,
0010
0100
1000
0001
,
0100
0010
0100
0001
,
1000
0000
0000
1000
0000
0001
0000
0000
0000
0001
0000
0000
,
0100
0010
1000
0100
,
0020
0000
0032
0000
,
1003
0000
0000
0001
,
1000
0100
1000
0001
,
0100
0010
0100
0001
,
2000
3200
0320
0031
,
1000
1001
0001
0000
,
1100
0000
0101
0000
,
0001
0000
1000
0000
0001
0000
0000
0000
0000
0000
0000
0000
,
2002
0000
0000
0000
,
0000
0000
3003
0000
;

//---------------dance-single - ----------------
#NOTES:
     dance-single:
     :
     Beginner:
     4:
     0.140200,0.195112,0.046733,0.023367,0.000000,126.000000,120.000000,6.000000,3.000000,0.000000,0.000000,0.140200,0.195112,0.046733,0.023367,0.000000,126.000000,120.000000,6.000000,3.000000,0.000000,0.000000:
// measure 0
0000
0000
0000
0000
,  // measure 1
0000
0000
0000
0000
,  // measure 2
0000
0000
0000
0000
,  // measure 3
0000
0000
0000
0000
,  // measure 4
0000
0000
0000
0000
,  // measure 5
1000
0000
1000
0000
,  // measure 6
0001
0000
0001
0000
,  // measure 7
1000
0000
0001
0000
,  // measure 8
1000
0001
1000
0000
,  // measure 9
0001
0000
0000
0000
,  // measure 10
0100
0000
0000
0000
,  // measure 11
0010
0000
0000
0000
,  // measure 12
1000
0000
0000
0000
,  // measure 13
0001
0000
0000
0000
,  // measure 14
0010
0000
0000
0000
,  // measure 15
0100
0000
0000
0000
,  // measure 16
1000
0001
1000
0000
,  // measure 17
0001
0000
0000
0000
,  // measure 18
1000
0000
0000
0000
,  // measure 19
0010
0000
0000
0000
,  // measure 20
0100
0000
0000
0000
,  // measure 21
0001
0000
0001
0000
,  // measure 22
1000
0000
1000
0000
,  // measure 23
0100
0000
0100
0000
,  // measure 24
0010
0000
0001
0000
,  // measure 25
1000
0000
0000
0000
,  // measure 26
0001
0000
0100
0000
,  // measure 27
0001
0000
0000
0000
,  // measure 28
1000
0000
0010
0000
,  // measure 29
1000
0000
0000
0000
,  // measure 30
0001
0000
0001
0000
,  // measure 31
1000
0000
1000
0000
,  // measure 32
0100
0000
0100
0000
,  // measure 33
0010
0000
0010
0000
,  // measure 34
0001
0000
0100
0000
,  // measure 35
0001
0000
0000
0000
,  // measure 36
1000
0000
0010
0000
,  // measure 37
1000
0000
0000
0000
,  // measure 38
0001
0000
0001
0000
,  // measure 39
1000
0000
1000
0000
,  // measure 40
0100
0000
0100
0000
,  // measure 41
0010
0000
0000
0000
,  // measure 42
0001
0000
0000
0000
,  // measure 43
1000
0000
0000
0000
,  // measure 44
0001
0000
0000
0000
,  // measure 45
1000
0000
0000
0000
,  // measure 46
0010
0000
0000
0000
,  // measure 47
0100
0000
0000
0000
,  // measure 48
0010
0000
0000
0000
,  // measure 49
1000
0000
0001
0000
,  // measure 50
1000
0000
1000
0000
,  // measure 51
0001
0000
0001
0000
,  // measure 52
0100
0000
0100
0000
,  // measure 53
0010
0000
0010
0000
,  // measure 54
1000
0000
1000
0000
,  // measure 55
0100
0000
0100
0000
,  // measure 56
0010
0000
0010
0000
,  // measure 57
0001
0000
0001
0000
,  // measure 58
1000
0000
0001
0000
,  // measure 59
1000
0000
0000
0000
,  // measure 60
1001
0000
0000
0000
,  // measure 61
0000
0000
0000
0000
,  // measure 62
0110
0000
0000
0000
,  // measure 63
0000
0000
0000
0000
,  // measure 64
1001
0000
0000
0000
,  // measure 65
0110
0000
0000
0000
,  // measure 66
1001
0000
0000
0000
,  // measure 67
0002
0000
0000
0003
,  // measure 68
1000
0000
0100
0000
,  // measure 69
1000
0000
0000
0000
,  // measure 70
0001
0000
0010
0000
,  // measure 71
0001
0000
0000
0000
,  // measure 72
1000
0000
1000
0000
,  // measure 73
0001
0000
0001
0000
,  // measure 74
0100
0000
0100
0000
,  // measure 75
0010
0000
0000
0000
,  // measure 76
1000
0000
1000
0000
,  // measure 77
0001
0000
0001
0000
,  // measure 78
1000
0000
0001
0000
,  // measure 79
1000
0001
1000
0000
,  // measure 80
0001
0000
0100
0000
,  // measure 81
0010
0000
1000
0000
,  // measure 82
2002
0000
0000
0000
,  // measure 83
0000
0000
3003
0000
;
