#TITLE:まるでマトリョーシカ;
#SUBTITLE:;
#ARTIST:seiya-murai feat. ALT;
#TITLETRANSLIT:Marude Matryoshka;
#SUBTITLETRANSLIT:;
#ARTISTTRANSLIT:;
#GENRE:TECHNO POP;
#CREDIT:;
#BANNER:Marude Matryoshka.png;
#BACKGROUND:Marude Matryoshka-bg.png;
#LYRICSPATH:;
#CDTITLE:cdtitle.png;
#MUSIC:Marude Matryoshka.ogg;
#OFFSET:-0.380000;
#SAMPLESTART:76.261002;
#SAMPLELENGTH:12.407000;
#SELECTABLE:YES;
#BPMS:0.000000=155.000000
;
#STOPS:
;
#BGCHANGES:;
#KEYSOUNDS:;
#ATTACKS:;

//---------------dance-single - ----------------
#NOTES:
     dance-single:
     :
     Hard:
     10:
     0.464971,0.524696,0.037411,0.757583,0.163675,348.000000,344.000000,4.000000,81.000000,0.000000,0.000000,0.464971,0.524696,0.037411,0.757583,0.163675,348.000000,344.000000,4.000000,81.000000,0.000000,0.000000:
// measure 0
0000
0000
0000
0000
,  // measure 1
0000
0000
0000
0000
,  // measure 2
0000
0000
0000
0000
,  // measure 3
0000
0000
0000
0000
0000
0000
0000
0000
0000
0000
0000
0000
0001
1000
0000
0000
,  // measure 4
0001
0000
1000
0010
0100
0000
0001
0010
,  // measure 5
0100
0000
1000
0100
0010
0000
0001
0100
,  // measure 6
0010
0000
0000
0000
1000
0000
0001
0000
0100
0000
0000
0000
0001
0000
0000
1000
,  // measure 7
0010
0000
1000
0000
0001
0000
0100
0000
0001
0010
0001
0000
1000
0001
1000
0000
,  // measure 8
0002
0000
1003
0100
0020
0000
0130
1000
,  // measure 9
0020
0230
0302
0023
,  // measure 10
0032
0000
1003
0100
0010
0100
2000
0000
,  // measure 11
3002
0000
0203
0000
0310
1000
0100
0010
,  // measure 12
0002
0000
0103
0001
0020
0000
0130
1000
,  // measure 13
0020
2030
3002
0203
,  // measure 14
0301
0000
0000
0010
0100
0000
1000
0000
0001
0000
0010
0000
0001
0000
0000
0000
,  // measure 15
1000
0100
0001
0100
1000
0000
1001
0000
,  // measure 16
0020
0000
0000
0000
1030
0000
0000
0100
2000
0000
0000
0000
3100
0000
0000
0010
,  // measure 17
0002
0000
0000
0000
0103
0000
0000
0001
0020
0000
0000
0000
0030
0000
0000
0000
,  // measure 18
0002
0000
0000
0000
1003
0000
0000
0010
2000
0000
0000
0000
3000
0000
0000
0000
,  // measure 19
0200
0000
0000
0000
0310
0000
0000
0001
0020
0000
0000
0000
0030
0000
0000
0000
,  // measure 20
0002
0000
0000
0000
1003
0000
0000
0100
0020
0000
0000
0000
0031
0000
0000
0100
,  // measure 21
0001
0000
0000
0000
1000
0000
0000
0010
0200
0000
0000
0000
0300
0000
0000
0000
,  // measure 22
0020
0000
0000
0000
1030
0000
0000
0100
0020
0000
0000
0000
0030
0000
0000
0000
,  // measure 23
0001
0000
0000
0000
1000
0000
0000
0001
1000
0000
0000
0000
0010
0000
0000
0000
,  // measure 24
1000
1000
0000
0100
0010
0001
0000
0000
,  // measure 25
0001
0001
0000
0100
0010
1000
0000
0000
,  // measure 26
2000
3200
0320
0032
,  // measure 27
0203
0000
0000
0310
1000
0100
0010
0001
,  // measure 28
0100
0100
0000
0001
1000
0100
0000
0000
,  // measure 29
0100
0100
0000
1000
0001
0010
0000
0000
,  // measure 30
0002
0203
0320
2030
,  // measure 31
3001
0000
0010
0000
0100
0000
1000
0000
0010
0000
0100
0000
0001
1000
0001
1000
,  // measure 32
0002
0000
0000
0000
0103
0000
0000
0010
0100
0000
0000
0000
0010
0000
0000
1000
,  // measure 33
0200
0000
0000
0000
0310
0000
0000
0001
2000
0000
0000
0000
3000
0000
0000
0000
,  // measure 34
0002
0000
0000
0000
1003
0000
0000
0100
0020
0000
0000
0000
0030
0000
0000
0000
,  // measure 35
0200
0000
0000
0000
1300
0000
0000
0001
2000
0000
0000
0000
3000
0000
0000
0000
,  // measure 36
0002
0000
0000
0000
0103
0000
0000
0010
2000
0000
0000
0000
3100
0000
0000
0010
,  // measure 37
0001
0000
0000
0000
0100
0000
0000
0001
0020
0000
0000
0000
0030
0000
0000
0000
,  // measure 38
0002
0000
0000
0000
0013
0000
0000
0100
2000
0000
0000
0000
3000
0000
0000
0000
,  // measure 39
0001
0000
0000
0000
1000
0000
0000
0001
1000
0000
0000
0000
0100
0000
0000
0000
,  // measure 40
1000
1000
0000
0010
0100
0001
0000
0000
,  // measure 41
0001
0001
0000
0010
0100
1000
0000
0000
,  // measure 42
0002
2003
3200
0320
,  // measure 43
0032
0000
0000
1003
0001
0100
0010
0100
,  // measure 44
0001
0001
0000
1000
0001
0100
0000
0010
,  // measure 45
1000
1000
0000
0001
1000
0100
0000
0000
,  // measure 46
0200
0320
0032
2003
,  // measure 47
3001
0100
0010
0100
1000
0100
0010
0100
,  // measure 48
0002
0000
0000
0000
0000
0000
0000
1003
0100
0000
0010
0000
0001
1000
0001
1000
,  // measure 49
0001
0000
0001
0010
0100
0000
0100
1000
,  // measure 50
0020
0230
0302
2003
,  // measure 51
3200
0000
1300
0010
0100
0010
1000
0000
,  // measure 52
0200
0000
0320
0000
0031
1000
0100
1000
,  // measure 53
0001
0000
0001
0100
0010
0000
0010
1000
,  // measure 54
0200
0320
0032
2003
,  // measure 55
3001
0000
0000
1000
0001
0000
0100
0000
0010
0000
1000
0000
0100
0000
0000
0000
,  // measure 56
0010
0000
0001
1000
0001
0000
1000
0000
0010
0000
0000
0000
0110
0000
0000
0000
,  // measure 57
1000
0000
1000
0100
0010
0000
0010
0001
,  // measure 58
0200
0320
2030
3002
,  // measure 59
1003
0000
0001
0100
0010
0100
0001
0000
,  // measure 60
0020
0000
0230
0000
1300
0001
0100
0001
,  // measure 61
1000
0000
1000
0010
0100
0000
0100
0001
,  // measure 62
0020
0230
2300
3002
,  // measure 63
1003
0000
0000
0001
1000
0000
0010
0000
0100
0000
0001
0000
0010
0000
0000
0000
,  // measure 64
0100
0000
1000
0001
1000
0000
0001
0000
0100
0000
0000
0000
0010
0000
1000
0001
,  // measure 65
1000
0001
0010
0000
0001
0000
1001
0000
,  // measure 66
0110
0000
0000
0000
;

//---------------dance-single - ----------------
#NOTES:
     dance-single:
     :
     Medium:
     8:
     0.374115,0.462967,0.037411,0.018706,0.000000,280.000000,276.000000,4.000000,2.000000,0.000000,0.000000,0.374115,0.462967,0.037411,0.018706,0.000000,280.000000,276.000000,4.000000,2.000000,0.000000,0.000000:
0000
0000
0000
0000
,
0000
0000
0000
0000
,
0000
0000
0000
0000
,
0000
0000
0000
0001
,
1000
0000
0001
0100
0001
0000
1000
0000
,
0001
0000
1000
0100
1000
0000
0001
0000
,
1000
0000
0001
0010
0001
0000
1000
0000
,
0001
0100
0001
0100
0010
0000
1000
0000
,
0100
0000
0010
0001
0100
0000
0010
1000
,
0100
1000
0001
1000
,
0010
0000
1000
0100
1000
0100
0010
0000
,
0001
0000
0100
0000
0020
0000
0000
0030
,
1000
0000
0100
0010
0001
0000
0100
0010
,
1000
0001
1000
0001
,
0010
0000
0001
1000
0010
1000
0100
0000
,
0010
0001
0100
1001
,
0001
0001
1000
1000
,
0100
0010
0001
0000
,
1000
1000
0010
0000
,
0010
0010
0100
0000
,
0001
0001
1000
1000
,
0100
0010
0001
0000
,
0100
0100
0010
0000
,
0010
0010
1000
0001
,
1000
0100
0000
1000
0001
1000
0000
0000
,
0001
0100
0000
0001
1000
0001
0000
0000
,
1000
0100
0010
0001
,
0100
0000
0010
0000
1000
0001
1000
0001
,
1000
0010
0000
1000
0001
1000
0000
0000
,
0001
0010
0000
0001
1000
0001
0000
0000
,
1000
0010
0100
0001
,
0010
0000
0100
0000
1000
0001
1000
0000
,
0010
0010
0100
0100
,
0010
1000
0100
0000
,
1000
1000
0001
0000
,
0001
0001
1000
0000
,
0100
0100
0010
0010
,
0001
0100
0010
0000
,
1000
1000
0001
0000
,
0001
0001
1000
0001
,
1000
0010
0000
0100
0001
0100
0000
0000
,
0001
0010
0000
0100
1000
0100
0000
0000
,
1000
0010
1000
0001
,
0010
0000
0000
0001
1000
0000
0010
0000
,
1000
0100
0000
0010
0001
0010
0000
0001
,
0100
0001
0000
1000
0001
1000
0000
0000
,
0001
0010
0100
1000
,
0010
0010
0100
0100
,
0002
0000
0000
0003
1000
0001
1000
0000
,
0001
0010
0100
0010
,
0001
0100
0010
1000
,
0100
0010
0001
0100
,
0010
0000
0100
0000
0001
1000
0001
1000
,
0100
0010
0100
1000
,
0010
0100
0001
0010
,
0100
0000
0100
0010
0001
0000
1000
0000
,
0001
0100
0001
0100
0010
0000
1001
0000
,
1000
0010
0100
0010
,
1000
0100
0010
0001
,
0100
0010
1000
0100
,
0010
0000
0100
0000
1000
0001
1000
0001
,
0100
0010
0100
0001
,
0010
0100
1000
0010
,
0100
0000
0100
0010
1000
0000
0001
0000
,
1000
0100
1000
0100
0010
0000
0001
0100
,
0001
0100
0010
0000
1000
0000
1001
0000
,
0110
0000
0000
0000
;

//---------------dance-single - ----------------
#NOTES:
     dance-single:
     :
     Easy:
     5:
     0.277914,0.370374,0.215116,0.000000,0.000000,208.000000,185.000000,23.000000,0.000000,0.000000,0.000000,0.277914,0.370374,0.215116,0.000000,0.000000,208.000000,185.000000,23.000000,0.000000,0.000000,0.000000:
0000
0000
0000
0000
,
0000
0000
0000
0000
,
0000
0000
0000
0000
,
0000
0000
0000
0000
,
0001
0000
1000
0000
,
0001
0000
1000
0000
,
0010
0000
0100
0000
,
0010
0010
0100
0100
,
0001
0010
0100
1000
,
0100
0010
0001
0000
,
1000
0010
0100
0001
,
0100
0010
1000
0000
,
0001
0010
0100
1000
,
0010
0100
0001
0000
,
1000
1000
0001
0001
,
1000
0100
0010
0000
,
0001
0000
1000
0000
,
0010
0000
0100
0000
,
0001
0000
1000
0000
,
0100
0000
0010
0000
,
0001
0000
0100
0000
,
0010
0000
1000
0000
,
0001
0000
0010
0000
,
0100
0000
1000
0000
,
1001
0000
0110
0000
,
0110
0000
1001
0000
,
1000
0001
1000
0001
,
1000
0000
0001
0010
,
0110
0000
1001
0000
,
1001
0000
0110
0000
,
0001
1000
0001
1000
,
0001
0000
1000
0010
,
1000
0000
0001
0000
,
0010
0000
0100
0000
,
1000
0000
0001
0000
,
0100
0000
0010
0000
,
1000
0000
0100
0000
,
0010
0000
0001
0000
,
1000
0000
0010
0000
,
0100
0000
0001
0000
,
1001
0000
0110
0000
,
0110
0000
1001
0000
,
1000
0001
1000
0001
,
1000
0000
0001
0100
,
0110
0000
1001
0000
,
1001
0000
0110
0000
,
0001
1000
0001
1000
,
0100
0100
0010
0010
,
0001
0000
1000
1001
,
0001
0100
0010
1000
,
0001
0010
0100
1000
,
0010
0010
0100
0100
,
0001
1000
1001
0000
,
0001
0010
0100
1000
,
0001
0100
0010
1000
,
0100
0100
0010
0010
,
0001
1000
1001
0001
,
1000
0010
0100
0001
,
1000
0100
0010
0001
,
0100
0100
0010
0010
,
1000
0001
1001
0000
,
1000
0100
0010
0001
,
1000
0010
0100
0001
,
0010
0010
0100
0100
,
1000
0001
1001
1000
,
0001
1001
1000
0100
,
0110
0000
0000
0000
;

//---------------dance-single - ----------------
#NOTES:
     dance-single:
     :
     Beginner:
     3:
     0.138957,0.216051,0.074823,0.037411,0.000000,104.000000,96.000000,8.000000,4.000000,0.000000,0.000000,0.138957,0.216051,0.074823,0.037411,0.000000,104.000000,96.000000,8.000000,4.000000,0.000000,0.000000:
0000
0000
0000
0000
,
0000
0000
0000
0000
,
0000
0000
0000
0000
,
0000
0000
0000
0000
,
2000
0000
0000
3000
,
0002
0000
0000
0003
,
2000
0000
0000
3000
,
0002
0000
0000
0003
,
1000
0000
0001
0000
,
0100
0000
0010
0000
,
1000
0000
0001
0000
,
0010
0000
0100
0000
,
1000
0000
0010
0000
,
0100
0000
0001
0000
,
1000
0000
0100
0000
,
0010
0000
0001
0000
,
1000
0000
0000
0000
,
0010
0000
0000
0000
,
1000
0000
0000
0000
,
0010
0000
0000
0000
,
0100
0000
0000
0000
,
0001
0000
0000
0000
,
0100
0000
0000
0000
,
0001
0000
0000
0000
,
1001
0000
0000
0000
,
0110
0000
0000
0000
,
1000
0000
0001
0000
,
1000
0000
0000
0000
,
1001
0000
0000
0000
,
0110
0000
0000
0000
,
0001
0000
1000
0000
,
0001
0000
0000
0000
,
1000
0000
0000
0000
,
0100
0000
0000
0000
,
1000
0000
0000
0000
,
0100
0000
0000
0000
,
0010
0000
0000
0000
,
0001
0000
0000
0000
,
0010
0000
0000
0000
,
0001
0000
0000
0000
,
1001
0000
0000
0000
,
0110
0000
0000
0000
,
1000
0000
0001
0000
,
1000
0000
0000
0000
,
1001
0000
0000
0000
,
0110
0000
0000
0000
,
0001
0000
1000
0000
,
0001
0000
0001
0000
,
1000
0000
1000
0000
,
0001
0000
0001
0000
,
0100
0000
0100
0000
,
0010
0000
0010
0000
,
1000
0000
1000
0000
,
0001
0000
0001
0000
,
0010
0000
0010
0000
,
0100
0000
0100
0000
,
1000
0000
1000
0000
,
0001
0000
0001
0000
,
1000
0000
1000
0000
,
0010
0000
0010
0000
,
0100
0000
0100
0000
,
0001
0000
0001
0000
,
1000
0000
1000
0000
,
0100
0000
0100
0000
,
0010
0000
0010
0100
,
0000
0100
1000
0001
,
1000
0000
0000
0000
;
