#TITLE:ロプノールの商隊;
#SUBTITLE:;
#ARTIST:Akhuta;
#TITLETRANSLIT:Lop Nur no shoutai;
#SUBTITLETRANSLIT:;
#ARTISTTRANSLIT:;
#GENRE:FOLK METAL;
#CREDIT:;
#BANNER:Lop Nur no shoutai.png;
#BACKGROUND:Lop Nur no shoutai-bg.png;
#LYRICSPATH:;
#CDTITLE:cdtitle.png;
#MUSIC:Lop Nur no shoutai.ogg;
#OFFSET:-2.280000;
#SAMPLESTART:72.886108;
#SAMPLELENGTH:10.383221;
#SELECTABLE:YES;
#BPMS:0.000000=186.000000
;
#STOPS:
;
#BGCHANGES:;
#KEYSOUNDS:;
#ATTACKS:;

//---------------dance-single - ----------------
#NOTES:
     dance-single:
     :
     Challenge:
     15:
     0.786863,0.928980,0.276741,0.160688,0.517774,617.000000,586.000000,31.000000,18.000000,0.000000,0.000000,0.786863,0.928980,0.276741,0.160688,0.517774,617.000000,586.000000,31.000000,18.000000,0.000000,0.000000:
// measure 0
0000
0000
0000
0000
,  // measure 1
0000
0000
0000
0000
,  // measure 2
1000
0000
0000
0000
0100
0000
0000
0010
0000
0000
0001
0000
0000
0100
0000
0000
,  // measure 3
0001
0000
0010
0000
0100
0000
1000
0000
0001
0000
1000
0001
1000
0000
0000
0010
,  // measure 4
0000
0000
0100
0000
0000
0001
0000
0000
0010
0000
0100
0000
0010
0000
0001
0000
,  // measure 5
1000
0000
0000
1010
0000
0000
0011
0000
,  // measure 6
0000
0000
0000
0000
0000
0000
2002
0000
0000
0000
0000
0000
0000
0000
0000
0000
0000
0000
0000
0000
0000
3003
0000
0000
1000
0000
0000
0000
0000
0000
0000
0000
0100
0000
0000
0000
0000
0000
0000
0000
0010
0000
0000
0000
0000
0000
0000
0000
,  // measure 7
0100
0000
1000
0000
0010
0000
1000
0100
1000
0001
0100
0001
,  // measure 8
0020
0000
0000
0000
,  // measure 9
0000
0000
0000
0000
,  // measure 10
0230
0000
0000
0000
,  // measure 11
0000
0000
0000
0000
0300
0000
1000
0001
1000
0000
0100
0000
0010
0000
0001
0000
,  // measure 12
0100
0010
0100
0000
0001
0000
1000
0100
1000
0000
0001
0000
0010
0100
0010
0000
,  // measure 13
0001
0000
1000
0010
1000
0000
0001
0000
1000
0000
0100
0000
0001
0000
0100
0000
,  // measure 14
1000
0010
1000
0000
0001
0000
0010
0100
0010
0000
0001
0000
0100
0010
0100
0000
,  // measure 15
0010
0000
1000
0001
1000
0000
0001
0000
0010
0000
0100
0000
0001
0000
0100
0000
,  // measure 16
2000
0000
0000
3000
,  // measure 17
1001
0000
0000
0000
0000
0000
0001
0100
0001
0000
0000
0000
0010
0000
0000
0000
,  // measure 18
0100
1000
0100
0010
0001
0000
0100
0000
,  // measure 19
0110
0000
0000
0000
0000
0000
0010
1000
0010
0000
0000
0000
1000
0000
0000
0000
,  // measure 20
0100
0010
0100
0001
0100
0010
0100
1000
,  // measure 21
0001
0000
0000
0000
0000
0000
0100
0010
0100
0000
0000
0000
0001
0000
0000
0000
,  // measure 22
1000
0100
0010
0001
0100
0000
0010
0000
,  // measure 23
1000
0000
0001
0010
0000
0010
0100
1000
,  // measure 24
0001
0100
0010
0100
1000
0100
0010
0100
,  // measure 25
0001
0000
0000
0000
1000
0000
0100
0010
0100
0000
1000
0000
0001
0000
0000
0000
,  // measure 26
1000
0010
0001
0010
0100
0001
0010
0000
,  // measure 27
0001
0000
0000
0000
1000
0000
0010
0100
0010
0000
1000
0000
0001
0000
0000
0000
,  // measure 28
1000
0100
0001
0100
0010
0001
0100
1000
,  // measure 29
0100
0000
0000
0000
0010
0000
1000
0001
1000
0000
0001
0000
0010
0000
0000
0000
,  // measure 30
0001
1000
0100
1000
0001
0010
0100
0000
,  // measure 31
1000
0000
0010
0100
0010
0000
0100
0000
0001
0000
0010
0000
1000
0000
0010
0000
,  // measure 32
0001
0100
0010
1000
0100
0000
0010
0000
,  // measure 33
2002
0000
0000
0000
0000
0000
3003
0000
0110
0000
0010
1000
0010
0000
1000
0000
,  // measure 34
0000
0000
0100
0010
0100
0000
0000
0000
0011
0000
0000
0000
0001
0100
0001
0000
,  // measure 35
0000
0000
1000
0000
0000
0000
0100
0010
0100
0000
0000
0000
1000
0001
1000
0000
,  // measure 36
0020
0000
0000
0000
0130
0000
0000
0010
0000
0000
1000
0000
0000
0100
0000
0000
,  // measure 37
0220
0000
0000
0000
0000
0000
0330
0000
1001
0000
1000
0010
1000
0000
0001
0000
,  // measure 38
0000
0000
0010
0100
0010
0000
0000
0000
0011
0000
0000
0000
0001
1000
0001
0000
,  // measure 39
0000
0000
1000
0000
0000
0000
0010
0100
0010
0000
0000
0000
1000
0100
1000
0000
,  // measure 40
0002
0000
0000
0000
0103
0000
0000
0010
0000
0000
1000
0000
0000
0001
0000
0000
,  // measure 41
1002
0000
0000
0000
0013
0100
0010
0000
0001
0000
0000
1000
0000
0000
1010
0000
,  // measure 42
0000
0011
0000
0000
0101
0000
0000
1100
0000
0000
1001
0000
0000
0000
0000
0000
,  // measure 43
1000
0000
0010
0000
0100
0000
0010
0000
1000
0000
0100
0010
0100
0000
0010
0000
,  // measure 44
0001
0100
0010
1000
0000
1000
0100
0010
,  // measure 45
0001
0000
0100
0010
0100
0000
0010
0000
1000
0000
0100
0000
0010
0000
0100
0000
,  // measure 46
1000
0000
0001
0000
0100
0000
0010
0000
0000
0000
0010
0000
1000
0000
0100
0010
,  // measure 47
0100
0000
1000
0000
0010
0000
0001
0000
0010
0000
1000
0001
1000
0000
0001
0000
,  // measure 48
0010
0100
1000
0010
0000
0010
0100
0001
,  // measure 49
1000
0000
0100
0010
0100
0000
1000
0000
0001
0000
0100
0000
1000
0000
0100
0000
,  // measure 50
0001
0010
0100
1000
0000
1000
0001
0000
,  // measure 51
1000
0010
0100
0010
1000
0000
0000
0000
0001
0010
0100
0010
0001
0000
0000
0000
,  // measure 52
1000
0010
1000
0010
0100
0000
0001
0000
0020
0000
0000
0000
0030
0000
0000
0000
,  // measure 53
0001
0100
1000
0100
,  // measure 54
0001
0000
0000
0000
1000
0000
0100
0000
0010
0000
0000
0000
0001
1000
0001
1000
,  // measure 55
0001
0000
0100
0010
0100
0000
0010
0000
1000
0000
0100
0000
0001
0000
0100
0000
,  // measure 56
1000
0000
0010
0100
0000
0100
0001
0000
0010
0000
0000
0000
0100
0000
0000
0000
,  // measure 57
1000
0000
0001
0100
0001
0000
1000
0000
0100
0000
0010
0000
0001
0000
0100
0000
,  // measure 58
0010
0000
1000
0001
0000
0001
0010
0000
0100
0000
0000
0000
1000
0010
0100
0010
,  // measure 59
1000
0000
0100
0010
0100
0000
0010
0000
0001
0000
0100
0000
1000
0000
0100
0000
,  // measure 60
0001
0000
0010
0100
0000
0100
1000
0000
0010
0000
0000
0000
0100
0000
0000
0000
,  // measure 61
0001
0000
0000
0011
0000
0000
0010
0000
0100
0000
0000
1100
0000
0000
1000
0000
,  // measure 62
0010
0000
0000
0110
0000
0000
0100
0000
0001
0000
0000
0000
1000
0100
0010
0100
,  // measure 63
1000
0000
0010
0100
0010
0000
1000
0000
0001
0000
0010
0000
1000
0000
0010
0000
,  // measure 64
0001
0000
0100
0010
0000
0010
1000
0000
0100
0000
0000
0000
0010
0000
0000
0000
,  // measure 65
0001
0000
1000
0010
1000
0000
0001
0000
0010
0000
0100
0000
1000
0000
0010
0000
,  // measure 66
0100
0000
0001
1000
0000
1000
0100
0000
0010
0000
0000
0000
0001
0100
0010
0100
,  // measure 67
0001
0000
1000
0100
0010
0000
0100
0000
1000
0000
0010
0000
0001
0000
0010
0000
,  // measure 68
1000
0000
0100
0010
0000
0010
0001
0000
0100
0000
0010
1000
0000
1000
0100
0000
,  // measure 69
0110
0000
0010
0011
0000
0001
1000
0010
,  // measure 70
1000
0000
1100
0000
0101
0000
0011
0000
1010
0000
1001
0000
,  // measure 71
0002
0000
0000
0000
0000
0000
0000
0000
1003
0000
0000
1100
0000
0000
0100
0000
,  // measure 72
0010
0000
0001
0100
0001
0000
0010
0000
0100
0000
1000
0010
1000
0000
0100
0000
,  // measure 73
0010
0000
0001
0000
0100
0010
0100
0010
1000
0100
1000
0100
0010
0001
0010
0001
,  // measure 74
1000
0000
0001
0100
0001
0000
0010
0000
0200
0000
0000
0000
0000
0000
0000
0000
,  // measure 75
1300
0000
0001
0100
0001
0000
0010
0000
0001
0000
0100
0000
0010
0000
1000
0000
,  // measure 76
0100
0000
0010
0100
0010
0000
0001
0000
1000
0000
0010
0100
0010
0000
1000
0000
,  // measure 77
0002
0000
0000
0000
1003
0000
0100
0000
0010
0000
0001
1000
0001
0000
0100
0000
,  // measure 78
0010
0000
1000
0100
1000
0000
0010
0000
0001
0000
0010
0000
1000
0000
0100
0000
,  // measure 79
0010
0100
0010
0000
0001
0000
1000
0010
1000
0000
0001
0000
0100
0010
0100
0000
,  // measure 80
0001
0000
1000
0100
1000
0000
0001
0000
1000
0000
0010
0000
0001
0000
0010
0000
,  // measure 81
1000
0100
1000
0000
0001
0000
0100
0010
0100
0000
0001
0000
0010
0100
0010
0000
,  // measure 82
0100
0000
1000
0001
1000
0000
0001
0000
0101
0000
0110
0000
2020
0000
0000
0000
,  // measure 83
0000
3030
0000
0000
;

//---------------dance-single - ----------------
#NOTES:
     dance-single:
     :
     Hard:
     13:
     0.652956,0.706025,0.187470,0.142834,0.200861,512.000000,491.000000,21.000000,16.000000,0.000000,0.000000,0.652956,0.706025,0.187470,0.142834,0.200861,512.000000,491.000000,21.000000,16.000000,0.000000,0.000000:
0000
0000
0000
0000
,
0000
0000
0000
0000
,
1000
0000
0000
0000
0100
0000
0000
0010
0000
0000
0100
0000
0000
1000
0000
0000
,
0001
0000
0100
0000
1000
0000
0100
0000
0010
0000
1000
0000
0100
0000
0000
0010
,
0000
0000
0001
0000
0000
0100
0000
0000
0001
0000
0010
0000
1000
0000
0010
0000
,
0110
0000
0000
1100
0000
0000
1010
0000
,
0000
0000
0000
2002
0000
0000
0000
0000
0000
3003
0000
0000
1000
0000
0000
0000
0100
0000
0000
0000
0010
0000
0000
0000
,
0001
0000
0100
0000
0010
0000
1000
0001
1000
0001
1000
0001
,
2000
0000
0000
0000
,
0000
0000
0000
0000
,
3020
0000
0000
0000
,
0000
0000
0030
1000
0001
0000
0000
0000
,
0010
0010
0000
0100
0100
0000
1000
1000
,
0000
0001
0001
0000
1000
0100
0001
0100
,
1000
1000
0010
0100
0100
0001
0010
0010
,
0100
1000
1000
0010
1000
0100
0010
0001
,
0200
0000
0000
0300
,
1001
0000
0000
0000
0000
0000
0001
0010
0001
0000
0000
0000
0100
0000
0000
0000
,
0010
1000
0100
0010
0001
0000
1000
0000
,
0010
0000
0000
0000
0000
0000
1000
0100
1000
0000
0000
0000
0010
0000
0000
0000
,
0100
0001
0010
0100
1000
0010
0001
0010
,
1000
0000
0000
0000
0000
0000
0001
0100
0001
0000
0000
0000
0010
0000
0000
0000
,
0100
1000
0010
0100
0001
0000
1000
0000
,
0100
0000
1000
0010
0000
0010
0100
0001
,
1000
0100
0010
0100
0001
0100
0010
0100
,
1000
0000
0001
0100
0000
0100
0010
0000
,
1000
0100
1000
0010
0000
0010
0100
0000
,
0001
0000
0010
0100
0000
0100
1000
0000
,
0001
0100
0001
0010
0000
0010
0100
0000
,
1000
0000
0001
0100
0000
0100
0010
0000
,
1000
0100
0010
0001
0000
0001
0100
0000
,
0001
0000
1000
0100
1000
0000
0001
0000
,
1000
0010
0001
0010
1000
0000
0100
0000
,
0220
0000
0000
0330
0001
1000
1000
0010
,
0000
0100
0100
0000
1001
0000
1000
0100
,
0000
0010
0000
0001
0001
0000
1000
0010
,
0200
0000
0000
0000
0301
0000
0000
0010
0000
0000
0001
0000
0000
1000
0000
0000
,
2020
0000
0000
3030
0010
0100
0100
0001
,
0000
0010
0010
0000
1001
0000
0001
1000
,
0000
0010
0000
0100
0100
0000
0010
0010
,
2000
0000
0000
0000
3100
0000
0000
0010
0000
0000
0001
0000
0000
0100
0000
0000
,
0001
0000
0000
0000
0010
0000
0010
0000
0100
0000
0000
1000
0000
0000
1010
0000
,
0000
0011
0000
0000
0101
0000
0000
1100
0000
0000
1001
0000
0000
0000
0000
0000
,
1000
0100
0010
0100
1000
0010
0100
0001
,
0010
0100
1000
0001
0000
1000
0100
0010
,
0001
0100
0010
0100
0001
0010
0100
1000
,
0010
0100
0001
1000
0000
0100
0010
0001
,
1000
0010
0100
0010
1000
0100
0001
0100
,
1000
0010
1000
0100
0000
0010
0001
0100
,
0001
0010
0100
1000
0001
0100
1000
0100
,
0001
1000
0100
0010
0000
0001
1000
0000
,
0001
0100
0001
0100
0001
0000
0000
0000
1000
0100
1000
0100
1000
0000
0000
0000
,
0001
1000
0001
1000
0001
0000
1000
0000
0020
0000
0000
0000
0030
0000
0000
0000
,
1000
0100
0010
0001
,
0100
0000
0010
0100
0010
0000
1000
0001
,
1000
0100
0010
0100
1000
0001
0100
0010
,
1000
0000
0000
0100
0000
0000
0010
0000
0001
0000
0000
0000
0100
0000
0000
0000
,
0001
0010
0100
0010
0001
1000
0010
0100
,
0001
0000
0000
0010
0000
0000
0100
0000
1000
0000
0000
0000
0010
0000
0100
0000
,
0010
1000
0100
0010
0001
0100
0010
0100
,
0001
0000
0000
1000
0000
0000
0100
0000
1000
0000
0000
0000
0001
0000
0000
0000
,
1000
0000
0000
1010
0000
0000
0010
0000
0100
0000
0000
0101
0000
0000
0001
0000
,
0010
0000
0000
0110
0000
0000
0100
0000
1000
0000
0000
0000
0001
0000
1000
0000
,
0001
0100
0010
0100
0001
1000
0100
0010
,
0001
0000
0000
0100
0000
0000
0010
0000
1000
0000
0000
0000
0100
0000
0000
0000
,
1000
0010
0100
0010
1000
0001
0010
0100
,
1000
0000
0000
0010
0000
0000
0100
0000
0001
0000
0000
0000
0010
0000
0100
0000
,
0010
0001
1000
0010
0001
0010
0100
0001
,
1000
0000
0000
0100
0000
0000
1000
0000
0001
0000
0000
0100
0000
0000
0001
0000
,
0010
0000
0010
0100
0000
0100
1000
0001
,
1000
0000
1010
0000
1010
0000
0001
0000
0011
0000
0011
0000
,
2000
0000
0000
0000
0000
0000
0000
0000
3001
0000
0000
0001
0000
0000
0001
0000
,
1000
0100
0001
0100
1000
0010
0001
0010
,
1000
0100
0010
0001
0100
0010
1000
0001
,
0010
0100
1000
0010
0200
0000
0000
0000
,
0301
0010
0100
0010
0001
0010
1000
0010
,
0001
0100
0010
0100
0001
0100
1000
0100
,
0020
0000
0000
0000
1030
0000
0100
0000
0010
0000
0001
1000
0001
0000
0100
0000
,
0010
0000
1000
0001
1000
0000
0001
0000
0010
0000
0100
0000
1000
0000
0010
0000
,
0100
0100
0001
0010
0010
0100
1000
1000
,
0010
0100
0100
0010
1000
0100
0010
0001
,
1000
0010
0001
1000
0100
0001
1000
0010
,
0001
1000
0100
0001
1000
0100
0020
0000
,
0000
0030
0000
0000
;

//---------------dance-single - ----------------
#NOTES:
     dance-single:
     :
     Medium:
     9:
     0.499920,0.557388,0.178543,0.116053,0.075881,392.000000,372.000000,20.000000,13.000000,0.000000,0.000000,0.499920,0.557388,0.178543,0.116053,0.075881,392.000000,372.000000,20.000000,13.000000,0.000000,0.000000:
0000
0000
0000
0000
,
0000
0000
0000
0000
,
1000
1000
0001
0001
,
1000
0100
0001
0100
1000
0010
0100
0000
,
0100
0000
0001
0000
0001
0010
0100
1000
,
0001
0000
0000
0101
0000
0000
1000
0000
,
0000
0000
0000
1100
0000
0000
0000
0000
0000
0000
0000
0000
0001
0000
0000
0000
0010
0000
0000
0000
0100
0000
0000
0000
,
1000
0000
0100
0000
0010
0000
0002
0000
0000
2003
0000
0000
,
3002
0000
0000
0000
,
0000
0000
0000
0000
,
0203
0000
0000
0000
,
0000
0000
0310
0000
,
1000
0100
0000
0100
0010
0000
0010
0001
,
0000
0001
0100
0000
0001
1000
0001
1000
,
0001
0010
0000
0010
0100
0000
0100
1000
,
0000
1000
0010
0000
1000
0001
1000
0001
,
2000
0000
0000
3000
,
0001
0000
0000
0100
0000
0000
0010
0000
,
1000
0100
0000
1000
0000
0000
0010
0000
,
0100
0000
0000
0001
0000
0000
0010
0000
,
0001
0100
0001
0100
0000
0010
1000
0000
,
0100
0000
0000
0010
0000
0000
0001
0000
,
1000
0010
0000
0100
0000
0000
0001
0000
,
0010
0000
0000
0100
0000
0000
1000
0000
,
0010
0100
0010
0100
0001
1000
0100
0010
,
0001
0000
1000
0010
0000
1000
0010
0000
,
1000
0100
0010
0001
0000
0100
0001
0000
,
1000
0000
0001
0010
0000
0001
0010
0000
,
0001
0100
0010
1000
0000
0100
1000
0000
,
0001
0000
0100
0010
0000
0100
0010
0000
,
1000
0001
0010
0100
0000
1000
0010
0000
,
1000
0000
0001
0010
0001
0000
0100
0000
,
0010
0100
0010
0100
0001
0000
1000
0000
,
2002
3003
1100
0000
,
0101
0000
0110
0000
,
1001
0000
0011
0000
,
1010
0000
0110
0000
,
2002
3003
0101
0000
,
1100
0000
0110
0000
,
1001
0000
0011
0000
,
1010
0000
0110
0000
,
1001
0000
0000
0000
0110
0000
0000
0001
,
0000
0010
0000
0000
0100
0000
0000
1000
0000
0000
0001
0000
0000
0000
0000
0000
,
1000
0000
0010
0000
1000
0100
1000
0000
,
0001
0000
0100
0010
0000
0010
1000
0000
,
0001
0000
0010
0000
0001
0100
0001
0000
,
1000
0000
0100
0010
0000
0010
0001
0000
,
1000
0000
0001
0000
0100
0010
0100
0000
,
0001
0000
1000
0100
0000
0100
0010
0000
,
0001
0000
1000
0000
0010
0100
0010
0000
,
1000
0000
0001
0010
0000
0010
0100
0000
,
1000
0010
1000
0000
0001
0010
0001
0000
,
1000
0100
0010
0001
0200
0000
0300
0000
,
0001
0001
1000
1000
,
0001
0000
1000
0001
1000
0000
0000
0000
,
0001
0100
0001
0000
1000
0100
1000
0000
,
0001
0000
0000
0100
0000
0000
0010
0000
1000
0000
0000
0000
0001
0000
0000
0000
,
1000
0100
1000
0000
0001
0100
0001
0000
,
1000
0000
0000
0100
0000
0000
0010
0000
0001
0000
0000
0000
1000
0000
0000
0000
,
0010
0100
0010
0000
1000
0001
1000
0000
,
0001
0000
0000
0010
0000
0000
0100
0000
1000
0000
0000
0000
0010
0000
0000
0000
,
1000
0000
1000
0100
0001
0000
0001
0100
,
1000
0000
1000
0010
0100
0000
0001
0000
,
1000
0100
1000
0000
0001
0100
0001
0000
,
1000
0000
0000
0100
0000
0000
0010
0000
0001
0000
0000
0000
1000
0000
0000
0000
,
0001
0100
0001
0000
1000
0100
1000
0000
,
0001
0000
0000
0100
0000
0000
0010
0000
1000
0000
0000
0000
0001
0000
0000
0000
,
0010
0100
0010
0000
0001
1000
0001
0000
,
1000
0000
0000
0010
0000
0000
0100
0000
0001
0000
0000
0000
0010
0000
0000
0000
,
0001
0000
0001
1000
0000
1000
0001
0000
,
1000
0000
1000
0000
1000
0000
0010
0000
0010
0000
0010
0000
,
0200
0000
0000
0000
0000
0000
0000
0000
0301
0000
0000
0001
0000
0000
0001
0000
,
0010
0000
0100
0000
1000
0010
1000
0001
,
1000
0000
0100
0000
0010
0001
0010
0001
,
0100
0010
0100
0010
2000
0000
0000
0000
,
3001
0100
0001
0000
0100
0010
0100
0000
,
0010
1000
0010
0000
1000
0100
1000
0000
,
0010
0000
1000
0100
1000
0100
0010
0001
,
0100
0100
0010
0010
,
1000
0100
0000
0100
0010
0000
0010
0001
,
0000
0001
0100
0000
0001
1000
0001
1000
,
0001
0010
0000
0010
0100
0000
0100
1000
,
0000
1000
0010
0000
1000
0001
2000
0000
,
0000
3000
0000
0000
;

//---------------dance-single - ----------------
#NOTES:
     dance-single:
     :
     Easy:
     6:
     0.351984,0.371592,0.187470,0.080344,0.000000,276.000000,255.000000,21.000000,9.000000,0.000000,0.000000,0.351984,0.371592,0.187470,0.080344,0.000000,276.000000,255.000000,21.000000,9.000000,0.000000,0.000000:
0000
0000
0000
0000
,
0000
0000
0000
0000
,
1000
1000
0001
0001
,
1000
0100
1000
1000
,
0001
0001
1000
0010
,
1000
0000
0000
0001
0000
0000
1000
0000
,
0000
0001
0000
0000
1000
0000
0100
0000
,
0010
0001
0200
0320
,
2030
0000
0000
0000
,
0000
0000
0000
0000
,
3002
0000
0000
0000
,
0000
0000
1003
0000
,
0001
0000
0000
0100
0000
0000
0010
0000
,
0000
1000
0000
0000
0100
0000
0010
0000
,
0001
0100
0001
0100
,
0010
1000
0010
1000
,
0200
0000
0000
0300
,
1000
0000
0000
0001
0000
0000
1000
0000
,
0010
0000
0000
0100
0000
0000
0010
0000
,
1000
0000
0000
0001
0000
0000
1000
0000
,
0100
0000
0000
0010
0000
0000
0100
0000
,
1000
0000
0000
0010
0000
0000
1000
0000
,
0001
0000
0000
0010
0000
0000
0001
0000
,
1000
0000
0000
0100
0000
0000
1000
0000
,
0001
0000
0000
0100
0000
0000
0001
0000
,
1000
1000
0100
0010
,
0001
0100
0010
1000
,
0001
0001
0010
0100
,
1000
0010
0100
0001
,
1000
1000
0001
1000
,
0010
0100
0010
0100
,
0001
0001
1000
0001
,
2000
0000
0000
3001
,
1001
0000
1001
0000
,
0110
0000
0110
0000
,
1001
0000
1001
0000
,
0110
0000
0110
0000
,
1001
0000
0110
0000
,
1001
0000
0110
0000
,
1001
0000
0110
0000
,
1001
0000
0110
0000
,
1001
0000
0000
0000
1001
0000
0000
1000
,
0000
0000
0001
0000
0000
1000
0000
0000
,
0001
0010
0100
0010
,
0001
0100
0010
1000
,
0001
0010
0100
1000
,
0001
0100
0010
0100
,
0001
1000
0100
0010
,
0001
1000
0010
0100
,
0010
1000
0100
0010
,
0100
1000
0010
0100
,
1001
0000
0110
0000
,
1001
0001
2000
3000
,
0001
0000
1000
0000
,
0001
0000
0000
0000
,
1000
1000
0100
0010
,
0100
0100
1000
0010
,
0100
0100
0001
0010
,
0001
0001
0100
0010
,
1000
1000
0100
0010
,
0001
0001
0100
0010
,
1000
0000
0001
0000
,
1000
0000
0001
0000
,
1000
1000
0010
0100
,
0001
0001
0010
0100
,
0010
0010
0001
0100
,
0010
0010
1000
0100
,
1000
1000
0001
0100
,
0001
0001
1000
0100
,
0010
0000
0000
0001
0000
0000
1000
0000
,
0001
0000
1000
0000
,
0002
0000
1003
0000
,
1000
0100
0010
0001
,
0100
0100
0010
0010
,
1000
0001
1000
0000
,
0001
0010
0100
1000
,
0010
0100
0001
1000
,
0100
0010
0001
0100
,
0010
0010
1000
1000
,
0001
0000
0000
0010
0000
0000
0100
0000
,
0000
1000
0000
0000
0010
0000
0100
0000
,
0001
0010
0001
0010
,
0100
1000
0100
2000
,
0000
3000
0000
0000
;

//---------------dance-single - ----------------
#NOTES:
     dance-single:
     :
     Beginner:
     4:
     0.175992,0.222955,0.000000,0.053563,0.000000,138.000000,138.000000,0.000000,6.000000,0.000000,0.000000,0.175992,0.222955,0.000000,0.053563,0.000000,138.000000,138.000000,0.000000,6.000000,0.000000,0.000000:
0000
0000
0000
0000
,
0000
0000
0000
0000
,
1000
0000
0000
0000
,
0001
0000
1000
0000
,
0000
0000
0001
0000
,
0010
0000
0000
0100
,
0000
0000
2000
0000
,
3002
0000
0103
0000
,
0020
0000
0000
0000
,
0000
0000
0000
0030
,
2000
0000
0000
0000
,
0000
0000
3000
0000
,
0001
0000
0001
0000
,
1000
0000
1000
0000
,
0100
0000
0100
0000
,
0010
0000
0010
0000
,
0002
0000
0000
0003
,
1000
0000
0000
0000
,
0100
0000
0000
0000
,
0010
0000
0000
0000
,
0001
0000
0000
0000
,
0100
0000
0000
0000
,
0010
0000
0000
0000
,
1000
0000
0000
0000
,
0001
0000
0000
0000
,
1000
0000
1000
0000
,
0010
0000
0010
0000
,
1000
0000
1000
0000
,
0001
0000
0001
0000
,
0010
0000
0010
0000
,
0001
0000
0001
0000
,
0100
0000
0100
0000
,
0010
0000
0010
0000
,
1000
0000
0001
0000
,
1000
0000
0001
0000
,
0010
0000
0100
0000
,
0010
0000
0100
0000
,
1000
0000
0001
0000
,
1000
0000
0001
0000
,
0100
0000
0010
0000
,
0100
0000
0010
0000
,
1000
0000
0001
0000
,
0000
0000
0000
0000
,
1000
0000
0000
0000
,
0001
0000
0100
0000
,
0001
0000
0000
0000
,
1000
0000
0100
0000
,
1000
0000
0000
0000
,
0001
0000
0010
0000
,
0001
0000
0000
0000
,
1000
0000
0010
0000
,
1000
0000
0001
0000
,
1000
0001
1000
0000
,
0001
0000
0000
0000
,
1000
0000
0000
0000
,
0001
0000
0001
0000
,
1000
0000
1000
0000
,
0100
0000
0100
0000
,
0010
0000
0010
0000
,
0001
0000
0001
0000
,
1000
0000
1000
0000
,
0010
0000
0010
0000
,
0100
0000
0100
0000
,
0001
0000
0001
0000
,
0010
0000
0010
0000
,
0100
0000
0100
0000
,
1000
0000
1000
0000
,
0001
0000
0001
0000
,
0100
0000
0100
0000
,
0010
0000
0010
0000
,
1000
0000
1000
0000
,
0001
0000
1000
0000
,
1000
0000
0100
0000
,
0010
0000
0001
0000
,
0100
0000
0010
0000
,
1000
0000
0001
0000
,
0010
0000
0100
0000
,
1000
0000
0001
0000
,
0100
0000
0010
0000
,
1000
0000
1000
0000
,
0001
0000
0001
0000
,
0010
0000
0010
0000
,
0100
0000
0100
0200
,
0000
0300
0000
0000
;
