#TITLE:Leviathan;
#SUBTITLE:;
#ARTIST:NeLiME;
#TITLETRANSLIT:;
#SUBTITLETRANSLIT:;
#ARTISTTRANSLIT:;
#GENRE:HARD RENAISSANCE;
#CREDIT:;
#BANNER:Leviathan.png;
#BACKGROUND:Leviathan-bg.png;
#LYRICSPATH:;
#CDTITLE:cdtitle.png;
#MUSIC:Leviathan.ogg;
#OFFSET:-0.580000;
#SAMPLESTART:81.468300;
#SAMPLELENGTH:21.099873;
#SELECTABLE:YES;
#DISPLAYBPM:73.000000:185.000000;
#BPMS:0.000000=88.000000
,13.000000=86.000000
,13.500000=77.000000
,14.000000=75.000000
,14.500000=73.000000
,15.000000=32.444000
,15.333333=58.000000
,15.666667=66.667000
,16.000000=88.000000
,16.333334=93.333000
,16.666666=106.667000
,17.000000=120.000000
,17.333334=133.332993
,17.666666=153.332993
,18.333334=160.000000
,19.000000=166.667007
,19.333334=180.000000
,19.666666=193.332993
,20.000000=200.000000
,20.333334=213.332993
,21.000000=185.000000
,53.000000=92.500000
,57.000000=185.000000
,352.500000=92.500000
;
#STOPS:352.500000=0.162000
;
#BGCHANGES:;
#KEYSOUNDS:;
#ATTACKS:;

//---------------dance-single - ----------------
#NOTES:
     dance-single:
     :
     Challenge:
     16:
     0.839321,0.850749,0.392690,0.188793,0.589035,778.000000,726.000000,52.000000,25.000000,0.000000,0.000000,0.839321,0.850749,0.392690,0.188793,0.589035,778.000000,726.000000,52.000000,25.000000,0.000000,0.000000:
// measure 0
0000
0000
1000
0000
0001
0000
1000
0000
0001
0000
0000
0000
0000
0000
0010
0000
0100
0000
0000
0010
0000
0000
0001
0000
1000
0000
0000
0000
0000
0000
0010
0000
,  // measure 1
0000
0000
1000
0000
0100
0000
1000
0000
0001
0000
0000
0000
0100
0000
0000
0000
1000
0000
0000
0000
0100
0000
0000
0000
0001
0000
0000
0000
0000
0000
0010
0100
,  // measure 2
0010
0000
0001
0000
0100
0000
0010
0000
1000
0000
0000
0000
0000
0000
0000
0000
1001
0000
0000
0000
1000
0000
0100
0000
0010
0000
0000
0000
0000
0000
0100
0010
,  // measure 3
0100
1000
0010
0100
0001
0000
0010
0000
0001
0000
0100
0000
2002
0000
0000
0000
,  // measure 4
0000
0000
0000
0000
,  // measure 5
3003
0000
1000
0100
0010
0100
1000
0010
,  // measure 6
0100
0001
0010
0100
0010
0001
1000
0000
,  // measure 7
0010
0000
0000
0000
0000
0000
1000
0000
0000
0001
0000
0000
1000
0000
0000
0000
0000
0000
0000
0000
0100
0000
0000
0000
0000
0000
0000
0000
0001
0000
0000
0000
0000
0000
0000
0000
0100
0000
0000
0000
0000
0000
0000
0000
1000
0000
0000
0000
,  // measure 8
0000
0010
0000
0100
0001
0100
0001
0100
0001
0010
0100
0010
,  // measure 9
0100
0000
0000
0000
0010
0000
0000
0000
0100
0000
0000
0000
1000
0000
0000
0000
0000
0000
0000
0000
0000
0000
0000
0000
0001
0000
0000
0100
0000
0000
0001
0000
0000
0100
0000
0000
0010
0000
0000
0000
0000
0000
1000
0000
0000
0000
0000
0000
,  // measure 10
0100
0010
0000
0010
0100
0000
1000
0000
0010
0000
0001
0000
0010
0000
0000
0000
,  // measure 11
1000
0000
0001
0001
0010
0010
1000
1000
,  // measure 12
0010
0010
0001
0001
0100
0100
1000
1000
,  // measure 13
0100
0100
2002
0000
0000
0000
0000
0000
,  // measure 14
0000
3003
1000
0100
0010
0000
0010
0100
,  // measure 15
1000
0000
1000
0010
0001
0010
1000
0000
,  // measure 16
1001
0000
0001
0010
0100
0000
1000
0000
,  // measure 17
1001
0000
0000
0000
0001
0000
0100
0000
0010
1000
0010
1000
0100
0000
1000
0001
,  // measure 18
1000
0000
0001
0000
1001
0000
1000
0000
0100
0000
0010
0000
0001
0000
1000
0010
,  // measure 19
1000
0002
0000
0000
0013
0000
0100
1000
,  // measure 20
0001
0100
0001
0000
1000
0000
0000
0000
0100
0000
0000
0000
0010
0000
0100
0000
,  // measure 21
1000
0000
0002
0000
0000
0000
1003
0010
1000
0000
0100
0000
1000
0001
1000
0000
,  // measure 22
0010
0100
0001
0010
0100
0010
0001
0100
,  // measure 23
0010
1000
0100
0010
0100
1000
0010
0100
,  // measure 24
0001
1000
0001
0000
1000
0000
0100
0000
0010
0000
0001
0000
0100
0000
0010
0000
,  // measure 25
0100
0000
0001
0000
0010
0000
0100
0000
1000
0010
1000
0000
0100
0000
0010
0000
,  // measure 26
0100
0000
1000
1000
0010
0100
0010
0001
,  // measure 27
0010
0100
0001
0001
0010
0100
0010
1000
,  // measure 28
0010
0100
0010
0100
1000
0000
0000
0000
0001
0000
0101
0000
0000
0000
1000
0000
,  // measure 29
1100
0000
0000
0000
0100
0000
0110
0000
0000
0000
0010
0000
0001
0100
0001
0100
,  // measure 30
0010
1000
0010
1000
0100
0000
0000
0000
1000
0000
0001
0100
0001
0000
0000
1000
,  // measure 31
0100
0010
0002
0000
1003
0010
0000
0010
,  // measure 32
0100
0000
0000
0000
0001
0000
0000
0000
1001
0000
0000
0000
1000
0010
1000
0010
,  // measure 33
0100
0001
0100
0001
0010
0100
0010
0100
0010
0100
0010
0100
0010
0000
0001
0000
,  // measure 34
1000
0010
1000
0000
1001
0000
0001
0010
,  // measure 35
0000
0000
0110
0000
0000
0000
1000
0010
1000
0000
0100
0000
0001
0000
0100
0000
,  // measure 36
1000
0010
0100
0001
0010
0100
0000
1100
,  // measure 37
0000
0000
1000
0000
0010
0000
0001
0000
0010
0000
1000
0000
0001
0010
0001
0010
,  // measure 38
0100
1000
0100
1000
0001
0000
0000
0000
1000
0000
0010
0000
0100
0000
0001
0010
,  // measure 39
0001
1000
0001
0100
0010
0100
1000
0100
,  // measure 40
0010
0000
0100
0000
0001
0000
1000
0100
1000
0000
0010
0000
1000
0100
1000
0100
,  // measure 41
0010
0001
0010
0001
0100
0000
0001
0010
0001
0000
0000
0000
1000
0001
1000
0001
,  // measure 42
0100
0010
0100
0000
0001
0000
0010
0000
1000
0000
0010
0000
0001
0000
0000
0000
,  // measure 43
1000
0010
1000
0000
0100
0000
0010
0000
0100
0000
0001
0000
0100
0000
0000
1000
,  // measure 44
0000
0000
0010
0000
0100
0000
0100
0000
0001
0010
0001
0000
1000
0010
1000
0000
,  // measure 45
0001
1000
0001
0000
1001
0000
0000
0000
0000
0000
1000
0100
0020
0000
0000
0000
,  // measure 46
0000
0030
1001
0001
0000
0101
0100
0000
,  // measure 47
0110
0000
0010
0000
0000
0000
1010
0000
1000
0000
0000
0000
0001
1000
0001
1000
,  // measure 48
0001
1000
0001
1000
0001
0000
0001
0000
1000
0000
1010
0000
0010
0000
0100
0000
,  // measure 49
0101
0000
0001
0000
1000
0000
1100
0000
0100
0000
0010
0001
1000
0001
1000
0001
,  // measure 50
1000
0001
1000
0001
1000
0000
1000
0000
0000
0000
1010
0000
0010
0000
0000
0000
,  // measure 51
0110
0000
0100
0000
0000
0000
0101
0000
0001
0000
1000
0000
0001
1000
0001
1000
,  // measure 52
0001
1000
0001
1000
0001
0000
0001
0000
0010
0000
0110
0000
0100
0000
1000
0000
,  // measure 53
1010
0000
0010
0000
0100
0000
0101
0000
0001
0000
0000
0000
1000
0100
1000
0100
,  // measure 54
1000
0010
0100
0001
0020
0000
0000
0000
0000
0000
0000
0000
0000
0000
0000
0000
,  // measure 55
0000
0000
0000
0000
0031
0000
0001
0000
0001
0000
0001
0000
1000
0001
1000
0001
,  // measure 56
1000
0010
0100
0010
2000
0000
0000
0000
3001
0000
0010
0100
0010
0000
0001
0000
,  // measure 57
0100
0010
1000
0100
2000
0000
3001
0100
,  // measure 58
0010
0000
0100
0000
0002
0000
0000
0000
1003
0000
0100
0010
0100
0000
1000
0001
,  // measure 59
0000
0001
1000
0000
0200
0000
0000
0000
0010
0000
0000
0000
1300
0001
1000
0001
,  // measure 60
1000
0001
0020
0000
0100
0000
0031
0100
,  // measure 61
0010
1000
0010
0000
2000
0000
0000
0000
3100
0000
0001
0000
0200
0000
0000
0000
,  // measure 62
2300
0000
0000
0000
3010
0000
0010
0000
0100
0000
0001
0000
0010
0000
0001
1000
,  // measure 63
0001
1000
0020
0000
0230
0000
0301
0000
,  // measure 64
1000
0100
0010
0100
1000
0000
1000
0000
0010
0100
0010
0100
0001
0000
0010
0000
,  // measure 65
0100
1000
0010
0001
0020
0000
1030
0001
,  // measure 66
1000
0000
0100
0000
1000
0010
1000
0010
0100
0001
0100
0001
0010
0100
0010
0100
,  // measure 67
1000
0000
0001
0000
1000
0000
0000
1010
0000
0000
0011
0000
0000
0101
0000
0000
,  // measure 68
1100
1000
0002
0000
0100
0000
0010
0000
,  // measure 69
1003
0100
1000
0000
0020
0000
0000
0000
0130
0000
0001
1000
0002
0000
0000
0000
,  // measure 70
0013
0000
0100
0000
1000
0000
0010
0000
1000
0001
1000
0001
1000
0000
0100
0000
,  // measure 71
0010
0100
0010
0100
0010
0000
0001
0100
0001
0000
1000
0100
1000
0000
0001
0000
,  // measure 72
1000
0010
0100
0001
0010
0000
0000
0000
0001
0000
0101
0000
0000
0000
0100
0000
,  // measure 73
0110
0000
0010
1010
0000
1000
1100
0100
,  // measure 74
0110
0010
0011
0000
0001
1001
0000
1000
,  // measure 75
1010
0000
0000
0000
0010
0000
0110
0000
0000
0000
0100
0000
0101
0000
0001
0010
,  // measure 76
0100
1000
1001
0000
0001
0101
0000
0100
,  // measure 77
1100
0000
1000
1010
0000
0010
0011
0001
,  // measure 78
1001
1000
1001
0000
0001
0011
0000
0010
,  // measure 79
1010
0000
0000
0000
1000
0000
1100
0000
0000
0000
0100
0000
0001
1000
0001
1000
,  // measure 80
0001
0010
0100
1000
0001
0000
0100
0000
1000
0000
0100
0000
0001
0000
0010
0000
,  // measure 81
0100
1000
0010
0100
0010
1000
0100
0010
,  // measure 82
0001
1000
0001
0000
1000
0000
0010
0000
0100
0000
0001
0010
0001
0000
1000
0010
,  // measure 83
1000
0000
0001
0000
0100
0000
0010
0000
1000
0100
0010
0100
1000
0000
0001
0000
,  // measure 84
0100
0010
0100
0010
0100
0000
0001
0000
0010
0000
0100
0000
1000
0000
0001
0100
,  // measure 85
0001
0000
1000
0100
1000
0000
0010
0000
1000
0001
1000
0001
0010
0000
0100
0000
,  // measure 86
1000
0010
1000
0010
1000
0000
0100
0000
0001
0000
0100
0000
1000
0000
0010
0000
,  // measure 87
0001
0000
0010
0000
1000
0100
1000
0100
0010
0001
0010
0001
0100
0010
0100
0010
,  // measure 88
1000
0001
1000
0000
2002
0000
0000
0000
0000
0000
0000
0000
0000
0000
0000
0000
,  // measure 89
0000
0000
0000
0000
,  // measure 90
0000
3003
0000
0000
0000
0000
0000
0000
;

//---------------dance-single - ----------------
#NOTES:
     dance-single:
     :
     Hard:
     14:
     0.651606,0.782690,0.370035,0.249207,0.203897,604.000000,555.000000,49.000000,33.000000,0.000000,0.000000,0.651606,0.782690,0.370035,0.249207,0.203897,604.000000,555.000000,49.000000,33.000000,0.000000,0.000000:
0000
0000
0000
0000
0000
0000
0000
0000
0001
0000
0000
0000
0000
0000
1000
0000
0100
0000
0000
1000
0000
0000
0010
0000
0100
0000
0000
0000
0000
0000
0001
0000
,
0000
0010
0100
0010
0001
0000
0100
0000
1000
0000
0100
0000
0001
0000
0000
1000
,
0100
0010
0100
0010
0001
0000
0000
0000
1001
0000
1000
0010
1000
0000
0000
0001
,
0100
0010
0100
0010
1000
0000
0100
0000
0010
0000
0001
0000
2002
0000
0000
0000
,
0000
0000
0000
0000
,
3003
0000
1000
0010
0100
0010
1000
0100
,
0010
0001
0100
0010
0100
0001
0010
0000
,
0100
0000
0000
1000
0000
0000
0001
0000
0000
0000
0100
0000
0000
0000
0010
0000
0000
0000
0100
0000
0000
0000
0001
0000
,
0000
0010
0000
0200
0000
0000
0000
0000
0000
2300
0000
0000
,
0000
0000
0000
0000
3001
0000
0000
0000
1000
0100
1000
0000
0010
0000
0100
0000
,
0001
0010
0100
1000
0010
0100
0010
0000
,
1000
0000
0001
0001
0010
0010
0100
0100
,
1000
1000
0001
0001
0100
0100
0010
0010
,
1000
1000
2002
0000
0000
0000
0000
0000
,
0000
3003
0001
0010
0100
0000
0100
0010
,
0001
0000
0001
0100
1000
0100
0001
0000
,
1001
0000
1000
0100
0010
0000
0110
0000
,
1001
0000
0001
0100
0010
1000
0100
0000
,
1000
0001
1000
0010
0100
0010
0001
0010
,
0100
0002
0000
0000
1003
0000
0100
0010
,
0001
0100
0010
0000
0100
0000
0001
0010
,
0100
1000
0000
0010
0100
0010
1000
0100
,
1000
0001
1000
0000
0001
1000
0010
0001
,
0010
2000
0000
0000
3001
0010
0100
0010
,
0001
1000
0001
0000
1001
0000
0000
0000
1001
0000
0000
0000
1000
0000
0010
0000
,
0100
0000
0002
0000
0000
0000
1003
0000
0100
0010
0100
0000
1000
0000
0000
0000
,
0001
0000
1000
0010
1000
0010
0100
0001
,
0100
0001
1000
0100
1000
0100
0010
0001
,
0010
0001
0010
0001
0010
0000
0000
0000
0001
0000
1000
0000
0000
0000
1000
0000
,
0010
0000
0000
0000
0010
0000
0100
0000
0000
0000
0100
0000
0001
1000
0001
0000
,
1000
0000
0100
0000
0010
0000
0000
0000
0000
0000
0000
0001
1000
0000
0000
1000
,
0010
1000
0001
0000
0001
0010
0000
0010
,
0100
0000
1000
0000
1001
0000
0001
0010
,
0100
1000
0010
0001
0010
1000
0001
0010
,
0100
0010
0001
0000
1001
0000
1000
0010
,
0000
0000
0110
0000
0000
0000
0000
0100
0001
0000
0010
0000
0100
0000
0010
0000
,
0001
1000
0010
1000
0100
1000
0000
0001
,
0000
0100
0010
1000
0100
0010
0001
0100
,
0010
0100
0010
0000
1000
0100
0010
0100
,
1000
0001
0100
0010
0100
0010
1000
0100
,
0001
0100
1000
0010
0100
0001
0010
0100
,
0010
0100
1000
0001
1000
0000
0001
0100
,
1000
0100
0001
0010
0100
0010
0001
0000
,
1000
0000
0010
0000
0100
0000
0001
0000
0010
0000
0100
0000
1000
0000
0000
0010
,
0000
0000
1000
0000
0100
0000
0100
0000
0010
0001
0000
0000
0001
1000
0000
0000
,
1000
0010
0000
0000
0110
0000
0000
0000
0000
0000
1000
0000
0002
0000
0000
0000
,
0003
0000
1100
0000
0000
0101
0000
0000
,
0011
0000
0000
1010
0000
0000
1000
0001
,
1000
0001
1001
0000
1000
1100
0000
0001
,
0101
0000
1000
1001
0000
0000
0001
0010
,
1000
0010
0011
0000
0000
1010
0000
0000
,
1100
0000
0000
0101
0000
0000
0001
0010
,
0100
1000
0001
0011
0000
1000
1010
0000
,
0001
0101
0000
1000
1100
0000
1000
0100
,
0010
0001
0200
0000
0000
0000
0000
0000
,
0000
0000
0000
0000
0301
0000
0001
0000
0001
0000
0001
0000
1000
0001
1000
0001
,
1000
0100
0010
0100
2000
0000
0000
0000
0000
0000
3010
0100
0010
0000
0100
0000
,
0001
0010
1000
0010
0002
0000
0000
0103
,
0010
0000
1000
0000
0200
0000
0000
0000
0000
0000
1300
0001
1000
0000
0000
0010
,
0000
0000
0100
0000
0020
0000
0000
0000
0000
0000
0000
0000
1030
0001
1000
0001
,
1000
0010
2000
0000
0000
0000
3100
0010
,
0001
0100
0001
0000
0020
0000
0000
0000
0130
0000
1000
0000
0002
0000
0000
0000
,
0203
0000
0000
0000
0301
0000
0010
0000
1000
0000
0010
0000
0001
0000
0100
0010
,
0100
0010
2000
0000
3200
0000
0300
0000
,
1000
0010
0100
0010
1000
0000
1000
0000
0001
0100
0001
0100
0001
0000
0010
0000
,
0100
1000
0010
0100
0020
0000
0000
1030
,
0100
0010
0001
0100
1000
0100
0001
0010
,
1000
0000
0010
0000
0001
0000
0000
0101
0000
0000
1000
0000
0000
1100
0000
0000
,
0001
1000
2002
0000
0000
0000
3003
0000
,
1000
0100
0010
0000
0200
0000
0000
0000
0000
0000
1300
0010
2000
0000
0000
0000
,
3001
0010
0001
0100
1000
0001
0010
1000
,
0001
0100
0020
0000
0000
1030
0002
0000
,
0000
0000
1003
0000
0000
1100
0000
0000
,
0101
0000
0000
0011
0000
0000
1010
0000
,
0110
0000
1001
0000
0000
0011
0000
0000
,
1010
0000
0000
1100
0000
0000
0101
0001
,
0010
0100
1000
0000
0001
0101
0000
1000
,
1100
0000
0001
0011
0000
1000
0010
0100
,
0010
0001
0010
0000
1000
1100
0000
0001
,
0101
0000
1000
1010
0000
0001
0011
0010
,
0100
1000
0001
0000
1000
0001
0010
1000
,
0010
0002
0000
0000
1003
0010
0100
0010
,
1000
0001
1000
0000
0001
0000
0000
0000
1000
0000
0010
0100
0010
0000
0100
0010
,
0100
0000
0002
0000
0000
0000
1003
0000
0100
0010
0100
0010
0100
0000
0000
0000
,
1000
0000
0001
0100
1000
0100
0001
0010
,
0100
2000
0000
0000
3010
0000
1000
0100
,
0010
0001
1000
0010
1000
0010
0100
0001
,
0100
0001
0010
0100
0010
0100
1000
0001
,
1000
0001
2002
0000
0000
0000
0000
0000
,
0000
0000
0000
0000
,
0000
3003
0000
0000
0000
0000
0000
0000
;

//---------------dance-single - ----------------
#NOTES:
     dance-single:
     :
     Medium:
     11:
     0.507045,0.578510,0.264311,0.196345,0.011328,470.000000,435.000000,35.000000,26.000000,0.000000,0.000000,0.507045,0.578510,0.264311,0.196345,0.011328,470.000000,435.000000,35.000000,26.000000,0.000000,0.000000:
0000
0000
1001
0000
0000
1000
0100
0000
,
0000
0010
0001
0100
0010
0100
0001
0000
,
0010
0100
1000
0000
0001
1000
0010
0000
,
1000
0100
0010
0100
1000
0001
2002
0000
,
0000
0000
0000
0000
,
3003
1000
0100
1000
,
0010
0000
0100
0001
0100
0001
0010
0000
,
0100
1000
0002
0000
0000
0000
2003
0000
,
0000
3020
0000
0000
,
0000
0000
1030
0000
0100
0010
0001
0000
,
0100
0000
0010
0000
1000
0100
1000
0000
,
0001
0000
1000
0100
0010
0000
0001
0100
,
0010
0000
1000
0100
0010
0001
0100
0010
,
1000
0001
2000
0000
0000
0000
0000
0000
,
0000
0000
3001
0100
0001
0000
1000
0100
,
1000
0000
0001
0100
0010
1000
0100
0000
,
0010
0000
0001
1000
0010
0000
1000
0000
,
0001
0000
0010
0100
0010
0100
1000
0000
,
0001
0000
1001
1000
0100
0010
0100
1000
,
0001
0200
0000
0000
0310
0000
1000
0100
,
0010
0001
0100
0000
0100
0000
0010
1000
,
0010
1000
0000
0100
0010
0100
1000
0010
,
1000
0001
0100
0000
0100
0001
0010
0100
,
0010
0002
0000
0000
1003
0100
1000
0010
,
1000
0001
0010
0000
0010
0000
0100
1000
,
0100
2000
0000
0000
3001
1000
0001
0000
,
0100
0000
0010
1000
0010
0000
1000
0100
,
1000
0000
0001
0100
0001
0000
0010
0100
,
0010
0001
1000
0000
0000
1100
0000
0000
,
0101
0000
0000
0011
0000
0000
1001
0000
,
1000
0001
1000
0000
0000
0000
0010
0000
,
0100
0001
0100
0000
0001
0010
0000
0010
,
0100
1000
1000
0001
,
0100
0000
0020
0000
0000
0000
1030
0001
,
1000
0001
1000
0000
1001
0000
0001
0010
,
0000
1001
0000
1000
0000
0001
0100
0001
,
1000
0001
0010
0000
0100
1000
0000
0010
,
0000
1000
0100
1000
0010
1000
0001
0000
,
0100
0110
0010
1000
,
0100
0010
0100
1000
,
0001
0100
0010
1000
,
0100
0010
0001
0100
,
0010
0100
0001
0010
,
0001
1000
0100
0010
,
0001
0100
0100
0010
,
0010
0000
1000
0000
0000
0001
1000
0000
,
0000
0000
1100
0000
0000
1001
0000
0000
,
0101
0000
0000
1001
0000
0000
1000
0001
,
1000
0001
1000
0000
1000
0100
0000
0100
,
0010
0000
0010
0001
0000
0000
1000
0010
,
1000
0010
1010
0000
0000
1001
0000
0000
,
0011
0000
0000
1001
0000
0000
1000
0010
,
0100
0001
0010
0000
0010
0100
0000
0100
,
1000
0000
1000
0001
0000
0000
1000
0100
,
0010
0001
2000
0000
0000
0000
0000
0000
,
0000
0000
3001
0100
0001
0100
0010
0000
,
1000
0000
0002
0000
0000
0013
0100
0000
,
1000
0000
0010
1000
0002
0000
0000
1003
,
0100
0000
1000
0000
0020
0000
0000
0000
0000
0000
1030
0000
0100
0000
0000
0010
,
0000
0001
0200
0000
0000
0000
0310
1000
,
0100
1000
0002
0000
0000
0000
0103
0010
,
1000
0010
2000
0000
3100
0010
0002
0000
,
0203
0000
0301
0000
1000
0010
1000
0000
,
0001
0010
0100
0000
2000
0000
0000
0000
,
3001
0100
0001
0010
0100
1000
0001
0000
,
1000
0010
0100
0000
0020
0000
0000
1030
,
0100
1000
0001
0000
0001
0000
1000
0000
,
1000
0000
0000
0000
0001
0000
0000
0001
0000
0000
0100
0000
0000
0100
0000
0000
,
0010
1000
0002
0000
0000
0000
0000
0000
,
1003
0100
0010
0000
0100
1000
0001
0000
,
1000
0010
1000
0001
1001
0000
0001
1000
,
1001
0000
1000
0010
1000
0100
1000
0001
,
0100
0010
0100
0000
0000
0110
0000
0000
,
1010
0000
0000
1001
0000
0000
0011
0000
,
0110
0000
1100
0000
0000
1010
0000
0000
,
0110
0000
0000
0101
0000
0000
0001
1000
,
0001
1000
0001
0000
0001
0010
0000
0010
,
0100
0000
0100
1000
0000
1000
0010
0000
,
0110
0000
1001
0000
0000
1100
0000
0000
,
0101
0000
0000
0011
0000
0000
1000
0010
,
1000
0000
0001
0000
0001
0100
0010
1000
,
0100
0020
0000
0000
0031
0100
0001
0010
,
0001
1000
0100
0000
0100
0010
0001
0100
,
0010
2000
0000
0000
3001
0010
0100
0000
,
1000
0000
0001
0100
0001
0000
1000
0100
,
1000
0001
0000
0000
1000
0000
0010
0100
,
0010
0100
0001
0010
0001
0000
1000
0010
,
1000
0000
0001
0100
0001
0000
1000
0100
,
0010
0001
2002
0000
0000
0000
0000
0000
,
0000
0000
0000
0000
,
0000
3003
0000
0000
0000
0000
0000
0000
;

//---------------dance-single - ----------------
#NOTES:
     dance-single:
     :
     Easy:
     8:
     0.392690,0.408360,0.279414,0.075517,0.007552,364.000000,327.000000,37.000000,10.000000,0.000000,0.000000,0.392690,0.408360,0.279414,0.075517,0.007552,364.000000,327.000000,37.000000,10.000000,0.000000,0.000000:
0000
0000
0001
0000
0000
0001
1000
0000
,
0000
1000
0100
0000
0000
0100
0010
0000
,
0000
0010
0001
0000
1000
0001
1000
0000
,
0000
1000
0001
0100
0010
1000
0002
0000
,
0000
0000
0000
0000
,
0003
1000
0100
0010
,
0100
1000
0010
0100
,
0001
2000
0000
3002
,
0000
0023
0000
0000
,
0000
0130
1000
0001
,
0100
0001
1000
0100
,
0010
0001
0001
0100
,
0100
0010
0010
1000
,
1000
2002
0000
0000
,
3003
0001
0001
1000
,
1000
0001
0010
0100
,
1000
0001
0001
1000
,
1000
0010
0100
0001
,
1000
1001
0001
0010
,
0001
1000
0000
0000
0010
0000
1000
0100
,
1000
0010
0010
0100
,
0001
0010
0000
0000
0100
0000
1000
0001
,
1000
0000
0001
0000
0100
0000
0001
0010
,
0001
0000
1000
0000
0010
0000
1000
0100
,
1000
0000
0001
0000
1000
0000
0010
0100
,
0010
0000
1000
0000
0001
0000
0010
0100
,
0010
0001
0001
0100
,
0100
0010
0010
1000
,
1000
0001
1000
0000
0000
1010
0000
0000
,
1001
0000
0000
0011
0000
0000
1001
0000
,
0001
1000
0000
0100
,
0010
0001
0010
0000
0001
0100
0000
0100
,
0010
1000
1000
0100
,
0010
0000
0001
1000
0001
0000
0100
0000
,
0010
0000
1000
0000
1000
0000
0001
1000
,
0000
0010
0000
1000
0100
0000
1000
0000
,
0010
1000
0100
0010
,
0001
0000
0100
0000
0010
0000
1000
0001
,
1000
0001
1000
0000
0000
0000
0100
0000
,
0000
1000
0000
0010
,
0000
0100
0000
0001
,
0000
0010
0000
0100
,
0000
1000
0000
0001
,
0000
0100
0000
0001
,
0000
0010
0010
0100
,
0100
1000
0000
0001
,
0000
0000
1001
0000
0000
1100
0000
0000
,
1001
0000
0000
0101
0000
0000
0001
0000
,
1000
0000
1001
0000
0000
0011
0000
0000
,
1001
0000
0000
1010
0000
0000
1000
0000
,
0001
0000
1001
0000
0000
1010
0000
0000
,
1001
0000
0000
0011
0000
0000
1000
0000
,
0001
0000
1001
0000
0000
0011
0000
0000
,
1001
0000
0000
1010
0000
0000
1000
0000
,
0001
2002
0000
0000
,
3003
0000
0001
0000
0001
0000
0010
0100
,
1000
0000
0001
0000
0000
0100
0010
0000
,
1000
0000
0001
1000
0001
0000
0000
0010
,
0100
0000
1000
0000
0000
0010
0100
0000
,
0001
1000
0001
0000
0000
0000
1000
0010
,
1000
0000
0001
0000
0000
0000
0010
0100
,
1000
0010
0100
0010
,
1000
0001
0001
0010
,
0100
1000
0100
0000
1000
0000
0000
0000
,
0001
0000
0100
0000
0010
1000
0010
0000
,
1000
0000
0100
0000
0010
0000
0000
0100
,
1000
0000
0001
0100
0001
0000
1000
0100
,
1000
0000
0000
0000
0001
0000
0000
0001
0000
0000
1000
0000
0000
1000
0000
0000
,
0001
1000
0000
0000
,
0001
0100
0001
0000
0000
0010
0100
0000
,
1000
0001
1000
0000
0010
0000
0001
0000
,
0010
0000
1000
0000
0000
0100
0010
0000
,
0000
0000
0001
0000
0000
0101
0000
0000
,
1000
0000
0000
1100
0000
0000
0001
0000
,
1001
0000
1000
0000
0000
1010
0000
0000
,
0001
0000
0000
0011
0000
0000
1000
0000
,
1001
0000
0001
0000
0000
0011
0000
0000
,
1000
0000
0000
1010
0000
0000
0001
0000
,
1001
0000
1000
0000
0000
1100
0000
0000
,
0001
0000
0000
0101
0000
0000
1000
0001
,
1000
0100
0100
0010
,
0001
0100
0010
1000
,
0001
0010
0010
0100
,
1000
0010
0100
0001
,
1000
0000
1001
0000
0000
0000
0010
0100
,
0010
0110
0100
0001
,
1000
0100
0100
0010
,
0010
0001
0100
0010
,
1000
2002
0000
0000
,
0000
0000
0000
0000
,
0000
3003
0000
0000
0000
0000
0000
0000
;

//---------------dance-single - ----------------
#NOTES:
     dance-single:
     :
     Beginner:
     5:
     0.210370,0.272240,0.045310,0.067966,0.000000,195.000000,189.000000,6.000000,9.000000,0.000000,0.000000,0.210370,0.272240,0.045310,0.067966,0.000000,195.000000,189.000000,6.000000,9.000000,0.000000,0.000000:
0000
0001
0000
1000
,
0000
0010
0000
0100
,
0000
0001
0000
1000
,
0000
0100
0010
0002
,
0000
0000
0000
0000
,
0003
1000
0000
0000
,
0000
0000
0000
0000
,
0000
1001
0000
0000
,
0000
0002
0000
0203
,
0000
0310
0000
0000
,
0000
1000
0000
0000
,
0000
1001
0000
0000
,
0000
1001
0000
0010
,
0000
0220
0000
0000
,
0330
1000
0000
0001
,
0000
0100
0000
0010
,
0000
1000
0000
0001
,
0000
0010
0000
0100
,
0000
1000
0000
0010
,
0000
1000
0000
0001
,
0000
0010
0000
0001
,
0000
1000
0000
0001
,
0000
1000
0000
0100
,
0000
1000
0000
0001
,
0000
0100
0000
0001
,
0000
1000
0000
0001
,
0000
0100
0000
0010
,
0000
1000
0000
0001
,
0000
0000
0010
0000
0000
0100
0000
0000
,
0010
0000
0000
0100
0000
0000
1000
0000
,
0001
1000
0000
1000
,
0000
0010
0000
0010
,
0000
0100
0000
0100
,
0000
0001
0000
0001
,
0000
1000
0000
1000
,
0000
0100
0000
0100
,
0000
0010
0000
0010
,
0000
0001
0000
0001
,
1000
0001
0000
1000
,
0000
0100
0000
0000
,
0000
1000
0000
0001
,
0000
0100
0000
0000
,
0000
0001
0000
1000
,
0000
0010
0000
0000
,
0000
1000
0000
0001
,
0000
0010
0000
0100
,
0000
0000
1000
0000
0000
0001
0000
0000
,
1000
0000
0000
0001
0000
0000
1000
0000
,
0000
0000
0010
0000
0000
0100
0000
0000
,
0010
0000
0000
0100
0000
0000
0010
0000
,
0000
0000
1000
0000
0000
0001
0000
0000
,
1000
0000
0000
0001
0000
0000
1000
0000
,
0000
0000
0100
0000
0000
0010
0000
0000
,
0100
0000
0000
0010
0000
0000
0100
0000
,
0000
2002
0000
0000
,
3003
0000
0000
0000
,
0001
1000
0000
0001
,
0010
0001
0000
1000
,
0010
1000
0000
0001
,
0100
0001
0000
1000
,
0100
1000
0000
0010
,
0100
0010
0000
1000
,
0001
1000
0000
0100
,
0010
0100
0010
0000
,
0001
1000
0000
0001
,
0100
0001
0000
1000
,
0100
1000
0000
0001
,
0000
0000
1000
0000
0000
0001
0000
0000
,
1000
0001
0000
0000
,
1000
0010
0000
0100
,
0001
0100
0000
0001
,
0010
0001
0000
1000
,
0000
0000
0001
0000
0000
1000
0000
0000
,
0001
0000
0000
1000
0000
0000
0001
0000
,
0000
0000
0100
0000
0000
0010
0000
0000
,
0100
0000
0000
0010
0000
0000
0100
0000
,
0000
0000
0001
0000
0000
1000
0000
0000
,
0001
0000
0000
1000
0000
0000
0001
0000
,
0000
0000
0010
0000
0000
0100
0000
0000
,
0010
0000
0000
0100
0000
0000
0010
0000
,
0000
0001
0000
0001
,
0000
0100
0000
0100
,
0000
0010
0000
0010
,
0000
1000
0000
1000
,
0000
0001
0000
0001
,
0000
0010
0000
0010
,
0000
0100
0000
0100
,
0000
1000
0001
1000
,
0001
2002
0000
0000
,
0000
0000
0000
0000
,
0000
3003
0000
0000
0000
0000
0000
0000
;
