#VERSION:0.83;
#TITLE:Intro (S3RL PRESENTLY PRESENTS);
#SUBTITLE:;
#ARTIST:S3RL;
#TITLETRANSLIT:;
#SUBTITLETRANSLIT:;
#ARTISTTRANSLIT:;
#GENRE:UK HARDCORE;
#ORIGIN:;
#CREDIT:;
#BANNER:Intro (S3RL PRESENTLY PRESENTS).png;
#BACKGROUND:Intro (S3RL PRESENTLY PRESENTS)-bg.png;
#PREVIEWVID:;
#JACKET:Intro (S3RL PRESENTLY PRESENTS)-jacket.png;
#CDIMAGE:;
#DISCIMAGE:;
#LYRICSPATH:;
#CDTITLE:cdtitle.png;
#MUSIC:Intro (S3RL PRESENTLY PRESENTS).ogg;
#OFFSET:-0.560000;
#SAMPLESTART:100.677254;
#SAMPLELENGTH:11.014282;
#SELECTABLE:YES;
#DISPLAYBPM:175.000000;
#BPMS:0.000=175.000,
54.000=262.500,
55.500=175.000,
56.000=87.500,
58.000=175.000,
102.000=262.500,
106.750=175.000,
107.000=262.500,
107.375=87.500,
107.500=262.500,
107.875=87.500,
108.000=262.500,
108.375=87.500,
108.500=262.500,
108.875=87.500,
109.000=262.500,
109.375=87.500,
109.500=262.500,
109.875=87.500,
110.000=350.000,
113.000=175.000,
134.000=262.500,
138.000=175.000,
140.000=262.500,
143.500=175.000,
358.500=262.500,
359.000=175.000;
#STOPS:54.000=0.029,
54.250=0.029,
54.500=0.029,
54.750=0.029,
55.000=0.029,
55.250=0.029,
102.000=0.114,
103.000=0.114,
104.000=0.086,
104.750=0.086,
105.500=0.057,
106.000=0.029,
106.250=0.029,
106.500=0.029,
110.000=0.257,
111.500=0.257,
134.000=0.057,
134.500=0.057,
135.000=0.029,
135.250=0.029,
135.500=0.057,
136.000=0.057,
136.500=0.057,
137.000=0.029,
137.250=0.029,
137.500=0.057,
140.000=0.114,
141.000=0.114,
142.000=0.086,
142.750=0.086,
350.000=1.029,
358.500=0.029,
358.750=0.029;
#DELAYS:;
#WARPS:;
#TIMESIGNATURES:0.000=4=4;
#TICKCOUNTS:0.000=4;
#COMBOS:0.000=1;
#SPEEDS:0.000=1.000=0.000=0;
#SCROLLS:0.000=1.000,
302.500=0.750,
303.000=0.500,
303.500=0.250,
304.000=0.000,
305.000=1.000,
326.000=1.100,
330.000=1.200,
334.000=1.300,
338.000=1.400,
342.000=1.600,
346.000=1.700,
350.000=1.000;
#FAKES:;
#LABELS:0.000=Song Start;
#BGCHANGES:0.000=Intro (S3RL PRESENTLY PRESENTS).avi=1.000=0=0=0=StretchNoLoop==CrossFade_Fastest==,
99999=-nosongbg-=1.000=0=0=0 // don't automatically add -songbackground-
;
#KEYSOUNDS:;
#ATTACKS:
;

//---------------dance-single - ----------------
#NOTEDATA:;
#CHARTNAME:;
#STEPSTYPE:dance-single;
#DESCRIPTION:;
#CHARTSTYLE:;
#DIFFICULTY:Hard;
#METER:14;
#RADARVALUES:0.660044,0.788386,0.326688,0.160011,0.176678,693.000000,644.000000,49.000000,24.000000,4.000000,0.000000,1.000000,0.000000,0.000000,0.660044,0.788386,0.326688,0.160011,0.176678,693.000000,644.000000,49.000000,24.000000,4.000000,0.000000,1.000000,0.000000,0.000000;
#CREDIT:;
#NOTES:
// measure 0
0000
0000
0000
0000
,  // measure 1
0000
0000
0000
0000
,  // measure 2
0000
0000
0000
0000
,  // measure 3
0000
0000
0000
0000
,  // measure 4
0000
0000
0000
0000
,  // measure 5
0000
0000
0000
0000
,  // measure 6
0000
0000
0000
0000
0000
0000
0000
0000
0000
0000
0000
0000
0001
0000
1000
0001
,  // measure 7
1000
0100
0010
0100
1000
0010
0100
0001
,  // measure 8
0000
0010
0100
0010
0001
0100
1000
0100
,  // measure 9
0001
0010
0100
1000
0001
0100
0010
1000
,  // measure 10
0001
0001
0000
0000
1000
0100
0001
0100
,  // measure 11
1000
0001
0100
0001
0010
0000
0001
0100
,  // measure 12
0001
1000
0100
1000
0010
0100
0010
1000
,  // measure 13
0100
0000
0010
0000
0001
0000
0100
0000
0001
1000
0001
1000
0004
0000
0000
0000
,  // measure 14
0003
0000
1100
1010
,  // measure 15
0011
0000
0101
0000
0001
0010
0000
0110
,  // measure 16
0000
0100
1000
0000
0101
0000
0011
0000
,  // measure 17
1010
0000
1100
0000
1000
0010
0000
0110
,  // measure 18
0000
0000
0100
0000
0001
0000
1000
0000
0001
0000
1000
0100
1000
0000
0010
0000
,  // measure 19
0100
0000
0001
0000
0010
0000
0001
1000
0001
0000
0100
0000
0010
0000
1000
0001
,  // measure 20
1000
0100
0020
0000
0032
0000
0000
0000
,  // measure 21
0000
1003
0010
0100
0001
0010
0001
0010
,  // measure 22
0100
0000
1000
0000
0001
0000
0000
0000
1000
0000
0010
0100
0010
0000
1000
0000
,  // measure 23
0001
0000
0010
0100
0010
0000
0001
0000
1000
0000
0010
1000
0010
0000
0100
0000
,  // measure 24
0001
0000
0010
0001
0010
0000
0100
0000
1000
0000
0010
0100
0010
0000
0100
0000
,  // measure 25
0001
0000
0010
0100
0010
0000
0100
0000
1000
0000
0000
0000
1010
0000
0000
0000
,  // measure 26
0011
0000
0000
0101
0000
0000
1001
0000
2002
0000
0000
3003
1000
0000
0100
0000
,  // measure 27
0001
0100
1000
0010
0001
0000
0000
0011
,  // measure 28
0000
1010
2002
0000
,  // measure 29
3003
0000
0000
0000
1000
0100
0010
0001
,  // measure 30
1000
0010
1000
0010
0100
0001
0100
0001
0010
0000
0000
0000
0110
0000
0000
0000
,  // measure 31
0100
1000
0010
1000
0001
0000
0101
0000
,  // measure 32
0100
0010
1000
0000
0100
0000
0110
0000
,  // measure 33
0010
0000
0001
0000
1000
0000
0010
0000
1000
0000
1000
0000
0001
0010
0001
0000
,  // measure 34
0100
0000
0010
0000
1000
0001
1000
0000
0001
0000
0100
0000
1000
0000
0100
0000
,  // measure 35
0001
0000
0000
0000
0011
0000
0000
0000
0110
0000
0000
1100
0000
0000
1000
0000
,  // measure 36
0001
0000
0100
0000
0010
0000
1000
0001
2000
0000
0000
0000
0000
0000
0000
0000
,  // measure 37
0000
0000
0000
0000
,  // measure 38
3000
0000
0000
0000
1001
0001
1000
0000
,  // measure 39
0100
0000
0010
0000
0001
0000
0000
0000
0100
0000
0010
1000
0010
0000
0000
0000
,  // measure 40
2000
0000
0000
0000
3002
0000
0000
0000
0013
0000
0100
0000
1000
0000
0010
0100
,  // measure 41
0010
0000
0000
0000
0100
0000
0000
0001
0010
0000
0001
1000
0001
1000
0002
0000
,  // measure 42
0000
0000
1003
0000
0100
0010
0001
0000
,  // measure 43
0100
0000
0000
0000
0100
0000
0001
1000
0001
0000
0020
0000
0000
0000
0000
0000
,  // measure 44
0130
1000
0002
0003
,  // measure 45
1000
1000
2002
0000
,  // measure 46
3003
0000
0000
0000
0001
0100
0001
0100
0001
0000
0010
0000
0001
0000
1000
0000
,  // measure 47
0001
0100
0001
0010
0002
0000
0003
0000
,  // measure 48
0000
0000
0000
0000
1000
0010
1000
0010
1000
0000
0100
0000
1000
0000
0001
0000
,  // measure 49
1000
0010
1000
0100
2000
0000
3000
0000
,  // measure 50
0000
0000
0001
0000
1000
0100
0010
0001
,  // measure 51
1000
0010
0100
0001
1000
0100
0010
0100
,  // measure 52
0001
0100
0010
0100
1000
0010
0100
0010
,  // measure 53
0001
0010
0100
0010
2000
0000
3000
0000
,  // measure 54
0000
0000
0000
0000
0001
1000
0001
1000
0001
0000
0010
0000
0100
0000
0010
0000
,  // measure 55
0001
0010
1000
0010
0001
0000
0101
0000
,  // measure 56
1100
0000
0000
0000
1000
0001
1000
0001
1000
0000
0010
0000
0100
0000
0010
0000
,  // measure 57
1000
0010
0001
0010
1000
0000
1100
0000
,  // measure 58
0101
0000
0000
0000
0001
0000
1000
0001
1000
0000
0100
0000
0010
0000
0001
0000
,  // measure 59
1000
0010
0100
0001
1000
0100
0010
0100
,  // measure 60
0001
0100
0010
0100
1000
0010
0100
0010
,  // measure 61
0001
0010
0100
0010
2000
0000
3000
0000
,  // measure 62
0000
0000
0001
0001
1001
0000
1000
0010
,  // measure 63
0001
0000
1000
0000
0100
0000
0001
0000
1000
0000
0000
0000
0001
0000
0000
0010
,  // measure 64
0100
1000
0010
0100
0001
0000
1001
0000
,  // measure 65
1000
0100
0001
0100
1000
0000
0010
0100
,  // measure 66
0000
0100
0001
0010
0100
0000
1100
0000
,  // measure 67
1001
0000
0000
0000
1000
0000
0010
0000
0000
0000
0100
0001
0100
0000
0000
0000
,  // measure 68
0001
0010
0001
1000
0010
0000
0110
0000
,  // measure 69
1010
0000
0000
1000
0001
0000
0010
0000
0000
0000
0001
0000
0100
0000
0000
0000
,  // measure 70
0110
1010
2002
0000
,  // measure 71
3003
0000
0000
0000
0001
0000
1000
0100
,  // measure 72
0010
0000
0001
0000
1000
0001
1000
0001
1000
0000
0100
0000
0010
0000
1000
0000
,  // measure 73
0010
0001
0100
0001
1000
0100
1000
0001
,  // measure 74
0100
0010
0001
0010
1000
0100
0001
1000
,  // measure 75
0010
0001
0100
0001
2000
0000
0000
0000
,  // measure 76
3000
0000
0001
0101
,  // measure 77
0100
0000
0010
1000
0000
0100
0000
0000
1000
0000
0000
0000
1010
0000
0000
0000
,  // measure 78
0010
0000
0100
0000
0001
0010
0000
0000
0100
0000
1000
0000
0001
0000
0000
0000
,  // measure 79
0100
0000
0010
0100
0000
0001
0000
0000
1000
0000
0000
0000
1000
0000
0000
0000
,  // measure 80
0001
0000
0001
0000
1000
0100
1000
0100
,  // measure 81
0010
0001
0010
0001
1000
0010
1000
0010
,  // measure 82
0100
0001
0100
0001
0010
0100
0010
0100
,  // measure 83
1000
0001
1000
0001
0100
0010
0100
0010
,  // measure 84
1000
0001
1000
0001
1000
0100
0010
0001
,  // measure 85
1000
0010
0100
0001
0010
0100
1000
0001
,  // measure 86
0100
0010
1000
0100
0010
0001
0100
0010
,  // measure 87
1000
0001
0010
0100
1000
0000
0101
0000
,  // measure 88
1100
0000
1001
0001
1000
0010
0000
0100
,  // measure 89
0001
0000
0010
0000
1000
0000
0010
0000
0001
0000
1000
0010
1000
0000
0100
0000
,  // measure 90
0010
0100
1000
0010
0100
0001
0000
0010
,  // measure 91
0100
0000
0010
0000
0001
0000
1000
0000
0010
0000
0000
0000
1000
0000
0100
0010
,  // measure 92
0100
0000
1000
0001
1000
0000
0000
1010
0000
0000
0110
0000
0101
0000
0001
0010
,  // measure 93
0001
0000
0100
0010
0100
0000
0010
0000
1000
0000
0000
0000
0002
0000
0000
0000
,  // measure 94
0000
0003
1000
0100
0010
0001
1000
0010
,  // measure 95
1000
0010
0100
0001
0100
0000
0001
0000
,  // measure 96
0011
0000
1000
0001
1000
0000
0010
0000
,  // measure 97
0110
0000
0100
0001
0100
0000
0001
0010
,  // measure 98
0100
0000
1000
0001
1000
0000
0010
0000
0100
0000
0001
0000
1000
0000
0100
0000
,  // measure 99
0001
0100
1000
0010
0100
0010
1000
0100
,  // measure 100
0010
0001
1000
0010
1000
0001
0010
0001
,  // measure 101
1000
0001
1000
0100
0010
0100
1000
0010
,  // measure 102
0100
0001
0010
0100
0010
0001
0100
0010
,  // measure 103
1000
0001
1000
1000
0010
0010
0100
0100
,  // measure 104
0001
0001
2000
0000
0002
0000
0000
0000
,  // measure 105
0000
0000
0000
0000
0000
0000
0000
3003
,  // measure 106
0000
0000
0000
0000
,  // measure 107
0000
0000
MMMM
0000
;

//---------------dance-single - ----------------
#NOTEDATA:;
#CHARTNAME:;
#STEPSTYPE:dance-single;
#DESCRIPTION:;
#CHARTSTYLE:;
#DIFFICULTY:Medium;
#METER:10;
#RADARVALUES:0.452411,0.529410,0.186679,0.166678,0.006667,475.000000,447.000000,28.000000,25.000000,0.000000,0.000000,0.000000,0.000000,0.000000,0.452411,0.529410,0.186679,0.166678,0.006667,475.000000,447.000000,28.000000,25.000000,0.000000,0.000000,0.000000,0.000000,0.000000;
#CREDIT:;
#NOTES:
0000
0000
0000
0000
,
0000
0000
0000
0000
,
0000
0000
0000
0000
,
0000
0000
0000
0000
,
0000
0000
0000
0000
,
0000
0000
0000
0000
,
0000
0000
0000
0000
0000
0000
1000
0001
,
1000
0100
1000
0000
0010
0000
0100
0000
,
0001
0010
0001
0000
0100
0000
0010
0000
,
1000
0001
1000
0000
0100
0000
0010
0000
,
0001
0001
0000
0000
1000
0000
1001
0000
,
0001
0100
0001
0100
0001
0000
1000
0010
,
1000
0000
0100
0010
0100
0000
0010
0000
,
0001
1000
0001
1000
0002
0000
2003
0000
,
3100
0000
1000
1100
,
0001
0000
0101
0000
1000
0100
0000
0010
,
0000
0001
1000
0000
0001
0000
0101
0000
,
1000
0000
1100
0000
0001
0100
0000
0010
,
0000
1000
0001
0000
1000
0100
0010
0000
,
0010
0100
1000
0010
0100
0000
0100
0001
,
0000
0001
1000
0000
2002
0000
0000
0000
,
0000
0000
0000
0000
,
3003
0110
1000
1100
,
0010
0100
0010
0000
0100
0000
0101
0000
,
0001
0010
0001
0000
0010
0000
0110
0000
,
0100
1000
0100
0000
1000
0000
1000
0000
,
1000
0000
0000
0001
0000
0000
1000
0000
0002
0000
0000
0000
1003
0000
0000
0000
,
1100
0000
1001
0000
0101
0000
0000
1001
,
0000
1001
0002
0000
,
1003
0001
1000
0001
,
1000
0010
0100
0001
1000
0000
0100
0000
,
0010
0001
0010
0000
0001
0000
0100
0010
,
0000
0010
1000
0000
0001
0000
0010
0000
,
0100
1000
0100
0000
1000
0010
1000
0010
,
0100
0001
0100
0001
1000
0000
0100
0000
,
0010
0000
0000
0000
0010
0000
0000
0000
0100
0000
0000
0100
0000
0000
1000
0000
,
0001
1000
0001
1000
0002
0000
0000
0000
,
0000
0000
0000
0000
,
0003
0000
0000
0000
1000
0010
1000
0000
,
0001
1000
0001
0000
0010
0100
0010
0000
,
0002
0000
2003
0000
3010
0000
0100
0001
,
1000
0000
0100
0000
0010
0001
0020
0000
,
0000
0130
1000
0010
,
1000
0000
0001
0000
0010
0002
0000
0000
,
1003
0100
0020
0030
,
0001
0001
0002
0000
,
0000
0000
1003
1000
,
0010
0010
0200
0300
,
0000
0000
0001
1000
0001
0000
0001
0000
,
0010
0010
0200
0300
,
0000
0000
1000
0000
0001
0100
0001
0000
,
1000
0100
1000
0000
0001
0000
0100
0000
,
0010
1000
0010
1000
0001
0000
0010
0000
,
0100
1000
0100
1000
0002
0000
0003
0000
,
0000
0000
1000
0001
1000
0000
1000
0000
,
0100
0100
0020
0031
,
0100
0000
0001
0010
0001
0000
0001
0000
,
0100
0100
0020
1030
,
0100
0000
1000
0001
1000
0000
0010
0000
,
0100
0001
0100
0001
1000
0000
0100
0000
,
0010
0001
0010
0001
1000
0000
0010
0000
,
1000
0100
1000
0100
0020
0000
0030
0000
,
0000
0000
0001
1000
0001
0000
1000
0100
,
1000
0010
0000
0100
0001
0000
0010
0100
,
0010
0001
0000
1000
0010
0000
0110
0000
,
0100
0001
0000
0010
0100
0000
0100
1000
,
0000
1000
0001
0000
1000
0000
1010
0000
,
1001
0000
0001
0010
0000
0100
1000
0000
,
0001
1000
0001
0101
,
1001
0000
1000
0100
0000
0010
0001
0000
,
1000
0001
2000
0000
,
0000
0000
3001
0000
,
0000
0000
1000
0001
1000
0010
1000
0000
,
0001
0010
0001
0000
1000
0100
1000
0000
,
0001
0100
0001
0000
0010
0100
1000
0000
,
0010
0100
0001
0000
2000
0000
0000
0000
,
3000
0000
0001
0100
,
0010
1000
0010
0000
1000
0000
0100
0000
,
0010
0001
0010
0001
1000
0010
1000
0000
,
0010
0100
0010
0000
0100
0000
0001
0000
,
0020
0000
0130
0100
,
1000
1000
0010
0010
,
0100
0100
0001
0001
,
0010
0010
0100
0100
,
1000
1000
0001
0001
,
1000
1000
0010
0010
,
0100
0100
0001
0001
,
1000
0000
0001
1000
0001
0000
1000
0000
,
0010
0000
1000
0100
1000
0001
0000
0010
,
0100
0010
0000
0001
1000
0000
0001
0100
,
0001
0000
1000
0000
0100
0000
0010
0001
,
1000
0001
1000
0000
0010
0000
1100
0000
,
0110
0011
1001
1000
,
0010
0000
0100
0001
0100
0000
0002
0000
,
0000
1000
1000
1000
,
1000
1000
1003
1000
,
0001
0000
0100
0010
0100
0000
0001
0000
,
1000
0000
0100
0010
0100
0000
1000
0001
,
1000
0010
1000
0000
1100
0000
0001
0000
,
0101
0000
1000
0100
0010
0000
0001
0100
,
0010
1000
1010
0001
,
0011
0000
1000
0010
0100
0000
0001
0010
,
0100
0000
1000
0010
1000
0000
0001
0010
,
0100
0000
0010
0001
1000
0000
0010
0100
,
0010
2000
0002
0000
,
0000
0000
0000
0000
0000
0000
0000
3003
;

//---------------dance-single - ----------------
#NOTEDATA:;
#CHARTNAME:;
#STEPSTYPE:dance-single;
#DESCRIPTION:;
#CHARTSTYLE:;
#DIFFICULTY:Easy;
#METER:6;
#RADARVALUES:0.314307,0.352940,0.013334,0.113341,0.000000,330.000000,328.000000,2.000000,17.000000,0.000000,0.000000,0.000000,0.000000,0.000000,0.314307,0.352940,0.013334,0.113341,0.000000,330.000000,328.000000,2.000000,17.000000,0.000000,0.000000,0.000000,0.000000,0.000000;
#CREDIT:;
#NOTES:
0000
0000
0000
0000
,
0000
0000
0000
0000
,
0000
0000
0000
0000
,
0000
0000
0000
0000
,
0000
0000
0000
0000
,
0000
0000
0000
0000
,
0000
0000
0000
0000
,
1000
0001
1000
0001
,
0010
0100
0010
0100
,
1000
0010
1000
0010
,
1000
0001
0000
0000
0000
0000
0000
0000
,
1000
0100
0010
0100
,
1000
0010
1000
0001
,
0010
0001
2000
3002
,
2003
0000
3001
0010
,
0100
0000
1000
0000
0010
0100
0000
0001
,
0000
1000
0001
0000
1000
0000
0100
0000
,
0010
0000
0001
0000
0100
0010
0000
1000
,
0000
0001
1000
0000
0001
0000
0010
0000
,
0001
0100
0010
1000
,
0100
0010
0002
0000
,
0000
0000
0000
0000
,
0000
0003
1000
0010
,
1000
0100
0010
0001
,
0100
0001
1000
0100
,
0010
0001
1000
0010
,
0100
0000
0020
1030
,
1000
0000
1000
0000
1000
0000
0000
0001
,
0000
1000
0002
0000
,
0000
0000
0000
0000
,
0000
0000
1003
0100
,
0010
0001
0010
0100
,
1000
0010
0100
0001
,
0100
0010
1000
1000
,
0001
0001
1000
0001
,
1000
0001
0010
0000
,
0100
1000
2002
0000
,
0000
0000
0000
0000
,
3003
0000
1000
0100
,
0010
0000
0001
0000
,
1000
0000
0001
0100
,
0010
0000
1000
0001
,
1000
0000
0100
0010
,
0001
0000
1000
0000
,
0001
0000
1000
0000
,
0100
0100
0200
0000
,
0000
0000
0310
0001
,
0100
0010
1000
0000
,
0000
0001
0010
0100
,
1000
0010
0100
0000
,
0000
0001
1000
1000
,
0001
0001
0010
0010
,
0100
0100
1000
1000
,
0010
0100
0002
0003
,
0000
1000
0001
0010
,
0100
1000
0010
0100
,
0001
1000
0100
0010
,
0001
0100
0010
1000
,
0001
1000
0010
0010
,
0100
0100
0001
0001
,
0010
0010
0100
0100
,
1000
1000
0002
0000
,
0000
0003
1000
1000
,
0010
0100
0001
0001
,
0010
0100
1000
1000
,
0001
0100
0001
0001
,
1000
0100
1000
1000
,
1000
0010
0100
0001
,
0010
0100
0010
0010
,
0010
0001
0100
0010
,
1000
0001
2002
0000
,
0000
0000
0000
0000
,
0000
3003
1000
1000
,
0010
0010
0100
0100
,
0001
0001
0010
0010
,
0100
0100
2000
0000
,
3000
0000
0001
0100
,
0010
0100
0001
0010
,
0100
1000
0010
0100
,
0010
1000
0100
0010
,
0001
1000
0001
0001
,
0001
0001
0100
0100
,
0100
0100
0010
0010
,
0010
0010
1000
1000
,
1000
1000
0001
0001
,
0010
0010
0100
0100
,
1000
1000
0001
0001
,
1000
1000
0001
1000
,
0100
0010
0001
0100
,
0010
1000
0001
0010
,
0010
0100
1000
0010
,
0010
0100
0001
1000
,
1000
0001
0010
0001
,
0001
1000
0010
2000
,
0000
0000
0000
0000
,
0000
0000
3000
0001
,
1000
0001
1000
0010
,
0100
0010
0100
0001
,
1000
0001
0010
0100
,
1000
0001
0100
0010
,
1000
0001
0010
0100
,
0010
0001
1000
0010
,
0100
0010
1000
0100
,
0010
0001
0001
1000
,
1000
0002
2000
0000
,
0000
0000
0000
0000
0000
0000
0000
3003
;
