#VERSION:0.83;
#TITLE:I'm Screaming LOVE;
#SUBTITLE:;
#ARTIST:Creative Life;
#TITLETRANSLIT:;
#SUBTITLETRANSLIT:;
#ARTISTTRANSLIT:;
#GENRE:TECHNO POP;
#ORIGIN:;
#CREDIT:;
#BANNER:I'm Screaming LOVE.png;
#BACKGROUND:I'm Screaming LOVE-bg.png;
#PREVIEWVID:;
#JACKET:;
#CDIMAGE:;
#DISCIMAGE:;
#LYRICSPATH:;
#CDTITLE:cdtitle.png;
#MUSIC:I'm Screaming LOVE.ogg;
#OFFSET:-0.440000;
#SAMPLESTART:65.082001;
#SAMPLELENGTH:13.143000;
#SELECTABLE:YES;
#BPMS:0.000=147.000;
#STOPS:;
#DELAYS:;
#WARPS:;
#TIMESIGNATURES:0.000=4=4;
#TICKCOUNTS:0.000=4;
#COMBOS:0.000=1;
#SPEEDS:0.000=1.000=0.000=0;
#SCROLLS:0.000=1.000;
#FAKES:;
#LABELS:0.000=Song Start;
#BGCHANGES:;
#KEYSOUNDS:;
#ATTACKS:
;

//---------------dance-single - ----------------
#NOTEDATA:;
#CHARTNAME:;
#STEPSTYPE:dance-single;
#DESCRIPTION:;
#CHARTSTYLE:;
#DIFFICULTY:Hard;
#METER:12;
#RADARVALUES:0.536550,0.596219,0.096982,0.246864,0.211597,426.000000,415.000000,11.000000,28.000000,0.000000,0.000000,0.000000,0.000000,0.000000,0.536550,0.596219,0.096982,0.246864,0.211597,426.000000,415.000000,11.000000,28.000000,0.000000,0.000000,0.000000,0.000000,0.000000;
#CREDIT:;
#NOTES:
0000
0000
0000
0000
,
0000
0000
0000
0000
,
0000
0000
0000
0000
,
0000
0000
0000
0000
,
1000
0100
1000
0000
0001
0000
1000
0000
0001
0000
0010
0000
0001
0000
1000
0000
,
0000
0001
0010
0000
0001
0000
0100
0000
0010
0000
1000
0000
0100
0000
0010
0000
,
0001
0100
0001
0000
1000
0000
0001
0000
1000
0000
0010
0000
1000
0000
0001
0000
,
0000
1000
0010
0000
1000
0000
0100
0000
0010
0000
0001
0000
0100
0000
0010
0000
,
1000
0001
1000
0000
0100
0000
0010
0000
0100
0000
1000
0000
0001
0000
0100
0000
,
0000
0001
0010
0000
0001
0000
1000
0000
0100
0000
1000
0000
0010
0000
0100
0000
,
0001
1000
0001
0000
0100
0000
0010
0000
0100
0000
0001
0000
1000
0000
0100
0000
,
0000
1000
0010
0000
1000
0000
0001
0000
0100
0000
0001
0000
0010
0000
0100
1000
,
0100
0000
1000
0010
0000
1000
0001
1000
0001
0000
0010
0000
0100
0000
0020
0000
,
0000
0031
2000
0000
3000
0001
0100
0010
,
0000
0000
1000
0000
0100
0000
0010
0000
0001
0000
1000
0010
1000
0000
0002
0000
,
0000
0000
0000
0003
0000
1000
0001
0010
,
0001
0000
0100
0010
0100
0000
0010
0000
1000
0000
0001
0000
0010
0000
0200
0000
,
0000
0310
0002
0000
0000
0000
0003
0000
,
0000
1000
0001
1000
0100
1000
0010
2000
,
0000
0000
3100
0010
0200
0000
0000
0000
0000
0000
0000
0000
0310
0000
0001
0000
,
1001
0000
1000
0010
0000
0010
0210
0000
,
0000
0000
0300
0000
0000
0000
0001
0100
0001
0000
0000
1000
0000
0000
0001
0000
,
0020
0001
0100
1000
,
0130
0000
0001
0000
1000
0100
0010
0000
,
0001
0100
0010
0100
0001
1000
0100
0010
,
0200
0000
0000
0000
1300
0001
0001
0001
,
1000
0100
0010
0100
1000
0001
0100
0010
,
0200
0000
0301
1000
0010
0100
0100
0100
,
0001
0010
0100
1000
0001
0100
0010
1000
,
0002
0003
0000
0000
1000
0100
0100
0100
,
0010
0000
0001
0100
0000
0010
0000
1000
,
0000
0001
0100
1000
0100
0000
1001
0000
,
1000
0000
0100
0000
0010
0000
0100
0000
0001
0000
0100
0010
0000
0000
0000
0000
,
0001
0000
0100
0000
0010
0000
0100
0000
1000
0000
0100
0010
0000
0000
0000
0000
,
1000
0010
0001
0010
0100
0010
1000
0001
,
0000
1000
0100
0010
0000
0001
1000
0001
,
1000
0000
0010
0000
0100
0000
0010
0000
0001
0000
0010
0100
0000
0000
0000
0000
,
0001
0000
0010
0000
0100
0000
0010
0000
1000
0000
0010
0100
0000
0000
1000
0000
,
0001
0000
0001
0100
0000
0010
0000
1010
,
0000
1000
0100
0010
0001
1000
0001
2000
,
0000
3001
0100
0000
0110
0000
1000
0001
,
0000
0000
1000
0000
0100
0000
0010
0000
0001
0100
0000
0001
1000
0000
0200
0000
,
0000
0310
0001
0000
0110
0000
0001
0100
,
0000
0000
0001
0000
0010
0000
0100
0000
1000
0010
0000
1000
0000
0000
0001
0000
,
0100
0000
0001
0000
1000
0000
0010
0000
1000
0000
0001
0000
1000
0010
0000
0100
,
0001
0000
0010
0000
0100
0000
0010
0000
0001
0000
1000
0000
0010
0100
0000
0010
,
1000
0000
0001
0000
1000
0100
1000
0010
,
0000
1000
0002
0000
0103
0010
1000
0200
,
0000
0310
0001
0000
1010
0000
1000
0010
,
0000
0000
0100
0000
0001
0000
0010
0000
0001
1000
0000
0100
1000
0000
0020
0000
,
0000
0130
0001
0000
0011
0000
1000
0002
,
0000
0000
0203
0000
0000
0000
0310
0000
1000
0001
0000
0100
0001
0000
0020
0000
,
0000
0000
0030
0000
0000
0000
0100
0000
1000
0000
0001
0000
1000
0010
0000
0100
,
0010
0000
0100
0000
0001
0000
0010
0000
0100
0000
1000
0000
0010
0100
0000
0001
,
0100
0010
1000
0100
0010
0001
1000
0010
,
0000
1000
0200
0000
0320
0000
0031
1000
,
0001
0000
1000
0010
0000
1000
0100
1000
0100
0000
0010
0000
0001
0000
0200
0000
,
0000
0310
2000
0000
3000
0000
0001
1000
,
0010
0000
0110
0000
1000
0100
0001
0100
,
0000
1000
0020
0000
0000
0030
0000
0100
,
0001
0000
0010
0100
0000
0010
0100
0000
1000
0000
0010
0000
0100
0000
0001
0000
,
0010
0000
0100
0000
1000
0001
0000
1000
0001
0000
1000
0100
0000
1000
0010
0000
,
0000
0100
0001
0010
0100
0010
0001
1000
,
0000
0010
0200
0000
0000
0300
0001
1000
,
1010
0000
1000
0010
0000
0100
0102
0000
,
0000
0000
0000
0000
0003
0000
1000
0100
1000
0000
0000
0010
0000
0000
0100
0000
,
0020
0000
0000
0000
,
0000
0000
0000
0000
0000
0030
0000
0000
;

//---------------dance-single - ----------------
#NOTEDATA:;
#CHARTNAME:;
#STEPSTYPE:dance-single;
#DESCRIPTION:;
#CHARTSTYLE:;
#DIFFICULTY:Medium;
#METER:9;
#RADARVALUES:0.356441,0.388259,0.044083,0.141065,0.030858,283.000000,278.000000,5.000000,16.000000,0.000000,0.000000,0.000000,0.000000,0.000000,0.356441,0.388259,0.044083,0.141065,0.030858,283.000000,278.000000,5.000000,16.000000,0.000000,0.000000,0.000000,0.000000,0.000000;
#CREDIT:;
#NOTES:
0000
0000
0000
0000
,
0000
0000
0000
0000
,
0000
0000
0000
0000
,
0000
0000
0000
0000
,
1001
0000
0000
0000
1000
0000
0000
0001
,
1000
0000
0001
1000
,
1001
0000
0000
0000
0001
0000
0000
1000
,
0001
0000
1000
0001
,
1001
0000
0000
0000
1000
0000
0000
0001
,
1000
0000
0001
1000
,
1001
0000
0000
0000
0001
0000
0000
1000
,
0002
0000
0000
0000
1003
0010
1000
0000
,
0100
0000
0000
0010
0000
0000
0001
0000
0100
0000
0010
0000
0100
0000
0001
0000
,
0000
1000
0010
0000
0000
1000
0100
0010
,
0000
0001
0100
0001
1000
0000
0200
0000
,
0000
0000
0000
0000
0300
0010
0001
1000
,
0001
0000
1000
0000
0010
0100
0010
0100
,
0000
0001
2000
0000
0000
0000
3000
0000
,
0000
0100
0010
0100
0010
0001
1000
0001
,
0000
0100
0020
0000
0000
0000
1030
0001
,
1000
0000
0001
0010
0000
0010
0200
0000
,
0000
0000
0000
0000
0300
0000
1000
0000
0001
0000
0000
1000
0000
0000
0001
0000
,
1000
0010
1000
0001
,
0010
0100
0010
0001
,
1000
0010
1000
0010
0100
0000
0000
0000
,
0001
0000
0000
0000
1000
0001
0001
0001
,
1000
0100
1000
0100
0010
0000
0000
0000
,
0001
0000
0000
0000
1000
0001
0001
0001
,
1000
0010
0100
0010
1000
0000
0000
0000
,
0100
0000
0000
0000
0010
0100
0100
0100
,
1000
0000
0010
0100
0000
0001
0000
0010
,
0000
0001
1000
0001
1000
0000
0000
0000
,
0001
0100
1000
0100
,
0001
0010
1000
0010
,
0001
0100
0010
1000
,
0001
0010
0100
1000
,
0001
0100
0010
0100
,
0001
0010
0100
1000
,
0001
0000
1000
0000
0001
0000
1000
0001
,
0000
1000
0001
1000
0001
0000
1001
0000
,
1000
0010
0100
0001
,
0010
0000
0100
0000
1000
0001
1000
0000
,
0001
0100
0010
1000
,
0100
0000
0010
0000
0001
1000
0001
0000
,
1000
0000
0001
0000
0100
0010
0100
0000
,
0001
0000
1000
0000
0100
0010
0100
0000
,
1000
0010
0100
0001
,
0010
0200
2300
3002
,
1003
0100
0010
0001
,
0100
0000
0010
0000
1000
0001
1000
0000
,
0001
0010
0100
1000
,
0010
0000
0100
0000
0001
1000
0001
0000
,
1000
0000
0001
0000
0010
0100
0010
0000
,
0001
0000
1000
0000
0010
0100
0010
0000
,
1000
0100
0010
0001
,
0100
0002
0023
0230
,
1300
0000
0000
0010
0000
0000
1000
0000
0100
0000
1000
0000
0001
0000
1000
0000
,
0000
0001
0020
0000
0030
0000
0001
1000
,
0001
0000
0001
0000
1000
0010
1000
0010
,
0000
0100
0002
0000
0003
0000
0000
0010
,
0100
0000
0000
0100
0000
0000
0100
0000
1000
0000
0010
0000
1000
0000
0000
0000
,
0001
0000
0010
0000
0000
0100
0000
0000
1000
0000
0000
0010
0000
0000
0100
0000
,
0000
0001
1000
0001
1000
0000
0100
0010
,
0000
0010
0200
0000
0000
0000
1300
0001
,
1000
0000
0010
0100
0000
0100
0020
0000
,
0000
0000
0000
0000
0030
0000
1000
0000
0001
0000
0000
1000
0000
0000
0001
0000
,
2000
0000
0000
0000
,
0000
0000
0000
3000
;

//---------------dance-single - ----------------
#NOTEDATA:;
#CHARTNAME:;
#STEPSTYPE:dance-single;
#DESCRIPTION:;
#CHARTSTYLE:;
#DIFFICULTY:Easy;
#METER:6;
#RADARVALUES:0.260718,0.268795,0.000000,0.035266,0.000000,207.000000,207.000000,0.000000,4.000000,0.000000,0.000000,0.000000,0.000000,0.000000,0.260718,0.268795,0.000000,0.035266,0.000000,207.000000,207.000000,0.000000,4.000000,0.000000,0.000000,0.000000,0.000000,0.000000;
#CREDIT:;
#NOTES:
0000
0000
0000
0000
,
0000
0000
0000
0000
,
0000
0000
0000
0000
,
0000
0000
0000
0000
,
0001
0000
1000
0000
,
0001
0000
1000
0000
,
0010
0000
0100
0000
,
0010
0000
0100
0000
,
0001
0000
1000
0000
,
0001
0000
1000
0000
,
0100
0000
0010
0000
,
0100
0000
0010
0000
,
0001
0100
0001
1000
,
0001
0010
0001
1000
,
0100
0010
0100
1000
,
0010
0100
0001
1000
,
0001
0010
0100
1000
,
0010
0100
0010
1000
,
0001
0010
0001
1000
,
0010
1000
0100
0010
,
0001
0000
0000
1000
0000
0000
0002
0000
,
0000
0003
1000
0100
,
0020
0000
0000
0000
,
0130
1000
0001
1000
,
0001
0001
0100
0000
,
0010
0000
1000
0001
,
1000
1000
0100
0000
,
0010
0000
0001
1000
,
0001
0001
1000
0000
,
0100
0000
0010
0001
,
1000
0000
1000
0010
0000
0010
0000
0100
,
0000
0001
1000
0000
,
0001
0010
0100
1000
,
0001
0100
0010
0100
,
0001
0010
0100
0010
,
0001
0100
0010
1000
,
0001
0010
0100
1000
,
0010
0100
0001
1000
,
0100
1000
0001
1000
,
0001
0001
1000
0000
,
0001
0100
0001
1000
,
0010
1000
0100
0000
,
1000
0010
1000
0001
,
0100
0001
0010
0000
,
0001
0001
1000
1000
,
0010
0010
0100
0100
,
0001
0010
0100
1000
,
0010
0100
0001
1000
,
0001
0010
0001
1000
,
0100
1000
0010
0000
,
1000
0100
1000
0001
,
0010
0001
0100
0000
,
0001
0001
1000
1000
,
0100
0100
0010
0010
,
0001
0100
0010
1000
,
0100
0010
0001
1000
,
0001
0001
0010
0100
,
1000
0001
0000
1000
,
0010
0010
0100
0001
,
0010
0100
0000
0000
,
0010
0001
1000
0001
,
0100
0010
0010
1000
,
0000
0001
0010
0001
,
1000
0010
0000
1000
,
0001
0000
0000
1000
0000
0000
0002
0000
,
0000
0003
1000
0100
,
0020
0000
0000
0000
,
0000
0000
0000
0030
;

//---------------dance-single - ----------------
#NOTEDATA:;
#CHARTNAME:;
#STEPSTYPE:dance-single;
#DESCRIPTION:;
#CHARTSTYLE:;
#DIFFICULTY:Beginner;
#METER:3;
#RADARVALUES:0.141065,0.209063,0.000000,0.008817,0.000000,112.000000,112.000000,0.000000,1.000000,0.000000,0.000000,0.000000,0.000000,0.000000,0.141065,0.209063,0.000000,0.008817,0.000000,112.000000,112.000000,0.000000,1.000000,0.000000,0.000000,0.000000,0.000000,0.000000;
#CREDIT:;
#NOTES:
// measure 0
0000
0000
0000
0000
,  // measure 1
0000
0000
0000
0000
,  // measure 2
0000
0000
0000
0000
,  // measure 3
0000
0000
0000
0000
,  // measure 4
1000
0000
0000
0000
,  // measure 5
1000
0000
0000
0000
,  // measure 6
0001
0000
0000
0000
,  // measure 7
0001
0000
0000
0000
,  // measure 8
1000
0000
0000
0000
,  // measure 9
1000
0000
0000
0000
,  // measure 10
0001
0000
0000
0000
,  // measure 11
0001
0000
0000
0000
,  // measure 12
1000
0000
0001
0000
,  // measure 13
0100
0000
0010
0000
,  // measure 14
1000
0000
0001
0000
,  // measure 15
0010
0000
0100
0000
,  // measure 16
1000
0000
0010
0000
,  // measure 17
0100
0000
0001
0000
,  // measure 18
1000
0000
0100
0000
,  // measure 19
0010
0000
0001
0000
,  // measure 20
1000
0000
0000
0001
,  // measure 21
0000
0000
1000
0000
,  // measure 22
0001
0001
0001
0000
,  // measure 23
1000
1000
1000
0000
,  // measure 24
0001
0000
0000
0000
,  // measure 25
0100
0000
0000
0000
,  // measure 26
0001
0000
0000
0000
,  // measure 27
1000
0000
0000
0000
,  // measure 28
0100
0000
0000
0000
,  // measure 29
1000
0000
0000
0000
,  // measure 30
0001
0000
0000
0000
,  // measure 31
1000
0001
1000
0000
,  // measure 32
0001
0000
1000
0000
,  // measure 33
0010
0000
0100
0000
,  // measure 34
0001
0000
1000
0000
,  // measure 35
0100
0000
0010
0000
,  // measure 36
0001
0000
0100
0000
,  // measure 37
0010
0000
0100
0000
,  // measure 38
0001
0000
0010
0000
,  // measure 39
0000
0001
0001
0000
,  // measure 40
1000
0000
0010
0000
,  // measure 41
1000
0000
0010
0000
,  // measure 42
0100
0000
0001
0000
,  // measure 43
0100
0000
0001
0000
,  // measure 44
1000
0000
0100
0000
,  // measure 45
1000
0000
0100
0000
,  // measure 46
0010
0000
0001
0000
,  // measure 47
0010
0000
0001
0000
,  // measure 48
0100
0000
0010
0000
,  // measure 49
0100
0000
0010
0000
,  // measure 50
1000
0000
0001
0000
,  // measure 51
1000
0000
0001
0000
,  // measure 52
0010
0000
0100
0000
,  // measure 53
0010
0000
0100
0000
,  // measure 54
1000
0000
0001
0000
,  // measure 55
1000
0000
0001
0000
,  // measure 56
1000
0000
1000
0000
,  // measure 57
0010
0000
0010
0000
,  // measure 58
0100
0000
0100
0000
,  // measure 59
0001
0000
0001
0000
,  // measure 60
1000
0000
1000
0000
,  // measure 61
0100
0000
0100
0000
,  // measure 62
0010
0000
0010
0000
,  // measure 63
0001
0000
0001
0000
,  // measure 64
1000
0000
0000
0001
,  // measure 65
0000
0000
1000
0001
,  // measure 66
2000
0000
0000
0000
,  // measure 67
0000
0000
0000
3000
;
