#TITLE:Hypersonik;
#SUBTITLE:;
#ARTIST:Eagle;
#TITLETRANSLIT:;
#SUBTITLETRANSLIT:;
#ARTISTTRANSLIT:;
#GENRE:DRUM'N'BASS;
#CREDIT:;
#BANNER:Hypersonik.png;
#BACKGROUND:Hypersonik-bg.png;
#LYRICSPATH:;
#CDTITLE:cdtitle.png;
#MUSIC:Hypersonik.ogg;
#OFFSET:-0.060000;
#SAMPLESTART:98.789993;
#SAMPLELENGTH:11.017136;
#SELECTABLE:YES;
#BPMS:0.000000=87.500000
,48.000000=175.000000
,176.000000=87.500000
,192.000000=175.000000
;
#STOPS:
;
#BGCHANGES:;
#KEYSOUNDS:;
#ATTACKS:;

//---------------dance-single - ----------------
#NOTES:
     dance-single:
     :
     Challenge:
     15:
     0.776695,1.032366,0.334821,0.127551,0.864955,682.000000,640.000000,42.000000,16.000000,0.000000,0.000000,0.776695,1.032366,0.334821,0.127551,0.864955,682.000000,640.000000,42.000000,16.000000,0.000000,0.000000:
0000
0000
0000
0000
,
0000
0000
0000
0000
,
1000
1000
2002
0000
0000
0000
3003
0000
,
0000
0000
0000
0000
0000
0000
0000
0000
0002
0000
0000
0000
1003
0100
0010
0001
,
1000
0000
1000
0000
1010
0000
0001
0010
0001
1000
0010
0000
1001
0000
0001
0100
,
0010
0000
0000
0000
0010
0000
0000
0000
1010
0000
0000
0000
0000
0000
1000
0000
0000
0000
1000
0000
0001
0100
0001
0000
1000
0000
0000
1010
0000
0000
0001
0010
,
0001
0000
0001
0000
0101
0000
1000
0100
1000
0001
0100
0000
1001
0000
1000
0100
,
0010
0000
0010
0000
0011
0000
1001
0000
0000
0001
0100
0010
1000
0100
0010
0001
,
1000
1000
0010
0100
0010
1000
0100
0010
0001
0001
0100
0010
0100
0001
0010
0100
,
1000
1000
0010
1000
0100
0010
0001
0100
0001
0001
0010
0001
0100
0010
1000
0100
,
1000
1000
0010
0100
0010
0001
0010
0100
0001
0001
0010
0100
0010
1000
0010
0100
,
1000
1000
0001
0010
1000
0010
0001
1000
0001
0100
0101
0000
1000
0100
1100
0000
,
0001
0000
0000
0000
1001
0000
0000
1000
0000
0000
0100
0000
0110
0000
0000
0000
,
1000
0000
0000
0000
1001
0000
0000
0001
0000
0000
0100
0000
0110
0000
0000
0000
,
0001
0000
0000
0000
0011
0000
0000
0010
0000
0100
1000
0100
1000
0000
0000
0000
,
0010
0000
1000
0000
0010
0000
1000
0001
0000
1000
0100
0000
1000
0000
0010
0000
,
1000
0000
0000
0000
1001
0000
0000
0001
0000
0000
0100
0000
0101
0000
0000
0000
,
0001
0000
0000
0000
1001
0000
0000
1000
0000
0000
0100
0000
1100
0000
0000
0000
,
0001
0000
0000
0000
1001
0000
1000
0010
0000
0000
1000
0000
0100
0000
0010
0000
,
0001
0000
1000
0001
1000
0000
0010
0100
0000
0001
0010
0001
0010
0000
0100
0000
,
1000
0000
0000
0000
1010
0000
0000
0010
0000
0000
0100
0000
0101
0000
0000
0000
,
0001
0000
0000
0000
0011
0000
0000
0010
0000
0000
0100
0000
1100
0000
0000
0000
,
1000
0000
0000
0000
1001
0000
0001
0000
0100
0010
0100
0010
0100
0000
0001
0000
,
0010
0000
0100
0000
0010
0000
0001
1000
0001
1000
0001
0000
1000
0000
0010
0000
,
1000
0000
0000
0000
0101
0000
0000
0001
0000
0000
0010
0000
0110
0000
0000
0000
,
0001
0000
0000
0000
1100
0000
0000
1000
0000
0000
0010
0000
0110
0000
0000
0000
,
2000
0000
0000
0000
3001
0010
0100
0010
0002
0000
1000
0000
1000
0000
1003
0000
,
0001
0000
0000
0000
1000
0000
0010
0000
0100
0000
0001
1000
0001
0000
1000
0001
,
2000
0000
0000
0000
3100
0000
0010
0000
0001
0000
0000
0100
0010
0000
1000
0000
,
0100
0000
1000
0000
0001
0000
0000
0010
0000
0000
0100
0000
1100
0000
0000
0000
,
1000
0000
0000
0010
0000
0000
0001
0000
0000
0010
0000
0000
1000
0000
0100
0000
1000
0000
0001
0000
0000
0000
0000
0000
,
1000
0000
0010
0000
0100
0000
0001
0010
0000
0001
1000
0000
0002
0000
0000
0000
,
2003
0000
0000
0000
3001
0000
0100
0000
0010
0000
0000
1000
0100
0000
1000
0000
,
0010
0000
0001
0000
0010
0000
0000
1000
0000
0000
0100
0000
0110
0000
0000
0000
,
1000
0000
0000
0100
0000
0000
0001
0000
0000
0100
0000
0000
1000
0000
0010
0000
1000
0000
0001
0000
0000
0000
0000
0000
,
1000
0000
0100
0000
0010
0000
0100
1000
0000
0001
1000
0000
0010
0000
0100
0000
,
0020
0000
0000
0000
1030
0000
0100
0000
0010
0000
0000
0001
0100
0000
0010
0000
,
0100
0000
0001
0000
1000
0000
0000
0100
0000
0000
1000
0000
1001
0000
0000
0000
,
0001
0000
0000
0100
0000
0000
1000
0000
0000
0100
0000
0000
0001
0000
0010
0000
0001
0000
1000
0000
0000
0000
0000
0000
,
0001
0000
0000
0100
0000
0000
0010
0000
0000
1000
0000
0000
0100
0000
0010
0000
0100
0000
0010
0000
0000
0000
0000
0000
,
0002
0000
0000
0000
1003
0000
0010
0000
0100
0000
0000
0010
1000
0000
0100
0000
,
0001
0000
0100
0000
1000
0000
0000
0010
0000
0000
0100
0000
0101
0000
0000
0000
,
0001
0000
0000
0010
0000
0000
0100
0000
2002
0000
0000
0000
3003
0000
0000
0000
,
1000
0000
0100
0010
0000
0100
0010
0000
2002
0000
0000
0000
3003
0000
0000
0000
,
1000
0010
0001
1000
0100
0001
1000
0010
1000
0001
0010
0001
1000
0010
0100
0001
,
1000
0000
0010
0000
0001
0000
1000
0000
0100
0000
0001
0000
1000
0000
0010
1000
0010
0000
1000
0000
0100
0000
0010
0000
0001
0100
0001
0000
1000
0000
0010
0000
,
1000
0100
0001
1000
0010
0001
1000
0100
1000
0001
0100
0001
1000
0100
0010
0001
,
1000
0000
0100
0000
0001
0000
1000
0000
0010
0000
0001
0000
1000
0000
0100
0000
1000
0001
1000
0000
0010
0000
0100
0000
0001
0000
0010
0100
0010
0000
0001
0000
,
1000
1000
0100
0010
0100
1000
0010
0100
,
0001
0001
0010
0100
0010
0001
0100
0010
,
1000
1000
0100
0001
0100
1000
0010
0100
,
0001
0001
0010
1000
0010
0001
0100
0010
,
1000
0100
1000
0100
1000
0100
1000
0100
0010
0001
0010
0001
0010
0001
0010
0001
,
0100
0010
0100
0010
0100
0010
0100
0010
1000
0001
1000
0001
1000
0001
1000
0001
,
1000
1000
0010
0010
0100
0100
0001
0001
,
1000
0100
1100
0000
0001
0100
0101
0000
,
1000
0000
0100
0010
0100
0000
1000
0010
0000
0100
0000
0001
0010
0000
0001
0000
,
1000
0000
0010
0100
0000
0010
1000
0010
0000
1000
0000
0100
0000
0010
0001
0000
,
1000
0000
0010
0100
0010
0000
1000
0100
0000
0010
0000
0001
0100
0000
0001
0000
,
1000
0000
0100
0010
0000
0100
1000
0100
0000
1000
0000
0010
0000
0100
0001
0000
,
0010
0000
0100
0010
0100
0000
1000
0010
0000
1000
0000
0100
0010
0000
0001
0000
,
0100
0000
0010
1000
0000
0100
0010
0100
0000
1000
0000
0010
0000
0100
0001
0000
,
1000
0000
0001
0100
0001
0000
1000
0100
1000
0000
0001
0010
0001
0000
1000
0010
,
1000
0100
1000
0100
0010
0001
0010
0001
0100
0010
0100
0010
1000
0001
1000
0001
,
1000
0000
1001
0001
0010
0100
1000
0000
,
0010
0000
0100
0010
0100
0000
0001
1000
0000
0100
0000
1000
0010
0000
0100
0000
,
0001
0000
1001
1000
0100
0010
0001
0000
,
1000
0000
0010
0100
0000
0001
0010
0001
0000
0100
0000
0010
0000
1000
0100
0000
,
1000
0000
1001
0001
0100
0010
1000
0000
,
0100
0000
0010
0100
0010
0000
0001
1000
0000
0100
0000
1000
0010
0000
0100
0000
,
0001
0000
0010
0100
0000
1000
0001
1000
0000
0100
0000
1000
0001
0000
0100
0000
,
0001
0000
0010
0100
0000
1000
0001
1000
0000
0010
0000
0100
0000
0001
1000
0000
,
2002
0000
0000
0000
,
0000
0000
0000
0000
,
3003
0000
0000
0000
;

//---------------dance-single - ----------------
#NOTES:
     dance-single:
     :
     Hard:
     11:
     0.561452,0.737404,0.135523,0.175383,0.510204,493.000000,476.000000,17.000000,22.000000,0.000000,0.000000,0.561452,0.737404,0.135523,0.175383,0.510204,493.000000,476.000000,17.000000,22.000000,0.000000,0.000000:
0000
0000
0000
0000
,
0000
0000
0000
0000
,
1000
1000
2002
0000
0000
0000
3003
0000
,
0000
0000
0000
0000
0000
0000
0000
0000
0002
0000
0000
0000
1003
0010
1000
0010
,
1000
0000
1000
0000
0100
0000
0010
0001
0000
0001
0100
0000
0010
0000
0000
1000
,
0001
0000
0000
0000
0001
0000
0000
0000
0010
0000
0000
0000
0000
0000
0100
0000
0000
0000
1000
0000
0001
1000
0001
0000
1000
0000
0000
1010
0000
0000
0010
0000
,
0100
0000
0100
0000
0010
0000
1000
0100
0000
0100
0010
0000
0001
0000
0000
1000
,
0010
0000
0010
0000
0100
0010
0100
0000
0000
0001
1000
0100
1000
0100
0010
0001
,
0200
0000
0000
0000
0000
0000
0000
0000
0301
0000
0000
0001
0000
0000
0001
0000
,
1000
0000
0000
1000
0000
0000
1000
0000
0100
0000
0010
0100
0000
0010
0100
0000
,
1000
1000
0010
0010
0100
0100
0001
0001
,
1000
0100
1000
0100
0010
0001
0010
0001
1000
0100
1100
0000
0001
0100
0101
0000
,
1000
0000
0000
0000
1010
0000
0000
0010
0000
0000
0100
0000
0001
0000
0000
0000
,
0010
0000
0000
0000
0110
0000
0000
0100
0000
0000
1000
0000
0001
0000
0000
0000
,
1000
0000
0000
0000
0100
0000
0000
0010
0000
0000
0100
0000
1000
0000
0001
0000
,
1000
0000
0000
0000
0010
0000
0100
0010
0000
0000
1000
0000
0001
0000
1000
0000
,
0001
0000
0000
0000
0011
0000
0000
0010
0000
0000
0100
0000
1000
0000
0000
0000
,
0010
0000
0000
0000
0110
0000
0000
0100
0000
0000
0001
0000
1000
0000
0000
0000
,
0001
0000
0000
0000
0010
0000
0000
0100
0000
0000
1000
0000
1000
0000
1000
0000
,
0010
0000
0000
0100
0010
0000
1000
0001
0000
0000
1000
0000
0001
0000
0010
0000
,
0100
0000
0000
0000
1100
0000
0000
1000
0000
0000
0010
0000
0100
0000
0000
0000
,
0001
0000
0000
0000
0011
0000
0000
0010
0000
0000
0001
0000
1000
0000
0000
0000
,
0010
0000
0000
0000
0100
0000
0000
0010
0000
0000
1000
0000
0100
0000
1000
0000
,
0001
0000
0000
0000
0100
0000
0010
1000
0000
0000
0100
0000
0010
0000
0001
0000
,
1000
0000
0000
0000
1010
0000
0000
0010
0000
0000
0100
0000
0001
0000
0000
0000
,
0010
0000
0000
0000
0110
0000
0000
0100
0000
0000
1000
0000
0001
0000
0000
0000
,
2000
0000
3001
0100
0010
0100
0100
0100
,
0001
0000
0000
0000
0010
0000
0100
0000
1000
0000
0001
1000
0001
0000
1000
0001
,
1000
0000
0000
0000
0010
0000
0100
0000
0010
0000
0000
1000
0100
0000
1000
0000
,
0010
0000
1000
0000
0001
0000
0000
0010
0000
0000
0100
0000
0000
0000
1000
0000
,
0002
0000
0000
2003
0000
0000
3010
0100
0010
0100
0000
0000
,
0002
0000
2003
0000
3100
0010
0100
0000
,
1000
0000
0000
0000
0001
0000
0100
0000
0001
0000
0000
0010
0100
0000
1000
0000
,
0010
0000
0100
0000
0010
0000
0000
1000
0000
0000
0100
0000
0000
0000
1000
0000
,
0002
0000
0000
0203
0000
0000
0310
1000
0010
1000
0000
0000
,
0100
0010
0100
0000
2000
0000
3001
0000
,
1000
0000
0000
0000
0010
0000
0100
0000
0001
0000
0000
0010
0100
0000
0010
0000
,
0001
0000
1000
0000
0001
0000
0000
0100
0000
0000
0010
0000
0000
0000
1000
0000
,
0200
0000
0000
0320
0000
0000
0031
1000
0001
1000
0000
0000
,
0020
0000
0000
0230
0000
0000
0301
1000
0001
1000
0000
0000
,
0100
0000
0000
0000
1000
0000
0001
0000
0100
0000
0000
0001
1000
0000
0010
0000
,
1000
0000
0001
0000
0010
0000
0000
0100
0000
0000
1000
0000
0000
0000
0001
0000
,
1000
0000
0000
0010
0000
0000
0100
0000
0220
0000
0000
0000
0000
0000
0330
0000
,
0001
0000
0010
0100
0000
0010
0100
0000
2002
0000
0000
0000
0000
0000
3003
0000
,
1000
0000
0000
0000
0100
0000
0000
1000
0000
0000
0100
0000
0010
0000
0000
0000
0001
0000
0000
0000
0100
0000
0000
0001
0000
0000
0100
0000
0010
0000
0000
0000
,
1000
0000
0000
0000
0001
0000
0000
0010
0000
0000
0100
0000
0010
0000
0000
0000
0001
0000
0000
0000
1000
0000
0010
1000
0000
0000
0100
0000
0010
0000
0000
0000
,
0001
0000
0000
0000
0100
0000
0000
0010
0000
0000
1000
0000
0100
0000
0000
0000
1000
0000
0000
0000
0010
0000
0000
0100
0000
0000
0001
0000
0010
0000
0000
0000
,
0001
0000
0000
0000
1000
0000
0000
0010
0000
0000
1000
0000
0100
0000
0000
0000
1000
0000
0010
0000
1000
0000
0010
0000
0100
0000
0001
0000
0100
0000
0001
0000
,
1000
0000
0000
0000
0100
0000
0000
0010
0000
0000
0001
0000
0100
0000
0000
0000
,
0001
0000
0000
0000
0010
0000
0000
0100
0000
0000
1000
0000
0010
0000
0000
0000
,
1000
0000
0000
0000
0100
0000
0000
0010
0000
0000
0100
0000
1000
0000
0000
0000
,
0001
0000
0000
0000
0100
0000
0000
0010
0000
0000
0100
0000
0001
0000
0000
0000
,
1000
0100
1000
0100
0010
0001
0010
0000
,
0001
0100
0001
0100
0010
1000
0010
0000
,
1000
0100
0001
0100
1000
0010
0001
0010
,
1000
0100
1100
0000
0001
0100
0101
0000
,
1000
0000
0000
0000
0100
0000
0000
0010
0000
0001
0000
0100
0001
0000
1000
0000
,
0001
0000
0000
0000
0010
0000
0000
0100
0000
1000
0000
0010
0000
1000
0001
0000
,
1000
0000
0000
0000
0100
0000
0000
1000
0000
0010
0000
0100
0001
0000
0010
0000
,
0001
0000
0000
0000
0100
0000
0000
0010
0000
1000
0000
0100
0000
0000
1000
0000
,
0001
0000
0000
0000
0010
0000
0000
0100
0000
1000
0000
0010
0100
0000
0010
0000
,
1000
0000
0000
0000
0100
0000
0000
0010
0000
0001
0000
0100
0000
0010
0100
0000
,
0001
0000
0000
0001
1000
0000
0000
1000
0100
0000
0000
0100
0010
0000
0000
0010
,
0001
0100
0010
0100
0001
0010
0100
1000
,
0010
0000
0000
0000
0100
0000
0000
0010
0000
0000
1000
0000
0100
0000
0000
0000
,
1000
0000
0000
0000
0010
0000
0000
0100
0000
0001
0000
0010
0100
0000
1000
0000
,
0001
0000
0000
0000
0100
0000
0000
0010
0000
0000
1000
0000
0100
0000
0000
0000
,
1000
0000
0000
0000
0010
0000
0000
0100
0000
0001
0000
0010
0000
0100
1000
0000
,
0010
0000
0000
0000
0100
0000
0000
0001
0000
0000
1000
0000
0100
0000
0000
0000
,
1000
0000
0000
0000
0001
0000
0000
0100
0000
0010
0000
0100
0001
0000
1000
0000
,
0100
0000
0000
0000
0010
0000
0000
0100
0000
1000
0000
0010
0100
0000
0001
0000
,
1000
0001
1000
0100
1000
0010
1000
0010
,
0220
0000
0000
0000
,
0000
0000
0000
0000
,
0330
0000
0000
0000
;

//---------------dance-single - ----------------
#NOTES:
     dance-single:
     :
     Medium:
     8:
     0.386070,0.560427,0.079719,0.135523,0.019930,339.000000,329.000000,10.000000,17.000000,0.000000,0.000000,0.386070,0.560427,0.079719,0.135523,0.019930,339.000000,329.000000,10.000000,17.000000,0.000000,0.000000:
0000
0000
0000
0000
,
0000
0000
0000
0000
,
1000
1000
2002
0000
0000
0000
3003
0000
,
0000
0000
0000
0000
0002
0000
1003
0100
,
1000
0000
1000
0000
0001
0000
0000
0100
0000
0000
0010
0000
1000
0000
0000
0000
,
0001
0000
0001
0000
1000
0000
0000
0100
0000
0000
0010
0000
0001
0000
0000
0000
,
1000
0000
1000
0000
0010
0000
0000
0100
0000
0000
0001
0000
0010
0000
0000
0000
,
0001
0001
0100
0110
0000
0001
0010
0100
,
2000
0000
0000
0000
,
3002
0000
0000
0000
,
1003
0010
1000
0010
0100
0001
0100
0001
,
1000
0100
0001
0100
1001
1000
1001
0001
,
1000
0000
0100
0000
0000
1000
0001
0000
,
0100
0000
0001
0000
0000
0010
0100
0000
,
1000
0010
1000
0001
,
0010
0000
0001
0000
1000
0010
1000
0000
,
0001
0000
1000
0000
0000
0100
0010
0000
,
0001
0000
1000
0000
0000
0010
0100
0000
,
0001
0010
0100
0010
,
0001
0000
1000
0000
0010
1000
0010
0000
,
1000
0000
0100
0000
0000
1000
0001
0000
,
1000
0000
0010
0000
0000
0100
0001
0000
,
0010
0000
0100
0000
1000
0001
1000
0000
,
0001
0000
0100
0000
0010
1000
0010
0000
,
1000
0000
0001
0000
0000
0100
0001
0000
,
1000
0000
0001
0000
0000
0010
0100
0000
,
1000
0000
0001
1000
0001
0000
0100
0100
,
0001
0000
0010
0100
1000
0000
0001
0000
,
1001
1000
0010
0100
,
0001
0000
0010
0000
0100
0000
1000
0001
,
2000
0000
3002
0000
0103
0010
0100
0000
,
0002
2003
3100
0110
,
0001
1000
0010
0100
,
0001
0000
0010
0000
0100
0000
1000
0001
,
2000
0000
3002
0000
0103
0010
0100
0000
,
0001
1000
0001
0000
0020
0000
0130
0000
,
1000
0001
0100
0010
,
1000
0000
0100
0000
0010
0000
0001
0100
,
0020
0000
0230
0000
0301
1000
0001
0000
,
0020
0000
0230
0000
1300
0001
1000
0000
,
0001
0100
0010
0100
,
0001
0000
0010
0000
0100
0000
1000
0001
,
1000
0000
0000
0001
0000
0000
1000
0000
1001
0000
0000
0000
0000
0000
0000
0000
,
1000
0000
0000
0010
0000
0000
0100
0000
0110
0000
0000
0000
0000
0000
0000
0000
,
0001
0010
0001
1000
0010
1000
0001
0000
,
1000
0100
1000
0001
0100
0001
1000
0000
,
0001
0010
0100
1000
0010
0100
0001
0000
,
1000
0100
0010
0001
0100
0010
1000
0001
,
1000
0000
0100
0000
0000
1000
0001
0000
,
1000
0000
0010
0000
0000
0100
0001
0000
,
0010
0000
0100
0000
0000
1000
0010
0000
,
0100
0000
0001
0000
0000
0010
0100
0000
,
1000
0010
0001
0010
,
1000
0100
0001
0100
,
1000
0010
1000
0000
0001
0010
0001
0000
,
1001
1000
1001
0001
,
1000
0000
0100
0000
0000
1000
0001
0000
,
0010
0000
0100
0000
0000
1000
0010
0000
,
0100
0000
0001
0000
0000
0010
0100
0000
,
1000
0000
0001
0000
1000
0001
1000
0100
,
0010
0000
0100
0000
0000
1000
0010
0000
,
0100
0000
0001
0000
0000
0010
0100
0000
,
1000
1000
0001
0001
,
1000
0010
1000
0010
1000
0100
0010
0000
,
0001
0000
1000
0000
0000
0001
0100
0000
,
0010
0000
1000
0000
0000
0100
0010
0000
,
0100
0000
1000
0000
0000
0010
0100
0000
,
0001
0000
0010
0000
0000
0100
1000
0000
,
0010
0000
1000
0000
0000
0001
0010
0000
,
0001
0000
1000
0000
0000
0100
1000
0000
,
0010
0000
0100
0000
0000
0001
1000
0000
,
0001
0010
0001
0000
1000
0010
0100
0001
,
0020
0000
0000
0000
,
0000
0000
0000
0000
,
0030
0000
0000
0000
;

//---------------dance-single - ----------------
#NOTES:
     dance-single:
     :
     Easy:
     5:
     0.265352,0.383450,0.031888,0.055804,0.000000,233.000000,229.000000,4.000000,7.000000,0.000000,0.000000,0.265352,0.383450,0.031888,0.055804,0.000000,233.000000,229.000000,4.000000,7.000000,0.000000,0.000000:
0000
0000
0000
0000
,
0000
0000
0000
0000
,
1000
0001
2000
0000
0000
0000
3000
0000
,
0000
0000
0000
0000
0002
0000
1003
0100
,
0010
0100
0010
0000
0000
0001
1000
0000
,
0010
0100
0010
0000
0000
1000
0001
0001
,
1000
0010
1000
0000
0000
0001
0010
0000
,
0001
0100
0001
0001
0000
1000
0100
0000
,
2000
0000
0000
0000
,
3002
0000
0000
0000
,
1003
0010
0100
0001
,
0010
0100
0010
0100
1000
0000
1001
0000
,
0001
1000
0000
0100
,
1000
0010
0000
0100
,
0001
0010
0000
0001
,
1000
0010
0000
1000
,
0001
0010
0000
0100
,
1000
0001
0000
0100
,
0001
1000
0000
0010
,
0100
0001
0000
0010
,
0100
1000
0000
0010
,
1000
0010
0000
1000
,
0100
0010
0000
0001
,
0100
0001
0000
1000
,
0010
0100
0000
0001
,
0010
0100
0000
1000
,
0002
0003
2000
3000
,
0001
0001
1000
0100
,
0010
0100
1000
0001
,
1000
0010
0000
0100
,
0001
0010
0000
0100
,
1000
0001
0000
1000
,
0001
0010
0100
0010
,
0001
0100
0010
1000
,
0100
0010
0000
0100
,
1000
0010
0000
0100
,
0001
0010
0001
0100
,
0010
1000
0100
0010
,
0001
1000
0000
0010
,
0100
0001
0000
0010
,
0100
1000
0010
1000
,
0100
0010
0001
0100
,
0001
0000
1001
0000
,
1000
0000
1001
0000
,
0001
0001
0010
0010
,
0100
0100
1000
1000
,
0010
0010
0100
0100
,
0001
0001
1000
1000
,
0001
0000
0001
0000
,
1000
0000
1000
0000
,
0100
0000
0100
0000
,
0010
0000
0010
0000
,
0001
0000
0001
0000
,
0100
0000
0100
0000
,
0001
1000
0001
1000
,
0001
0000
1001
1000
,
0001
0001
1000
0010
,
0000
1000
0100
0010
,
0000
0100
1000
0010
,
0000
1000
0001
1000
,
0000
0010
0100
0001
,
0000
0010
0100
1000
,
0010
0010
0100
0100
,
0001
0010
0100
1000
,
0001
0001
0100
0001
,
0000
0010
0000
0100
,
1000
1000
0010
0100
,
0000
0001
0000
0010
,
0001
0001
0100
0010
,
0000
1000
0000
0100
,
1000
0001
0000
0010
,
0100
1000
0010
0100
,
0002
0000
0000
0000
,
0000
0000
0000
0000
,
0003
0000
0000
0000
;

//---------------dance-single - ----------------
#NOTES:
     dance-single:
     :
     Beginner:
     3:
     0.153745,0.229592,0.023916,0.000000,0.000000,135.000000,132.000000,3.000000,0.000000,0.000000,0.000000,0.153745,0.229592,0.023916,0.000000,0.000000,135.000000,132.000000,3.000000,0.000000,0.000000,0.000000:
// measure 0
0000
0000
0000
0000
,  // measure 1
0000
0000
0000
0000
,  // measure 2
1000
0001
0000
0000
,  // measure 3
0000
0000
0000
0000
,  // measure 4
0001
1000
0000
0010
,  // measure 5
1000
0001
0000
0010
,  // measure 6
0001
1000
0000
0100
,  // measure 7
1000
0000
0001
0001
0000
0000
1000
0000
,  // measure 8
0001
0000
0000
0000
,  // measure 9
1000
0000
0000
0000
,  // measure 10
0001
0000
0001
0000
,  // measure 11
1000
1000
0001
1001
,  // measure 12
1000
0000
0000
0000
,  // measure 13
0001
0000
0000
0000
,  // measure 14
0100
0000
0100
0000
,  // measure 15
0010
0000
0010
0000
,  // measure 16
1000
0000
0000
0000
,  // measure 17
0001
0000
0000
0000
,  // measure 18
0010
0000
0010
0000
,  // measure 19
0100
0000
0100
0000
,  // measure 20
1000
0000
0000
0000
,  // measure 21
0010
0000
0000
0000
,  // measure 22
0100
0000
0100
0000
,  // measure 23
0001
0000
0001
0000
,  // measure 24
1000
0000
0000
0000
,  // measure 25
0100
0000
0000
0000
,  // measure 26
1000
0000
1001
0000
,  // measure 27
0001
0000
0001
0000
,  // measure 28
1000
0100
0000
0100
,  // measure 29
0000
0010
0000
0010
,  // measure 30
0001
0000
0000
0000
,  // measure 31
1000
0000
0000
0000
,  // measure 32
0001
0100
0000
0100
,  // measure 33
0000
0010
0000
0010
,  // measure 34
1000
0000
0000
0000
,  // measure 35
0001
0000
0000
0000
,  // measure 36
1000
0010
0000
0010
,  // measure 37
0000
0100
0000
0100
,  // measure 38
0001
0000
0000
0000
,  // measure 39
1000
0000
0000
0000
,  // measure 40
0001
0010
0000
0010
,  // measure 41
0000
0100
0000
0100
,  // measure 42
1000
0000
0001
0000
,  // measure 43
1000
0000
1001
0000
,  // measure 44
0001
0000
0001
0000
,  // measure 45
0100
0000
0100
0000
,  // measure 46
0010
0000
0010
0000
,  // measure 47
1000
0000
1000
0001
,  // measure 48
1000
0000
0000
0000
,  // measure 49
1000
0000
0000
0000
,  // measure 50
0010
0000
0000
0000
,  // measure 51
0010
0000
0000
0000
,  // measure 52
0100
0000
0100
0000
,  // measure 53
0001
0000
0001
0000
,  // measure 54
1000
0000
0001
0000
,  // measure 55
1000
0000
0001
0000
,  // measure 56
1000
0100
0000
0100
,  // measure 57
0000
0010
0000
0010
,  // measure 58
0000
0001
0000
0001
,  // measure 59
0000
0100
0000
0100
,  // measure 60
0000
0010
0000
0010
,  // measure 61
0000
1000
0000
1000
,  // measure 62
0001
0000
0000
0000
,  // measure 63
1000
0000
0000
0000
,  // measure 64
0001
0010
0000
0010
,  // measure 65
0000
0100
0000
0100
,  // measure 66
0000
1000
0000
1000
,  // measure 67
0000
0010
0000
0010
,  // measure 68
0000
0100
0000
0100
,  // measure 69
0000
0001
0000
0001
,  // measure 70
0000
1000
0000
1000
,  // measure 71
0000
0001
0001
0001
,  // measure 72
0001
0000
0000
0000
;
