#VERSION:0.83;
#TITLE:High School Love;
#SUBTITLE:;
#ARTIST:DJ YOSHITAKA feat.DWP;
#TITLETRANSLIT:;
#SUBTITLETRANSLIT:;
#ARTISTTRANSLIT:;
#GENRE:BUCHIAGE POP;
#ORIGIN:;
#CREDIT:;
#BANNER:High School Love.png;
#BACKGROUND:High School Love-bg.png;
#PREVIEWVID:;
#JACKET:;
#CDIMAGE:;
#DISCIMAGE:;
#LYRICSPATH:;
#CDTITLE:cdtitle.png;
#MUSIC:High School Love.ogg;
#OFFSET:-0.420000;
#SAMPLESTART:44.950001;
#SAMPLELENGTH:10.667000;
#SELECTABLE:YES;
#BPMS:0.000=180.000;
#STOPS:;
#DELAYS:;
#WARPS:;
#TIMESIGNATURES:0.000=4=4;
#TICKCOUNTS:0.000=4;
#COMBOS:0.000=1;
#SPEEDS:0.000=1.000=0.000=0;
#SCROLLS:0.000=1.000;
#FAKES:;
#LABELS:0.000=Song Start;
#BGCHANGES:;
#KEYSOUNDS:;
#ATTACKS:
;

//---------------dance-single - ----------------
#NOTEDATA:;
#CHARTNAME:;
#STEPSTYPE:dance-single;
#DESCRIPTION:;
#CHARTSTYLE:;
#DIFFICULTY:Hard;
#METER:13;
#RADARVALUES:0.646357,0.649588,0.293015,0.137889,0.073254,525.000000,491.000000,34.000000,16.000000,0.000000,0.000000,0.000000,0.000000,0.000000,0.646357,0.649588,0.293015,0.137889,0.073254,525.000000,491.000000,34.000000,16.000000,0.000000,0.000000,0.000000,0.000000,0.000000;
#CREDIT:;
#NOTES:
// measure 0
0000
0000
0000
0000
,  // measure 1
0000
0000
0000
0000
,  // measure 2
0000
0000
0000
0000
,  // measure 3
0000
0000
0000
0000
,  // measure 4
1001
0000
0001
0000
0100
0010
0000
1000
,  // measure 5
0000
0100
0010
0100
1000
0000
0001
0000
,  // measure 6
1000
0000
0010
0100
0000
0001
0000
1000
,  // measure 7
0000
0100
1000
0001
1000
0000
0010
0000
,  // measure 8
1000
0100
0010
0001
0000
0101
0000
1001
,  // measure 9
0000
1000
0010
1000
0001
0010
0001
0100
,  // measure 10
0001
0010
0100
1000
0000
1100
0000
1001
,  // measure 11
0000
0001
0010
0001
1000
0010
1000
0100
,  // measure 12
1000
0010
0100
0001
0000
0011
0000
1001
,  // measure 13
0000
1000
0100
0010
0001
0100
0010
1000
,  // measure 14
0001
0000
1001
0000
,  // measure 15
1000
0010
1000
0001
1000
0100
1000
0000
,  // measure 16
0001
0000
0100
0000
0010
1000
0010
0000
,  // measure 17
1000
0000
0100
0000
0010
0001
0010
0000
,  // measure 18
0001
0000
0010
0000
0100
1000
0100
0000
,  // measure 19
1000
0000
0010
0000
0100
0001
0100
0000
,  // measure 20
0001
0010
0100
0000
1000
0010
0100
0000
,  // measure 21
0001
0100
0010
0000
1000
0100
0010
0000
,  // measure 22
0001
0100
0010
1000
0100
0010
0100
1000
,  // measure 23
0001
0100
0010
0100
0001
0010
0100
1100
,  // measure 24
0000
1000
0010
0100
0010
0100
0001
0011
,  // measure 25
0000
0001
0100
0010
0100
0010
1000
1100
,  // measure 26
0000
1000
0100
0010
0100
1000
0001
0101
,  // measure 27
0000
0001
0100
0010
0100
0001
1000
1010
,  // measure 28
0000
1000
0010
0100
1000
0100
0010
1000
,  // measure 29
0001
0010
0100
0001
0100
0010
0001
1000
,  // measure 30
0001
0100
0010
0100
0001
0100
1000
0100
,  // measure 31
0001
0010
0100
0010
0001
0010
1000
0010
,  // measure 32
0001
0100
0010
1000
0100
0010
0001
0100
,  // measure 33
0001
0001
0001
0000
0000
0000
0000
0000
,  // measure 34
0000
0000
1001
0000
1000
0100
0010
0001
,  // measure 35
0000
0100
0000
0010
1000
0000
1010
0000
,  // measure 36
0001
0000
0100
0000
0001
0000
0200
0000
0000
0000
0000
0000
0000
0000
0301
0010
,  // measure 37
0001
0000
0000
1000
0100
0010
0100
1000
,  // measure 38
0001
0000
1000
0020
0000
0230
0000
0320
,  // measure 39
0000
1030
0002
0000
0023
0000
0230
0000
,  // measure 40
1300
0000
0001
0100
0000
0010
1000
0010
,  // measure 41
0200
0000
0300
0001
0010
0010
0100
0100
,  // measure 42
0000
0000
1001
0000
1000
0010
0100
0001
,  // measure 43
0000
0100
0000
0001
0010
0000
1100
0000
,  // measure 44
1000
0000
0010
0000
0100
0000
0020
0000
0000
0000
0000
0000
0000
0000
1030
0001
,  // measure 45
1000
0000
0000
0001
0010
0100
0010
1000
,  // measure 46
0010
0001
1000
0100
0000
0011
0000
1001
,  // measure 47
0000
0001
0100
0010
0100
0001
1000
0010
,  // measure 48
1000
0100
0010
0001
0000
0101
0000
1001
,  // measure 49
0000
1000
0100
0010
0100
1000
0001
0010
,  // measure 50
0001
0100
0010
1000
0000
1100
0000
1001
,  // measure 51
0000
1000
0001
0010
0001
0100
0001
1000
,  // measure 52
0100
1000
0010
1000
0001
0100
0001
0010
,  // measure 53
0001
0100
0010
1000
0100
0010
0000
1001
,  // measure 54
0000
1000
0010
0100
0001
0010
0100
1000
,  // measure 55
0000
0001
0100
1000
0100
0001
1000
0010
,  // measure 56
0000
0000
1000
0000
0001
0100
0000
0010
0000
0100
0000
0001
0010
0000
0100
0000
,  // measure 57
0000
1000
0001
0010
0100
0010
0001
1000
,  // measure 58
0000
0000
0001
0000
0100
0000
0000
0100
0010
0000
0000
0010
1000
0000
0100
0000
,  // measure 59
0010
0001
0100
1000
0100
0001
0010
0100
,  // measure 60
1000
0000
0001
0001
0000
0100
0010
1000
,  // measure 61
0000
0000
0100
0000
0000
0010
0000
0000
0001
0000
0000
1000
0000
0001
0000
0100
,  // measure 62
0001
0010
1000
0010
0001
0100
1000
0100
,  // measure 63
0010
0010
0010
0000
0000
0000
0000
0000
,  // measure 64
0000
0000
1001
0000
0001
0010
0100
1000
,  // measure 65
0000
0010
0000
0100
0001
0000
0010
0000
,  // measure 66
0001
0000
1000
0000
0000
0000
0200
0000
0000
0000
0000
0000
0000
0000
0310
0001
,  // measure 67
0010
0000
0000
0001
0100
0010
0100
0001
,  // measure 68
0011
0000
1000
0200
0000
0320
0000
0031
,  // measure 69
0100
0002
2003
3200
,  // measure 70
0310
0000
0001
1000
0010
0100
0000
0001
,  // measure 71
1000
0000
0100
0000
0001
0000
0100
0000
1000
0001
1000
0001
1000
0001
1000
0000
,  // measure 72
0000
0000
1001
0000
1000
0010
0100
0001
,  // measure 73
0000
0100
0000
0010
1000
0000
1100
0000
,  // measure 74
1000
0000
0100
0000
0010
0000
0002
0000
0000
0000
0000
0000
0000
0000
0103
0010
,  // measure 75
0100
0000
0000
0001
0100
0010
0100
1000
,  // measure 76
0100
0001
0010
0001
0000
1100
0000
1001
,  // measure 77
0000
1000
0010
0100
1000
0100
0010
1000
,  // measure 78
0001
0010
0100
1000
0000
0011
0000
1001
,  // measure 79
0000
0001
0100
0010
0001
0010
0100
0001
,  // measure 80
1000
0100
0010
0001
0000
0101
0000
1001
,  // measure 81
0000
1000
0010
0100
0001
0010
0100
1000
,  // measure 82
0001
0100
0001
0010
0001
1000
0100
1000
,  // measure 83
0001
0010
0100
1000
0010
0100
0001
0000
;

//---------------dance-single - ----------------
#NOTEDATA:;
#CHARTNAME:;
#STEPSTYPE:dance-single;
#DESCRIPTION:;
#CHARTSTYLE:;
#DIFFICULTY:Medium;
#METER:9;
#RADARVALUES:0.405050,0.505235,0.086181,0.094799,0.000000,329.000000,319.000000,10.000000,11.000000,0.000000,0.000000,0.000000,0.000000,0.000000,0.405050,0.505235,0.086181,0.094799,0.000000,329.000000,319.000000,10.000000,11.000000,0.000000,0.000000,0.000000,0.000000,0.000000;
#CREDIT:;
#NOTES:
0000
0000
0000
0000
,
0000
0000
0000
0000
,
0000
0000
0000
0000
,
0000
0000
0000
0000
,
1000
0000
0001
0000
1000
0010
0000
0100
,
0000
0001
0010
0000
0100
0000
1000
0000
,
0010
0000
1000
0100
0000
1000
0000
0010
,
0000
0100
0001
0000
0010
0000
0001
0000
,
1000
0010
1000
0010
0000
1000
0000
0001
,
0000
0010
0001
0100
,
0001
0010
0001
0010
0000
0001
0000
1000
,
0000
0010
1000
0100
,
1000
0001
0100
0001
0000
0010
0000
0100
,
0000
1000
0010
0100
,
1001
0000
0110
0000
,
1000
0001
1000
0000
0001
0100
0001
0000
,
1000
0010
0100
0010
,
1000
0100
0010
0001
,
0100
0010
0100
0001
,
0010
0100
1000
0001
,
1000
0010
0100
0001
,
1000
0100
0010
0100
,
1000
0010
0100
0001
,
0010
0000
0100
0000
0010
0000
0001
1000
,
0000
0000
1000
0000
0010
0000
0100
0001
,
0000
0000
0001
0000
0010
0000
0100
1000
,
0000
0000
1000
0000
0010
0000
1000
0001
,
0000
0000
0001
0000
0010
0000
0001
1000
,
0000
1000
0100
0001
,
0100
1000
0010
0100
,
0001
0010
0100
0000
1000
0010
0100
0000
,
0001
0010
0100
0000
1000
0010
0100
0000
,
0001
0010
0001
0000
1000
0010
1000
0000
,
0001
0001
0001
0000
0000
0000
0000
0000
,
0000
0000
1000
0000
0100
0010
0000
0100
,
0000
1000
0000
0010
0100
0000
0001
0000
,
1000
0100
0000
2000
0000
0000
3000
0001
,
0100
0000
0000
0001
0010
0001
0010
0100
,
1000
0000
0010
0100
0000
0010
0000
1000
,
0000
0001
1000
0001
,
0010
0000
0100
1000
0000
0010
0000
0200
,
0000
0300
0000
0000
,
0000
0000
0001
0000
0100
0010
0000
0100
,
0000
0001
0000
0010
0100
0000
1000
0000
,
0001
0100
0000
0002
0000
0000
0003
1000
,
0100
0000
0000
1000
0010
1000
0010
0100
,
0001
0000
0000
1000
0000
0100
0000
0110
,
0000
0001
1000
0001
,
1000
0000
0000
0001
0000
0100
0000
0110
,
0000
1000
0001
1000
,
0001
0000
0000
1000
0000
0001
0000
1001
,
0000
0001
0010
0100
,
1000
0000
1001
0000
,
0001
0100
0001
0000
1000
0100
0000
1001
,
0000
0000
1000
0000
0010
0000
0100
0001
,
0000
0000
0001
0000
0010
0000
0100
1000
,
0000
0000
1000
0000
0010
0000
1000
0100
,
0000
0000
0100
0000
0010
0000
0001
0100
,
0000
0100
0010
1000
,
0001
0010
0001
0000
1000
0001
1000
0000
,
0001
0000
0001
0100
0000
0100
0010
1000
,
0001
0010
0100
1000
,
0001
0100
0001
0000
1000
0100
1000
0000
,
0001
0001
0001
0000
0000
0000
0000
0000
,
0000
2000
0000
0000
,
0000
0000
0000
0000
,
3002
0000
0000
0000
,
0203
0000
0000
0000
,
0320
0000
0000
0000
,
2030
0000
0000
0000
,
3002
0000
2003
0000
,
3001
0010
0001
0010
0100
1000
0100
1000
,
0000
0000
0001
0000
0100
0010
0000
0100
,
0000
0001
0000
0010
0100
0000
1000
0000
,
0001
0100
0000
0002
0000
0000
0003
1000
,
0100
0000
0000
1000
0010
1000
0010
0100
,
0001
0000
0000
1000
0000
0100
0000
0110
,
0000
0001
1000
0001
,
1000
0000
0000
1000
0000
0100
0000
0110
,
0000
1000
0001
1000
,
0001
0000
0000
0001
0000
1000
0000
1001
,
0000
1000
0100
0010
,
0001
0100
0001
0000
1000
0100
1000
0000
,
0001
0010
0001
0010
0100
1000
0100
0000
;

//---------------dance-single - ----------------
#NOTEDATA:;
#CHARTNAME:;
#STEPSTYPE:dance-single;
#DESCRIPTION:;
#CHARTSTYLE:;
#DIFFICULTY:Easy;
#METER:7;
#RADARVALUES:0.312714,0.360882,0.034472,0.000000,0.000000,254.000000,250.000000,4.000000,0.000000,0.000000,0.000000,0.000000,0.000000,0.000000,0.312714,0.360882,0.034472,0.000000,0.000000,254.000000,250.000000,4.000000,0.000000,0.000000,0.000000,0.000000,0.000000,0.000000;
#CREDIT:;
#NOTES:
0000
0000
0000
0000
,
0000
0000
0000
0000
,
0000
0000
0000
0000
,
0000
0000
0000
0000
,
1000
0001
0001
0001
,
1000
0100
0010
0001
,
0100
0010
0010
0010
,
0100
0001
0010
0100
,
1000
0000
0000
0001
0000
1000
0000
0001
,
0000
1000
0010
0100
,
0001
0000
0000
1000
0000
0001
0000
1000
,
0000
0001
0010
0100
,
1000
0000
0000
0001
0000
1000
0000
0001
,
0000
1000
0010
0100
,
0001
0001
1000
1000
,
0001
0010
0100
1000
,
0001
0000
0100
0000
,
0001
0000
1000
0000
,
0010
0000
1000
0000
,
0100
0000
1000
0000
,
0001
0000
0010
0000
,
0001
0000
1000
0000
,
0100
0000
1000
0000
,
0010
0000
0000
0000
0100
0000
0000
0001
,
0000
0000
0010
0000
0100
0000
0000
1000
,
0000
0000
0010
0000
0100
0000
0000
0001
,
0000
0000
1000
0000
0100
0000
0000
0010
,
0000
0000
0001
0000
0100
0000
0000
0010
,
0000
1000
0100
0010
,
0100
1000
0010
0100
,
0001
0001
0010
0010
,
0100
0100
1000
1000
,
0001
0001
1000
1000
,
0001
1000
0001
0000
0000
0000
0000
0000
,
0000
0000
1000
0000
0010
0000
0000
1000
,
0000
0001
0010
0100
,
1000
0010
0100
0001
,
1000
0000
0001
1000
,
0001
0000
0100
0000
0010
0000
0000
1000
,
0000
0100
0010
0001
,
1000
0010
1000
0001
,
1000
0000
0000
0000
,
0000
0000
0001
0000
0010
0000
0000
0001
,
0000
1000
0010
0100
,
0001
0010
0100
1000
,
0001
0000
1000
0010
,
0100
0000
0000
0001
0000
1000
0000
0001
,
0000
1000
0100
0010
,
0001
0000
0000
1000
0000
0001
0000
1000
,
0000
0001
0100
0010
,
1000
0000
0000
0001
0000
1000
0000
0001
,
0000
1000
0100
0010
,
0001
0001
0100
0100
,
0010
0000
0010
0000
1000
0000
0000
0001
,
0000
0000
1000
0000
0001
0000
0000
0100
,
0000
0000
0001
0000
1000
0000
0000
0100
,
0000
0000
1000
0000
0001
0000
0000
0010
,
0000
0000
0001
0000
1000
0000
0000
0010
,
0000
1000
1000
0001
,
0010
0100
1000
0001
,
1000
0000
0010
0000
,
1000
1000
0001
0001
,
0010
0100
1000
0010
,
1000
0001
1000
0000
0000
0000
0000
0000
,
0000
0001
0000
0000
,
1000
0000
0000
0000
,
0100
0000
0000
0000
,
0010
0000
0000
0000
,
1001
0000
0000
0000
,
0110
0000
0000
0000
,
1001
0000
1001
0000
,
1000
0000
0100
0000
1000
0001
1000
0000
,
0000
0000
0001
0000
0100
0000
0000
0001
,
0000
1000
0100
0010
,
0001
0100
0010
1000
,
0001
0000
1000
0100
,
0010
0000
0000
0001
0000
1000
0000
0001
,
0000
1000
0010
0100
,
0001
0000
0000
1000
0000
0001
0000
1000
,
0000
0001
0010
0100
,
1000
0000
0000
0001
0000
1000
0000
0001
,
0000
1000
0010
0100
,
0001
0001
0010
0010
,
0100
0100
1000
0001
;

//---------------dance-single - ----------------
#NOTEDATA:;
#CHARTNAME:;
#STEPSTYPE:dance-single;
#DESCRIPTION:;
#CHARTSTYLE:;
#DIFFICULTY:Beginner;
#METER:4;
#RADARVALUES:0.180980,0.216529,0.000000,0.000000,0.000000,147.000000,147.000000,0.000000,0.000000,0.000000,0.000000,0.000000,0.000000,0.000000,0.180980,0.216529,0.000000,0.000000,0.000000,147.000000,147.000000,0.000000,0.000000,0.000000,0.000000,0.000000,0.000000,0.000000;
#CREDIT:;
#NOTES:
0000
0000
0000
0000
,
0000
0000
0000
0000
,
0000
0000
0000
0000
,
0000
0000
0000
0000
,
0001
0000
0001
0000
,
1000
0000
1000
0000
,
0010
0000
0010
0000
,
0100
0000
0100
0000
,
0001
0000
0000
0000
,
0000
1000
1000
1000
,
1000
0000
0000
0000
,
0000
0001
0001
0001
,
0001
0000
0000
0000
,
0000
1000
1000
1000
,
1000
0000
0010
0000
,
0100
0000
0001
0000
,
1000
0000
0000
0000
,
0100
0000
0000
0000
,
1000
0000
0000
0000
,
0001
0000
0000
0000
,
1000
0000
0000
0000
,
0010
0000
0000
0000
,
1000
0000
1000
0000
,
0001
0000
0001
0000
,
0000
1000
0000
1000
,
0000
0100
0000
0100
,
0000
0010
0000
0010
,
0000
0001
0000
0001
,
0000
1000
1000
0000
,
0010
0000
0100
0000
,
0001
0000
0010
0000
,
0100
0000
1000
0000
,
0001
0000
1000
0000
,
0001
0001
0000
0000
,
0000
1000
0000
0001
,
0000
1000
0000
0001
,
0000
0100
0000
0010
,
0000
0100
0000
0010
,
0000
1000
0000
0001
,
0000
1000
0000
0001
,
0000
0010
0000
0100
,
0000
0010
0000
0000
,
0000
0001
0000
1000
,
0000
0001
0000
1000
,
0000
0010
0000
0100
,
0000
0010
0000
0100
,
0001
0000
0000
0000
,
0000
1000
1000
1000
,
1000
0000
0000
0000
,
0000
0001
0001
0001
,
0001
0000
0000
0000
,
0000
1000
1000
1000
,
1000
0000
0010
0000
,
1000
0000
0001
0000
,
0000
1000
0000
1000
,
0000
0010
0000
0010
,
0000
0100
0000
0100
,
0000
0001
0000
0001
,
0000
1000
1000
0000
,
0010
0000
0100
0000
,
0001
0000
0010
0000
,
0100
0000
1000
0000
,
0001
0000
1000
0000
,
0001
0000
0000
0000
,
0000
1000
0000
0000
,
0000
0000
0001
0000
,
0000
0000
0100
0000
,
0000
0000
0010
0000
,
1000
0000
0000
0000
,
0001
0000
0000
0000
,
1000
0000
0001
0000
,
1000
0000
0001
0000
,
0000
1000
0000
0001
,
0000
1000
0000
0001
,
0000
0010
0000
0100
,
0000
0010
0000
0100
,
1000
0000
0000
0000
,
0000
0001
0001
0001
,
0001
0000
0000
0000
,
0000
1000
1000
1000
,
1000
0000
0000
0000
,
0000
0001
0001
0001
,
0001
0000
0100
0000
,
0010
0000
1000
0001
;
