#TITLE:GATORIX;
#SUBTITLE:;
#ARTIST:NeLiME vs Presti;
#TITLETRANSLIT:;
#SUBTITLETRANSLIT:;
#ARTISTTRANSLIT:;
#GENRE:HARD TRANCE;
#CREDIT:;
#BANNER:GATORIX.png;
#BACKGROUND:GATORIX-bg.png;
#LYRICSPATH:;
#CDTITLE:cdtitle.png;
#MUSIC:GATORIX.ogg;
#OFFSET:-0.300000;
#SAMPLESTART:25.792852;
#SAMPLELENGTH:11.999998;
#SELECTABLE:YES;
#DISPLAYBPM:160.000000;
#BPMS:0.000000=160.000000
,196.000000=80.000000
,200.000000=160.000000
;
#STOPS:
;
#BGCHANGES:;
#KEYSOUNDS:;
#ATTACKS:;

//---------------dance-single - ----------------
#NOTES:
     dance-single:
     :
     Challenge:
     15:
     0.754236,0.810967,0.007608,0.022823,0.669466,694.000000,693.000000,1.000000,3.000000,0.000000,0.000000,0.754236,0.810967,0.007608,0.022823,0.669466,694.000000,693.000000,1.000000,3.000000,0.000000,0.000000:
0000
0000
0000
0000
,
0000
0000
0000
0000
,
0000
0000
0000
0000
,
0000
0000
0000
0000
,
0000
0000
0000
0000
,
1000
0100
0010
0100
0001
0100
0010
0100
,
1000
0010
0100
0010
0001
0010
0100
0010
,
1000
0100
0001
0100
0010
0100
0001
0100
,
1000
0010
0001
0010
0100
0010
0001
0010
,
1000
1000
0100
0100
0001
0001
0100
0100
,
1000
1000
0010
0010
0001
0001
0010
1000
,
0001
0001
0010
0010
1000
1000
0010
0010
,
0001
0000
0001
0000
0100
0000
0100
0000
1000
0000
1000
0000
0100
0000
0001
0100
,
0001
0000
0001
0000
0010
0000
0010
0000
0100
0000
0100
0000
1000
0000
0001
1000
,
0001
0001
0100
0100
0010
0010
1000
0001
,
1000
1000
0100
0100
0010
0010
0001
0001
,
1000
0010
1000
0010
0100
0001
0100
0001
0010
0000
0000
0000
1001
0000
0000
0000
,
0001
0000
0100
0010
0000
0000
1000
0000
0100
0000
0100
0000
0010
0000
0001
0000
,
1000
0000
0010
0000
1000
0100
0000
0100
0010
0000
0100
0000
1000
0000
0001
0000
,
0100
0000
0001
0010
0000
0000
0001
0000
0100
0000
0100
0000
0010
0000
1000
0000
,
0001
0000
0010
0000
0001
0100
0000
0100
0010
0000
0100
0000
0001
1000
0001
1000
,
0001
0000
0010
0100
0000
0000
1000
0000
0010
0000
0010
0000
0100
0000
0001
0000
,
1000
0000
0100
0000
1000
0010
0000
0010
0100
0000
0010
0000
1000
0000
0001
0000
,
0010
0000
0001
0100
0000
0000
0001
0000
0010
0000
0010
0000
0100
0000
1000
0000
,
0001
0000
0100
0000
0001
0010
0000
0010
0100
1000
0100
1000
0010
0100
0010
0100
,
0001
0000
1000
0100
0000
0010
0001
0000
1000
0000
0010
0000
0001
0000
0010
0000
,
1000
0000
0001
0000
0010
0100
0000
0100
1000
0000
0010
0000
1000
0001
1000
0001
,
1000
0000
0001
0010
0000
0100
1000
0000
0001
0000
0100
0000
1000
0000
0100
0000
,
0001
0000
1000
0000
0100
0010
0000
0010
0001
0000
0100
0000
0001
0000
1000
0001
,
1000
0000
0001
0100
0000
0010
1000
0000
0001
0000
0010
0000
1000
0000
0010
0000
,
0001
0000
1000
0000
0010
0100
0000
0100
0001
0000
0010
0000
0001
1000
0001
1000
,
0001
0000
1000
0010
0000
0100
0001
0000
1000
0000
0100
0000
0001
0000
0100
0000
,
1000
0000
0001
0000
0100
0010
0000
0010
1000
0100
1000
0100
0010
0000
0001
1000
,
0001
0100
0010
0001
1000
0001
0010
0100
,
0001
0010
0100
0001
1000
0001
0100
0010
,
0001
0100
0001
0000
1000
0100
1000
0000
0001
0010
0001
0000
1000
0010
1000
0000
,
0001
1000
0001
0000
0100
0010
0100
0000
0001
1000
0001
0000
0010
0100
0010
0100
,
1000
0010
0100
1000
0001
1000
0100
0010
,
1000
0100
0010
1000
0001
1000
0010
0100
,
1000
0010
1000
0000
0001
0010
0001
0000
1000
0100
1000
0000
0001
0100
0001
0000
,
1000
0000
0100
0000
0010
0000
0001
0000
0100
0000
0010
0000
1000
0001
1000
0001
,
2000
0100
0000
0100
0000
0100
0000
0100
,
0000
0010
0000
0010
0000
0010
0000
3010
,
0200
0001
0000
0001
0000
0001
0000
0301
,
0010
0000
0100
0000
0010
0000
0100
0000
1000
0000
0001
0000
1000
0001
1000
0001
,
1000
1000
0010
0010
0001
0001
0010
0010
,
1000
1000
0100
0100
0001
0001
0100
1000
,
0001
0001
0100
0100
1000
1000
0100
0100
,
0001
0000
0001
0000
0010
0000
0010
0000
1000
0000
1000
0000
0010
0000
0001
1000
,
0002
0000
0000
0000
,
1003
0000
0000
1000
0000
0000
0010
0100
0010
0000
0000
0010
0000
0000
0100
0001
,
0100
0000
0000
0100
0000
0000
0001
0010
0001
0000
1000
0000
0001
0100
0001
0100
,
0010
0000
0000
0010
0000
0000
1000
0100
1000
0000
0000
1000
0000
0000
0001
0100
,
0001
0000
0000
0001
0000
0000
0010
0100
0010
0000
0001
1000
0001
0000
1000
0000
,
0001
0000
0000
0001
0000
0000
0100
0010
0100
0000
0000
0100
0000
0000
0010
1000
,
0010
0000
0000
0010
0000
0000
1000
0100
1000
0000
0001
0000
1000
0010
1000
0010
,
0100
0000
0000
0100
0000
0000
0001
0010
0001
0000
0000
0001
0000
0000
1000
0010
,
1000
0000
0000
1000
0000
0000
0100
0010
0100
0000
1000
0001
1000
0000
0001
0000
,
1000
0000
0000
1000
0000
0000
0001
0100
0001
0000
0000
0001
0000
0000
1000
0100
,
1000
0000
0000
1000
0000
0000
0001
0010
0001
0000
0100
0000
0010
1000
0010
1000
,
0100
0000
0000
0100
0000
0000
0010
0001
0010
0000
0000
0010
0000
0000
0001
1000
,
0001
0000
0000
0001
0000
0000
0100
0010
0100
0000
0001
1000
0001
0000
1000
0000
,
0001
0000
0000
1000
0001
0000
1000
0100
1000
0000
0000
0001
1000
0000
0001
0100
,
0001
0000
0000
1000
0001
0000
1000
0010
1000
0000
0100
0000
0010
0001
0010
0001
,
1000
0000
0000
0001
1000
0000
0001
0010
0001
0000
0000
1000
0001
0000
1000
0010
,
1000
0000
0000
1000
0000
0000
0100
0010
0100
0000
1000
0001
1000
0000
0001
0000
,
1000
0000
0100
0010
0000
0000
0001
0000
0100
0000
0100
0000
0010
0000
1000
0000
,
0001
0000
0010
0000
0001
0100
0000
0100
0010
0000
0100
0000
0001
0000
1000
0000
,
0100
0000
1000
0010
0000
0000
1000
0000
0100
0000
0100
0000
0010
0000
0001
0000
,
1000
0000
0010
0000
1000
0100
0000
0100
0010
0000
0100
0000
1000
0001
1000
0001
,
1000
0000
0010
0100
0000
0000
0001
0000
0010
0000
0010
0000
0100
0000
1000
0000
,
0001
0000
0100
0000
0001
0010
0000
0010
0100
0000
0010
0000
0001
0000
1000
0000
,
0010
0000
1000
0100
0000
0000
1000
0000
0010
0000
0010
0000
0100
0000
0001
0000
,
1000
0000
0100
0000
1000
0010
0000
0010
0100
0000
0010
0000
1000
0001
1000
0001
,
1000
0000
0001
0010
0000
0001
1000
0000
0001
0000
0100
0010
0000
0010
1000
0000
,
0001
0000
1000
0100
0000
1000
0001
0000
1000
0000
0010
0100
0000
0100
0001
0000
,
1000
0000
0100
0010
0000
0100
1000
0000
0001
0000
1000
0010
0000
0010
0100
0000
,
0001
0000
0010
0100
0000
0010
0001
0000
1000
0000
0001
0100
0000
0100
0010
0000
,
1000
0000
0001
0010
0000
0001
0100
0000
0010
0000
1000
0100
0000
0100
0010
0000
,
0001
0000
1000
0010
0000
1000
0100
0000
0010
0000
0001
0100
0000
0100
0010
0000
,
1000
0000
0001
1000
0000
0100
0010
0000
0001
0000
0100
0010
0000
0010
1000
0000
,
0001
0000
1000
0000
0001
0010
0001
0010
0100
1000
0100
1000
0010
0100
0010
0100
,
0001
0000
0000
0000
;

//---------------dance-single - ----------------
#NOTES:
     dance-single:
     :
     Hard:
     13:
     0.572741,0.592630,0.106506,0.038038,0.121721,527.000000,513.000000,14.000000,5.000000,0.000000,0.000000,0.572741,0.592630,0.106506,0.038038,0.121721,527.000000,513.000000,14.000000,5.000000,0.000000,0.000000:
0000
0000
0000
0000
,
0000
0000
0000
0000
,
0000
0000
0000
0000
,
0000
0000
0000
0000
,
0000
0000
0000
0000
,
1000
0100
0010
0100
1000
0010
0100
0000
,
0001
0010
0100
0010
0001
0100
0010
0000
,
1000
0100
0001
0100
1000
0001
0100
0000
,
0001
0010
1000
0010
0001
1000
0010
0000
,
1000
1000
0100
0010
0001
0100
0010
1000
,
0001
0001
0010
0100
1000
0010
0100
0001
,
1000
1000
0100
0010
0100
1000
0010
0100
,
0001
0001
0010
0100
0010
0001
0100
0010
,
1000
1000
0100
0001
0100
1000
0010
1000
,
0001
0001
0010
1000
0010
0001
0100
0001
,
1000
0100
1000
0100
0010
0001
0010
0001
,
0100
0010
0100
0010
1000
0000
1001
0000
,
0001
0000
0010
0100
0000
0000
1000
0000
0001
0000
0100
0000
1000
0000
0100
0000
,
0001
0000
0010
0000
0000
0100
0000
0000
0010
0000
0001
0000
1000
0000
0001
0000
,
1000
0000
0010
0100
0000
0000
0001
0000
1000
0000
0100
0000
0001
0000
0100
0000
,
1000
0000
0010
0000
0000
0100
0000
0000
0010
0000
1000
0000
0001
0000
1000
0000
,
0001
0000
1000
0100
0000
0000
1000
0000
0001
0000
0100
0000
0010
0000
0100
0000
,
0001
0000
0010
0000
0000
0100
0000
0000
1000
0000
0010
0000
1000
0000
0001
0000
,
1000
0000
0001
0010
0000
0000
0001
0000
1000
0000
0010
0000
0100
0000
0010
0000
,
1000
0000
0100
0000
0000
0010
0000
0000
0001
0000
0100
0000
0001
0000
1000
0000
,
0001
0000
0010
0100
0000
0010
0100
0000
1000
0000
0010
0000
0100
0000
0001
0000
,
0010
0000
0100
0000
0010
0001
0000
0001
1000
0000
0010
0000
0100
0000
0010
0000
,
1000
0000
0100
0010
0000
0100
0010
0000
0001
0000
0100
0000
0010
0000
1000
0000
,
0001
0000
0010
0000
0100
1000
0000
1000
0001
0000
0100
0000
0010
0000
0100
0000
,
0001
0000
1000
0100
0000
1000
0100
0000
1000
0000
0010
0000
0001
0000
0010
0000
,
1000
0000
0100
0000
0010
0001
0000
0001
0100
0000
0010
0000
1000
0000
0001
0000
,
1000
0000
0001
0010
0000
0001
0010
0000
0001
0000
0100
0000
1000
0000
0100
0000
,
0001
0000
0010
0000
0100
1000
0000
1000
0010
0000
0100
0000
0001
0000
1000
0000
,
0001
0010
0100
0010
1000
0010
0100
0010
,
0001
0100
0010
0100
1000
0100
0010
0100
,
0001
0010
0001
0010
0100
1000
0100
1000
,
0001
0100
0001
0100
0010
1000
0010
1000
,
0001
0010
1000
0010
0001
0100
0010
0100
,
0001
0010
0100
0010
0001
0100
1000
0100
,
0001
0010
0001
0010
0100
1000
0100
1000
,
0010
0100
0010
0100
0001
1000
0001
1000
,
0002
0000
0000
0000
,
0000
0000
0000
0000
,
2003
0000
0000
0000
,
3100
0010
0100
0010
0100
0010
0100
0010
,
0001
0001
0100
0010
1000
0100
0010
0001
,
1000
1000
0010
0100
0001
0010
0100
1000
,
0001
0001
0100
0010
0100
0001
0010
0100
,
1000
1000
0010
0100
0010
1000
0100
0010
,
0002
0000
0000
0000
,
1003
0010
0000
0010
0000
0010
0000
0010
,
0000
0001
0000
0001
0000
0001
0000
0001
,
0000
0010
0000
0010
0000
0010
0000
0010
,
0000
1000
0000
1000
0000
1000
0000
1000
,
0000
0100
0000
0100
0000
0100
0000
0100
,
0000
0001
0000
0001
0000
0001
0000
0001
,
0000
0100
0000
0100
0000
0100
0000
0100
,
0000
1000
0000
1000
0000
1000
0000
1000
,
0001
0101
0000
1100
,
0000
1010
0000
0011
,
0001
1001
0000
1100
,
0000
0000
0101
0000
0000
0000
0110
0010
,
1000
1100
0001
0101
,
1000
1010
0001
0011
,
1000
0100
0010
0000
0001
0100
0010
0000
,
2002
0000
0000
3003
,
1000
0000
0010
0100
0000
0000
0001
0000
1000
0000
0100
0000
0001
0000
0100
0000
,
1000
0000
0010
0000
0000
0100
0000
0000
0010
0000
1000
0000
0001
0000
1000
0000
,
0001
0000
0010
0100
0000
0000
1000
0000
0001
0000
0100
0000
1000
0000
0100
0000
,
0001
0000
0010
0000
0000
0100
0000
0000
0010
0000
0001
0000
1000
0000
0001
0000
,
1000
0000
0001
0100
0000
0000
0001
0000
1000
0000
0100
0000
0010
0000
0100
0000
,
1000
0000
0010
0000
0000
0100
0000
0000
0001
0000
0010
0000
0001
0000
1000
0000
,
0001
0000
1000
0010
0000
0000
1000
0000
0001
0000
0010
0000
0100
0000
0010
0000
,
0001
0000
0100
0000
0000
0010
0000
0000
1000
0000
0100
0000
1000
0000
0001
0000
,
1000
1000
0100
0010
0100
1000
0010
0100
,
0001
0001
0010
0100
0010
0001
0100
0010
,
1000
1000
0100
0001
0100
1000
0010
1000
,
0001
0001
0010
1000
0010
0001
0100
0001
,
1000
1000
0001
0100
0001
1000
0100
1000
,
0001
0001
1000
0100
1000
0001
0100
0001
,
1000
1000
0010
1000
0001
0010
0001
1000
,
0001
0100
0010
1000
0100
0010
0100
0010
,
0001
0000
0000
0000
;

//---------------dance-single - ----------------
#NOTES:
     dance-single:
     :
     Medium:
     9:
     0.394507,0.467866,0.152151,0.038038,0.000000,363.000000,343.000000,20.000000,5.000000,0.000000,0.000000,0.394507,0.467866,0.152151,0.038038,0.000000,363.000000,343.000000,20.000000,5.000000,0.000000,0.000000:
0000
0000
0000
0000
,
0000
0000
0000
0000
,
0000
0000
0000
0000
,
0000
0000
0000
0000
,
0000
0000
0000
0000
,
1000
0001
0000
0100
0000
0001
0000
1000
,
0000
0100
0000
0010
0000
0001
0000
1000
,
0001
1000
0000
0010
0000
1000
0000
0001
,
0000
0010
0000
0100
0000
1000
0000
0001
,
1000
0001
0000
0100
0000
0010
0000
1000
,
0001
1000
0000
0100
0000
0010
0000
0001
,
1000
0001
0000
1000
0000
0010
0000
1000
,
0001
1000
0000
0001
0000
0010
0000
0001
,
1000
0001
0000
1000
0100
1000
0000
0001
,
0100
0001
0000
0100
0010
0100
0000
0010
,
1000
0010
1000
0000
0001
0010
0001
0000
,
1000
0010
1000
0010
0100
0000
1001
0000
,
0001
0000
0010
0000
0100
1000
0100
0000
,
1000
0000
0010
0000
0100
0001
0100
0001
,
0010
0000
0001
0000
0100
0010
0100
0000
,
0010
0000
1000
0000
0100
0010
0100
0010
,
0001
0000
0100
0000
0010
1000
0010
0000
,
1000
0000
0100
0000
0010
0100
0010
0100
,
1000
0000
0010
0000
0100
0001
0100
0000
,
0001
0000
0010
0000
0100
0010
0100
0010
,
0001
0000
1001
0000
1000
0010
0100
0000
,
0001
0000
0010
0000
0100
0000
1000
0001
,
1000
0000
1001
0000
0001
0100
0010
0000
,
1000
0000
0100
0000
0010
0000
0001
1000
,
0001
0000
1001
0000
1000
0001
0010
0000
,
0001
0000
0100
0000
0010
0000
1000
0001
,
1000
0000
1001
0000
0001
1000
0100
0000
,
1000
0000
0010
0000
0100
0000
0001
1000
,
0001
0010
1000
0010
,
0001
0100
1000
0100
,
0001
0010
1000
0010
,
0001
0000
0100
0000
1000
0000
0100
0001
,
1000
0100
0001
0100
,
1000
0010
0001
0010
,
1000
0100
0001
0100
,
1000
0000
0010
0000
0001
0000
0010
1000
,
0002
0000
0000
0000
,
0000
0000
0000
0000
,
2003
0000
0000
0000
,
3100
0010
0100
0010
0100
0010
0100
0000
,
1000
0010
0000
1000
0100
1000
0000
0001
,
0100
0001
0000
0010
0100
0010
0000
0001
,
1000
0001
0000
0100
0010
0100
0000
0010
,
1000
0010
1000
0000
0001
0010
0001
0000
,
2000
0000
0000
0000
,
3001
0000
0001
0000
,
0100
0000
0000
0000
0100
0000
0010
0100
,
0010
0000
0010
0000
,
1000
0000
0000
0000
1000
0000
0001
1000
,
0001
0000
0001
0000
,
0010
0000
0000
0000
0010
0000
0100
0010
,
0100
0000
0100
0000
,
1000
0000
0000
0000
1000
0000
0001
1000
,
0001
0101
0000
1100
,
0000
1010
0000
0011
,
0001
1001
0000
1100
,
0000
0000
0101
0000
0000
0000
0110
0010
,
1000
1100
0001
0101
,
1000
1010
0001
0011
,
1000
1001
0001
1001
,
0220
0000
0000
0330
,
1000
0000
0010
0000
0100
0001
0100
0000
,
0001
0000
0010
0000
0100
1000
0100
1000
,
0010
0000
1000
0000
0100
0010
0100
0000
,
0010
0000
0001
0000
0100
0010
0100
0010
,
1000
0000
0100
0000
0010
0001
0010
0000
,
0001
0000
0100
0000
0010
0100
0010
0100
,
0001
0000
0010
0000
0100
1000
0100
0000
,
1000
0000
0010
0000
0100
0010
0100
0010
,
1000
1000
0100
0100
,
0010
0000
0010
0000
0001
0000
1000
0001
,
1000
1000
0010
0010
,
0100
0000
0100
0000
0001
0000
1000
0001
,
1000
1000
0100
0100
,
0010
0000
0010
0000
0100
0000
1000
0001
,
1000
1000
0010
0010
,
0100
0000
0100
0000
0010
0000
1000
0001
,
1000
0000
0000
0000
;

//---------------dance-single - ----------------
#NOTES:
     dance-single:
     :
     Easy:
     6:
     0.252137,0.311910,0.015215,0.038038,0.000000,232.000000,230.000000,2.000000,5.000000,0.000000,0.000000,0.252137,0.311910,0.015215,0.038038,0.000000,232.000000,230.000000,2.000000,5.000000,0.000000,0.000000:
0000
0000
0000
0000
,
0000
0000
0000
0000
,
0000
0000
0000
0000
,
0000
0000
0000
0000
,
0000
0000
0000
0000
,
1000
0000
1000
0000
,
0001
0000
0001
0000
,
0100
0000
0100
0000
,
0010
0000
0010
0000
,
1000
0000
1000
0000
,
0001
0000
0001
0000
,
0010
0000
0010
0000
,
0100
0000
0100
0000
,
1000
0000
1000
0000
,
0010
0000
0010
0000
,
1000
0100
0010
0001
,
1000
0001
1000
1001
,
0001
0100
0010
0100
,
0001
0010
0100
1000
,
0001
0100
0001
1000
,
0100
0010
0001
1000
,
0001
0100
0010
1000
,
0001
0010
0100
0010
,
0001
0100
0001
1000
,
0100
0010
0100
1000
,
0001
0100
0000
0010
,
1000
0100
0000
0010
,
0001
1000
0000
0010
,
1000
0100
0000
0010
,
0001
0100
0000
0010
,
1000
0001
0000
0010
,
0001
0100
0000
0010
,
1000
0100
0010
0001
,
1000
1000
0001
0001
,
0100
0100
0010
0010
,
1000
1000
0001
0001
,
0010
0010
0100
0100
,
1000
1000
0001
0001
,
0100
0100
0010
0010
,
1000
1000
0001
0001
,
0010
0100
1000
0010
,
2000
0000
0000
0000
,
0000
0000
0000
0000
,
3002
0000
0000
0000
,
1003
0100
0010
0001
,
1000
0000
1000
0000
,
0001
0000
0001
0000
,
0100
0000
0100
0000
,
0010
0100
0010
0100
,
0002
0000
0000
0000
,
1003
0000
0000
0000
,
0001
0000
0000
0000
,
0010
0000
0000
0000
,
0100
0000
0000
0000
,
1000
0000
0000
0000
,
0001
0000
0000
0000
,
0100
0000
0000
0000
,
0010
0000
0000
0000
,
1000
0100
0000
0100
,
0000
0100
0000
0100
,
0010
0001
0000
0001
,
0000
0001
0000
0001
,
1000
0010
1000
0100
,
0010
0001
0100
0001
,
1000
0100
1000
0010
,
2002
0000
0000
3003
,
1000
0100
0010
0100
,
1000
0010
0100
0001
,
1000
0100
1000
0001
,
0100
0010
1000
0001
,
1000
0100
0010
0001
,
1000
0010
0100
0010
,
1000
0100
1000
0001
,
0100
0010
0100
0001
,
1000
1000
0100
0100
,
0010
0001
0100
0010
,
1000
1000
0010
0010
,
0100
0001
0010
0100
,
1000
1000
0001
0001
,
0010
0100
1000
0010
,
1000
1000
0001
0001
,
0100
0010
1000
0001
,
1000
0000
0000
0000
;

//---------------dance-single - ----------------
#NOTES:
     dance-single:
     :
     Beginner:
     3:
     0.108680,0.187146,0.000000,0.015215,0.000000,100.000000,100.000000,0.000000,2.000000,0.000000,0.000000,0.108680,0.187146,0.000000,0.015215,0.000000,100.000000,100.000000,0.000000,2.000000,0.000000,0.000000:
// measure 0
0000
0000
0000
0000
,  // measure 1
0000
0000
0000
0000
,  // measure 2
0000
0000
0000
0000
,  // measure 3
0000
0000
0000
0000
,  // measure 4
0000
0000
0000
0000
,  // measure 5
1000
0000
0000
0000
,  // measure 6
0001
0000
0000
0000
,  // measure 7
0100
0000
0000
0000
,  // measure 8
0010
0000
0000
0000
,  // measure 9
1000
0000
0000
0000
,  // measure 10
0001
0000
0000
0000
,  // measure 11
0010
0000
0000
0000
,  // measure 12
0100
0000
0000
0000
,  // measure 13
1000
0000
0000
0000
,  // measure 14
0001
0000
0000
0000
,  // measure 15
1000
0000
1000
0000
,  // measure 16
0001
1000
0001
0000
,  // measure 17
1000
0000
0000
0000
,  // measure 18
0010
0000
0000
0000
,  // measure 19
0100
0000
0000
0000
,  // measure 20
0001
0000
0000
0000
,  // measure 21
1000
0000
0000
0000
,  // measure 22
0100
0000
0000
0000
,  // measure 23
0010
0000
0000
0000
,  // measure 24
0001
0000
0000
0000
,  // measure 25
1000
0000
0000
0000
,  // measure 26
0001
0000
0000
0000
,  // measure 27
0100
0000
0000
0000
,  // measure 28
0010
0000
0000
0000
,  // measure 29
1000
0000
0000
0000
,  // measure 30
0001
0000
0000
0000
,  // measure 31
0010
0000
0000
0000
,  // measure 32
0100
0000
0000
0000
,  // measure 33
1000
0000
1000
0000
,  // measure 34
0010
0000
0010
0000
,  // measure 35
1000
0000
1000
0000
,  // measure 36
0010
0000
0010
0000
,  // measure 37
0100
0000
0100
0000
,  // measure 38
0001
0000
0001
0000
,  // measure 39
0100
0000
0100
0000
,  // measure 40
0001
0000
0001
0000
,  // measure 41
1000
0000
0000
0000
,  // measure 42
0000
0000
0000
0000
,  // measure 43
0001
0000
0000
0000
,  // measure 44
1000
0000
0001
0000
,  // measure 45
1000
0000
0000
0000
,  // measure 46
0001
0000
0000
0000
,  // measure 47
0010
0000
0000
0000
,  // measure 48
0100
0000
0000
0000
,  // measure 49
2000
0000
0000
0000
,  // measure 50
3001
0000
0000
0000
,  // measure 51
0000
0000
0000
0000
,  // measure 52
1000
0000
0000
0000
,  // measure 53
0000
0000
0000
0000
,  // measure 54
0001
0000
0000
0000
,  // measure 55
0000
0000
0000
0000
,  // measure 56
1000
0000
0000
0000
,  // measure 57
0000
0000
0000
0000
,  // measure 58
0000
0001
0000
0001
,  // measure 59
0000
0001
0000
0001
,  // measure 60
0000
1000
0000
1000
,  // measure 61
0000
1000
0000
1000
,  // measure 62
0001
0000
0010
0000
,  // measure 63
0100
0000
1000
0000
,  // measure 64
0001
0000
0100
0000
,  // measure 65
0020
0000
0000
0030
,  // measure 66
1000
0000
0000
0000
,  // measure 67
0100
0000
0000
0000
,  // measure 68
0010
0000
0000
0000
,  // measure 69
0001
0000
0000
0000
,  // measure 70
1000
0000
0000
0000
,  // measure 71
0010
0000
0000
0000
,  // measure 72
0100
0000
0000
0000
,  // measure 73
0001
0000
0000
0000
,  // measure 74
1000
0000
1000
0000
,  // measure 75
0001
0000
0001
0000
,  // measure 76
0010
0000
0010
0000
,  // measure 77
0100
0000
0100
0000
,  // measure 78
1000
0000
1000
0000
,  // measure 79
0001
0000
0001
0000
,  // measure 80
0100
0000
0100
0000
,  // measure 81
0010
0000
0010
0000
,  // measure 82
1000
0000
0000
0000
;
