#TITLE:Disable Mark;
#SUBTITLE:;
#ARTIST:RoughSketch REVET D-crew;
#TITLETRANSLIT:;
#SUBTITLETRANSLIT:;
#ARTISTTRANSLIT:;
#GENRE:GABBA;
#CREDIT:;
#BANNER:Disable Mark.png;
#BACKGROUND:Disable Mark-bg.png;
#LYRICSPATH:;
#CDTITLE:cdtitle.png;
#MUSIC:Disable Mark.ogg;
#OFFSET:-0.720000;
#SAMPLESTART:20.393896;
#SAMPLELENGTH:9.846153;
#SELECTABLE:YES;
#BPMS:0.000000=195.000000
,202.000000=97.500000
,219.000000=195.000000
;
#STOPS:202.000000=1.231000
;
#BGCHANGES:;
#KEYSOUNDS:;
#ATTACKS:;

//---------------dance-single - ----------------
#NOTES:
     dance-single:
     :
     Challenge:
     16:
     0.848467,1.039372,0.137126,0.094274,0.664204,693.000000,677.000000,16.000000,11.000000,0.000000,0.000000,0.848467,1.039372,0.137126,0.094274,0.664204,693.000000,677.000000,16.000000,11.000000,0.000000,0.000000:
0000
0000
0000
0000
,
0000
0000
0000
0000
,
0000
0000
0000
0000
,
0000
0000
0000
0000
,
1001
0000
0000
0001
1000
0000
0000
1000
,
0010
1000
0000
0100
0010
0000
0001
0000
,
1001
0000
0000
1000
0001
0000
0000
0001
,
0100
0001
0000
0010
0100
0000
1000
0000
,
0001
1000
0000
1000
0010
0001
0000
0001
,
0010
1000
0000
1000
0100
0010
0001
0100
,
0010
1000
0010
1000
0100
0010
0100
0010
,
0001
0100
1000
0100
0001
0010
1000
0010
,
0001
0001
0100
0010
1000
0100
0010
0001
,
1000
1000
0010
0100
0001
0010
0100
1000
,
0001
1000
0001
1000
0001
1000
0001
1000
0010
0100
0010
0100
0010
0100
0010
0100
,
0002
0000
0000
1003
0100
0010
0001
0000
,
1000
0010
0100
0010
0001
0010
0100
0010
,
1000
0100
0010
0100
1000
0100
0001
0100
,
1000
0010
0100
0010
1000
0010
0001
0010
,
1000
0100
0010
0100
0001
0100
0010
0100
,
1000
0010
1000
0001
0010
0100
1000
0001
,
2000
0000
3001
0010
1000
0001
0100
1000
,
0002
0000
0000
0000
1003
0000
0010
0000
0001
0000
1000
0000
0100
0000
0001
1000
,
0001
0010
0001
0010
0100
0100
1000
0001
,
1000
0000
0100
0000
0010
0000
0001
0100
0001
0000
1000
0000
,
0100
0000
0010
0000
0100
0000
1000
0001
1000
0000
0010
0000
,
1000
0100
0010
0000
0001
0000
0100
0010
1000
0000
0001
0000
,
0010
0000
0000
0000
0100
0000
0000
0000
0010
0000
0000
0000
0000
0000
0000
0000
0001
0000
0000
0000
0000
0000
0000
0000
1000
0000
0000
0000
0010
0000
0000
0000
0100
0000
0000
0000
0000
0000
0000
0000
0001
0000
0000
0000
0000
0010
0000
0000
,
0100
0010
0100
1000
0010
0000
0000
1000
0100
1000
0001
0000
1000
0000
0000
0010
,
0100
0000
0000
0100
0001
0000
0010
0000
0001
0000
0100
0000
1000
0000
0100
0000
,
0001
0000
0010
0000
0100
0000
1000
0000
0010
0000
0100
0001
0000
0001
0010
0000
,
0001
0000
0101
0000
0101
0000
1000
0000
1100
0000
1100
0000
,
2002
0000
0000
3003
,
1000
0000
1100
0000
0100
0010
0001
0000
0101
0000
0100
0010
,
1000
0000
0100
0000
0000
1000
0010
0000
,
0000
0000
0100
0000
0001
0000
0000
0000
0000
0000
0010
0000
0100
0000
1000
0001
,
1000
0000
0001
0000
0000
0100
0010
0000
,
0000
0000
1000
0100
1000
0000
0010
0000
0000
0000
0010
0100
0010
0000
0100
0000
,
0001
0000
0010
0100
0000
0100
1000
0001
,
0000
0000
1000
0000
0100
0000
0010
0000
0000
0000
0001
0100
0001
0000
1000
0000
,
0001
0000
1000
0100
0010
0000
0100
0000
0000
0000
1000
0000
0010
0000
0001
0000
,
0010
0000
1000
0001
1000
0000
0100
0000
0010
0000
0001
0000
0200
0000
0000
0000
,
0301
0000
0000
0000
1000
0000
0001
0010
0001
0010
0001
0010
0001
0000
1000
0010
,
1000
0010
1000
0010
1000
0000
0001
0100
0001
0100
0001
0100
0001
0000
0010
0000
,
0100
0000
0000
0000
1000
0000
0010
0100
0010
0100
0010
0100
0010
0000
1000
0100
,
1000
0100
1000
0100
1000
0000
0001
1000
0001
1000
0001
1000
0001
0100
0001
0000
,
0010
0000
0100
1000
0001
0000
0100
0001
1000
0000
0010
1000
0001
0000
0100
0000
,
0001
0000
0010
0100
1000
0000
0010
0100
0001
0000
1000
0100
0010
0001
0010
0001
,
0010
0100
1000
0000
0010
0000
0100
0001
0100
0000
0010
0000
1000
0100
1000
0000
,
0001
0000
0010
0100
1000
0000
0001
0000
0000
0000
2002
0000
0000
0000
0000
0000
,
0003
0000
0000
0000
0000
0000
0000
0000
3000
0000
0000
0000
1000
0000
0001
0100
,
0001
0100
0001
0010
0100
0000
1000
0010
0000
0010
0100
0000
0001
0000
0010
0100
,
0010
0100
0010
0001
1000
0010
1000
0010
0100
0001
0100
0001
0010
0000
0010
0100
,
0000
0100
1000
0000
1000
0010
0000
0010
0100
0001
1000
0001
1000
0000
0100
0010
,
0001
0100
0010
0100
0001
1000
0001
0000
1000
0100
0010
0001
1000
0000
0000
0000
,
1000
0010
0010
0100
,
0100
0001
0001
1000
,
1000
0100
0100
0010
,
0010
0000
0001
0000
0001
0000
1000
0010
,
0100
0010
1000
0100
0010
0001
0100
0010
,
0100
0001
0010
0100
1000
0001
2000
0000
,
0000
0000
0000
3002
,
0000
0000
0000
0000
0000
0000
0000
0000
1003
0000
0000
0000
0001
0000
1000
0010
,
1000
0000
0100
0000
0010
0000
0001
0000
0100
0010
0100
0000
0001
0000
1000
0000
,
0100
0000
0000
1000
0000
0000
0100
0000
0000
0000
0000
0000
1000
0000
0000
0000
0000
0000
0001
0000
0000
0000
0000
0000
0100
0000
0000
0000
0010
0000
0000
0000
1000
0000
0000
0000
0001
0000
0000
0000
0000
0000
0010
0000
0000
0100
0000
0000
,
0010
0000
0001
0000
1000
0000
0010
0000
1000
0100
1000
0000
0001
0000
0100
0000
,
0010
1000
0010
0000
1000
0000
0100
0000
0010
0000
0001
1000
0100
0000
1000
0010
,
1000
0000
0100
0000
0010
0000
0001
0000
0100
0010
0100
0000
0010
0000
1000
0000
,
0100
1000
0100
0000
0010
0000
0001
0000
1000
0010
1000
0010
1000
0000
0001
0000
,
0010
0000
0100
1000
0100
0000
1000
0000
0020
0000
0000
0000
1030
0000
0100
0000
,
0010
0001
0010
0000
0001
0000
0100
0000
1000
0000
0100
0000
0001
0010
0001
0000
,
1000
0010
0001
1000
0100
0001
1000
0100
,
0010
0000
0001
0000
0100
0000
1000
0000
0100
0001
0100
0000
0001
0000
0010
0000
,
1000
0001
0100
1000
0001
0100
0010
1000
,
0100
0000
0001
0000
0100
0000
1000
0000
0001
0100
0001
0000
1000
0000
0100
0000
,
0010
1000
0010
0001
1000
0001
0100
0010
,
0001
0000
0010
0000
1000
0000
0001
0000
0010
0100
0010
0000
0001
0000
1000
0000
,
0010
0000
0100
0000
1000
0000
0100
0000
0010
0000
0100
0000
0001
0000
1000
0100
,
1000
0000
0001
0100
0001
0000
1000
0001
1000
0000
0000
0000
0001
0000
1000
0100
,
1000
0000
0100
0010
0100
0000
0010
0001
0010
0000
0001
0000
0100
0000
0010
0000
,
1000
0000
1001
0000
0000
0000
0010
0100
0010
0000
1000
0000
0001
0000
0010
0000
,
0100
0000
1000
0010
1000
0000
0001
0100
0001
0000
1000
0100
0010
0000
0001
1000
,
0001
0000
1000
0010
0100
0000
0001
0100
0001
0000
0010
0100
1000
0000
0010
0000
,
0001
0010
0100
0001
1000
0100
1000
0010
,
0100
0000
0001
0000
0010
0000
0100
1000
0100
0000
0010
0000
0001
0000
1000
0010
,
1000
0100
1000
0100
0010
0001
0010
0001
0100
0010
0100
0010
0000
0000
1010
0000
,
0000
0011
0000
0000
0101
0000
0000
1100
0000
0000
1001
0000
0000
0000
0000
0000
;

//---------------dance-single - ----------------
#NOTES:
     dance-single:
     :
     Hard:
     13:
     0.680733,0.742409,0.102845,0.085704,0.184263,556.000000,544.000000,12.000000,10.000000,0.000000,0.000000,0.680733,0.742409,0.102845,0.085704,0.184263,556.000000,544.000000,12.000000,10.000000,0.000000,0.000000:
0000
0000
0000
0000
,
0000
0000
0000
0000
,
0000
0000
0000
0000
,
0000
0000
0000
0000
,
1001
0000
0000
0001
1000
0000
0000
1000
,
0010
1000
0000
0001
1000
0000
0001
0000
,
1001
0000
0000
1000
0001
0000
0000
0001
,
0100
0001
0000
1000
0001
0000
2000
0000
,
3001
0010
0000
0010
0100
1000
0000
1000
,
0010
0100
0000
0100
0001
1000
0001
1000
,
0001
0010
0001
0000
1000
0010
1000
0000
,
0001
0100
0001
0100
0010
1000
0001
0000
,
1000
0100
0010
0001
1000
0010
0100
0001
,
1000
0100
0010
0001
1000
0010
0100
0001
,
1000
0100
0001
0100
1000
0010
0001
0010
,
2000
0000
0000
0000
3001
0010
0100
0000
,
1000
0010
0100
0010
1000
0100
0010
0001
,
0100
0010
1000
0001
0010
0100
0010
0001
,
1000
0010
1000
0100
0010
0001
0100
0001
,
1000
0100
0010
0001
1000
0010
0100
0001
,
0010
0100
0010
0100
1000
0010
1000
0001
,
0020
0000
0031
0100
0001
1000
0100
1000
,
0020
0000
1030
0100
0010
0001
0100
0010
,
1000
0001
1000
0001
0010
0100
0010
0000
,
0000
0000
0001
1000
0000
0000
0001
0000
0000
0101
0000
0000
,
1000
0000
0000
1100
0000
0000
0010
0000
0010
0100
0000
0000
,
0001
0000
0000
0110
0000
0000
1000
0000
0000
0110
0000
0001
,
1000
0000
1000
0100
0000
0100
0010
0000
0000
1001
0000
0000
,
1000
0010
1000
0010
1000
0000
0000
0000
0001
0000
0010
0000
0100
0000
0000
0000
,
1000
0000
0000
1000
0010
0000
0100
0000
0001
0000
0010
0000
0100
0000
0000
0000
,
1000
0000
0010
0000
0100
0000
0001
0000
0010
0000
0001
1000
0000
0001
1000
0000
,
0001
0000
0100
0000
0010
0000
1000
0000
0100
0000
0010
0000
,
0002
0000
0000
0000
,
1003
0000
1000
0000
0010
0100
0001
0000
0001
0000
0010
0100
,
1000
0000
0010
0000
0000
1000
0001
0000
,
0000
0010
0100
0000
0000
1000
0001
1000
,
0010
0000
0100
0000
0000
0001
1000
0000
,
0000
0100
0010
0001
0000
0100
0010
1000
,
0001
0000
0010
0100
0000
0100
0010
0001
,
0000
1000
0010
0001
0000
0001
0010
1000
,
0100
0010
0001
1000
0000
1000
0001
0100
,
0001
0010
0001
0100
1000
0100
0001
0000
,
1000
0000
0000
0000
0001
0000
1000
0100
1000
0000
0001
0000
1000
0000
0001
0010
,
0001
0000
1000
0000
0001
0000
1000
0100
1000
0000
0001
0000
1000
0000
0010
0000
,
0100
0000
0000
0000
0001
0000
1000
0010
1000
0000
0001
0000
1000
0000
0001
0100
,
0001
0000
1000
0000
0001
0000
1000
0010
1000
0000
0001
0000
1000
0000
0100
0000
,
0010
0000
0000
0010
0001
0000
0000
0001
0100
0000
0000
0100
0010
0000
1000
0000
,
0100
0000
0000
0100
0010
0000
0000
0010
0001
0000
0000
0001
1000
0000
0010
0000
,
1000
0100
1000
0100
0010
0001
0010
0001
,
1000
0010
0100
0001
0000
2002
0000
0000
,
0003
0000
0000
0000
0000
0000
0000
0000
3000
0000
0000
0000
0001
0000
1000
0100
,
1000
0000
0001
0000
0100
0000
0010
1000
0000
1000
0100
0000
0010
0000
0001
1000
,
0001
0000
0100
0000
0010
0000
1000
0000
0100
0000
0010
0000
0001
0000
0001
0100
,
0000
0100
0010
0000
0010
1000
0000
1000
0100
0000
0010
0000
0100
0000
1000
0010
,
1000
0001
0010
0100
1000
0001
1000
0000
,
1000
0001
0001
0100
,
0100
0010
0010
1000
,
1000
0001
0001
0010
,
0010
0100
0100
1000
,
1000
0010
0000
0010
0100
0000
0100
0001
,
0000
0001
1000
0100
0010
0001
2000
0000
,
0000
0000
0000
3002
,
0000
0000
0000
0000
1003
0000
0001
0100
,
0001
1000
0100
1000
0010
0100
0010
1000
,
0100
0010
0001
0100
0001
0000
1000
0010
,
1000
0001
0010
0001
0100
0010
0100
0001
,
0010
0100
1000
0010
1000
0000
0001
0010
,
0100
1000
0010
0100
0001
0010
0001
1000
,
0010
1000
0100
0010
0001
0000
1000
0010
,
0100
0001
0010
0100
1000
0010
2000
0000
,
0000
0000
0000
0000
0000
0000
3001
0010
,
0001
1000
0001
0100
0010
0100
0001
0100
,
1000
0100
0001
0010
0100
1000
0001
0100
,
0010
1000
0100
0010
0001
1000
0010
0100
,
0010
1000
0010
0001
0010
1000
0001
0010
,
0001
1000
0010
0100
0001
0010
0001
0100
,
0001
1000
0100
0010
0001
1000
0001
0100
,
0010
1000
0001
0010
0100
1000
0010
0100
,
0010
1000
0010
0100
0010
0000
1000
0100
,
0001
0100
1000
0100
0001
0100
1000
0010
,
0100
0001
0000
0010
0100
0010
0100
1000
,
0001
0000
0100
0000
0110
0000
1000
0010
,
0001
0010
1000
0010
0001
0010
1000
0100
,
0010
0001
0000
0100
0010
0100
0001
0010
,
0100
1000
0010
0100
0001
0010
0001
0100
,
1000
0100
0001
0010
1000
0010
0000
0001
,
0000
0101
0000
0000
1000
0000
0000
1100
0000
0000
1001
0000
0000
0000
0000
0000
;

//---------------dance-single - ----------------
#NOTES:
     dance-single:
     :
     Medium:
     10:
     0.476268,0.593927,0.068563,0.085704,0.034282,389.000000,381.000000,8.000000,10.000000,0.000000,0.000000,0.476268,0.593927,0.068563,0.085704,0.034282,389.000000,381.000000,8.000000,10.000000,0.000000,0.000000:
0000
0000
0000
0000
,
0000
0000
0000
0000
,
0000
0000
0000
0000
,
0000
0000
0000
0000
,
1001
0000
0000
0001
1000
0000
0000
0001
,
0000
0100
0000
0001
0010
0000
0001
0000
,
1001
0000
0000
1000
0001
0000
0000
1000
,
0000
0100
0000
1000
0010
0000
2000
0000
,
3001
1000
0000
0001
0100
0001
0000
1000
,
0100
1000
0000
0001
1000
0001
0000
1000
,
0010
0100
0010
0000
0100
0000
0001
0000
,
0010
0000
0100
0000
1000
0010
1000
0010
,
0100
0010
0100
0000
0001
1000
0001
0000
,
0010
0100
0010
0000
0001
1000
0001
0000
,
1000
0100
1000
0100
0010
0001
0010
0001
,
0200
0000
0000
0310
,
1000
0000
0100
0000
0010
0000
0100
1000
,
0100
0000
1000
0000
0010
0000
0100
0001
,
0100
0000
0010
0000
1000
0000
0001
0010
,
0001
0000
1000
0000
0010
0100
0010
0100
,
0001
0000
0010
0000
0100
0000
1000
0010
,
2000
0000
3100
0000
0010
0000
0001
0100
,
0002
0000
0013
0000
0100
0000
1000
0001
,
1000
0100
1000
0100
0010
0001
0010
0000
,
0001
0001
0100
0100
,
0010
0010
1000
1000
,
0100
0100
0010
0010
,
0001
0001
1000
1000
,
0001
0101
1000
1100
,
0100
0010
0001
0100
,
0001
0000
0010
0000
0001
1000
0001
1000
,
0200
0000
0000
0000
,
0320
0000
0000
0000
,
0031
0000
1000
0000
,
0001
0000
0010
0000
0000
0001
1000
0000
,
0000
0000
0100
0000
0000
1000
0001
0000
,
0010
0000
0100
0000
0000
1000
0010
0000
,
0000
0000
0100
0000
0000
0001
0010
0001
,
1000
0000
0010
0000
0000
0100
0001
0000
,
0000
0010
0100
0000
0000
1000
0001
0000
,
1000
0000
0100
0000
0000
1000
0001
0000
,
0010
0000
0010
0000
0100
1000
0100
0000
,
1000
0010
0000
0110
,
0000
0001
0000
0110
,
1000
0001
0000
0101
,
0000
1000
0000
1100
,
0100
0000
0010
0000
0001
0000
1000
0010
,
1000
0000
0100
0000
0010
0000
0001
0100
,
0001
0000
0100
0010
0100
0000
0010
1000
,
0010
0000
0000
1000
0000
0002
0000
0000
,
0000
0000
0003
1000
,
0001
0000
0000
1000
0001
0000
0000
0001
0100
0000
0000
0000
0010
0000
0000
0000
,
1000
0000
0000
0100
0010
0000
0000
0010
0001
0000
0100
0000
0001
0000
0000
0000
,
1000
0000
0000
0010
0100
0000
0000
0100
0001
0000
0010
0000
0001
0000
0100
0000
,
0010
1000
0100
0010
0001
1000
0001
0000
,
1000
0001
1000
0010
,
0100
0010
0100
0001
,
1000
0001
1000
0100
,
0010
0100
0010
0001
,
0100
0010
1000
0001
,
0010
0100
1000
0002
,
0000
0000
0000
2003
,
0000
0000
0000
0000
0000
0000
3001
0010
,
0001
0000
0100
0000
0010
0000
1000
0100
,
1000
0000
0010
0100
0010
0000
1000
0100
,
1000
0000
0010
0000
0100
0000
0001
0010
,
0001
0000
1000
0001
1000
0000
0010
0100
,
0010
0000
1000
0000
0100
0000
0010
0001
,
0010
0000
0001
0100
0001
0000
1000
0001
,
1000
0010
0100
0002
,
0000
0000
0000
0013
,
0010
0000
0100
1000
0100
0000
1000
0010
,
1000
0000
0001
0100
0001
0000
1000
0100
,
0010
0000
0001
0100
0010
0000
0100
0001
,
1000
0000
0100
1000
0001
0000
0010
0100
,
0010
0100
0000
1000
0010
1000
0001
0000
,
0010
0000
0100
1000
0100
1000
0001
0000
,
0100
0000
0010
0000
1000
0100
0010
0000
,
0010
0010
0010
0001
,
0001
0000
0100
0000
0100
0000
0010
0100
,
0010
0100
0000
0001
0010
0100
1000
0001
,
1000
0000
0010
0000
0100
0000
0001
0010
,
0001
0010
0100
1000
0100
1000
0010
0100
,
0010
1000
0100
0010
,
0100
0000
1000
0000
0001
0000
1000
0010
,
1000
0000
0001
0010
0001
0000
0000
1000
,
0000
0001
0000
0000
1000
0000
0000
0001
0000
0000
1000
0000
0000
0000
0000
0000
;

//---------------dance-single - ----------------
#NOTES:
     dance-single:
     :
     Easy:
     8:
     0.368526,0.445445,0.034282,0.077133,0.000000,301.000000,297.000000,4.000000,9.000000,0.000000,0.000000,0.368526,0.445445,0.034282,0.077133,0.000000,301.000000,297.000000,4.000000,9.000000,0.000000,0.000000:
0000
0000
0000
0000
,
0000
0000
0000
0000
,
0000
0000
0000
0000
,
0000
0000
0000
0000
,
1000
0000
0001
0000
,
0010
0000
0100
0000
,
1000
0000
0001
0000
,
0100
0000
0010
0000
,
1000
1000
0100
0100
,
0010
0010
0001
0001
,
1000
1000
0010
0010
,
0100
0100
0001
0001
,
1000
0100
1000
0010
,
0100
0001
0010
0001
,
1000
0010
1000
0001
,
0020
0000
0000
0130
,
1000
0010
1000
0001
,
1000
0000
0100
0000
0010
0000
0001
1000
,
0001
0100
0001
1000
,
0001
0000
0010
0000
0100
0000
1000
0001
,
1000
0100
0010
0001
,
0200
0310
1000
0001
,
0020
0130
1000
0010
,
1000
0000
0001
0000
1000
0001
1000
0000
,
0001
0100
0010
0110
,
1000
0100
0010
0110
,
0001
1000
0010
1010
,
1000
0001
0010
0011
,
0001
1000
0010
0100
,
0001
0010
0100
1000
,
0010
0000
0100
0000
0001
0000
1000
0001
,
2000
0000
0000
0000
,
3002
0000
0000
0000
,
0103
0000
0010
0000
,
1000
0100
0000
0010
,
0000
0001
0000
0100
,
0001
1000
0000
0100
,
0000
0010
0000
0100
,
1000
0001
0000
0100
,
0000
0010
0000
1000
,
0100
1000
0000
0001
,
0100
0100
0010
0010
,
1000
1000
0100
0010
,
0001
0100
0010
1000
,
0001
0001
0010
0100
,
1000
0010
0100
0001
,
1000
1000
0001
0001
,
0010
0010
0100
0100
,
1000
0100
0010
0001
,
1000
0000
0000
0001
0000
2000
0000
0000
,
0000
0000
3000
0001
,
0010
0100
1000
0010
,
0100
0001
1000
0100
,
0010
0001
0100
0010
,
1000
0000
0001
0010
0001
0100
0010
0000
,
0000
0010
0000
1000
,
0000
1000
0000
0001
,
0000
0001
0000
1000
,
0000
1000
0000
0100
,
0010
0001
0100
0001
,
0010
0100
1000
0020
,
0000
0000
0000
2030
,
0000
0000
3001
1000
,
0100
0010
0100
1000
,
0010
0000
0100
0000
0001
1000
0001
0000
,
0010
0100
0010
0001
,
0100
0000
0010
1000
0010
1000
0001
0000
,
0010
0100
1000
0010
,
0100
0000
0001
1000
0001
0000
1000
0000
,
0100
0010
0001
0200
,
0000
0000
0000
0310
,
0010
1000
1000
0100
,
0100
0010
0010
0001
,
0001
0100
0100
0001
,
0001
0000
0010
0000
0010
0100
1000
0000
,
0010
0000
0100
0000
0001
0010
0001
0000
,
0100
0000
0001
1000
0001
1000
0001
0000
,
1000
0100
0010
0001
,
0001
1000
1000
0010
,
0010
0000
0100
0000
0100
0000
0001
1000
,
0001
0000
0000
0000
1000
0010
1000
0000
,
0100
0010
0001
0100
,
0100
0010
0010
1000
,
0100
0010
0100
1000
,
0001
0100
0010
0100
,
0001
0000
0010
0000
0100
0000
0000
1000
,
0000
0000
0001
0000
0000
1000
0000
0000
;

//---------------dance-single - ----------------
#NOTES:
     dance-single:
     :
     Beginner:
     5:
     0.175081,0.185602,0.008570,0.051422,0.000000,143.000000,142.000000,1.000000,6.000000,0.000000,0.000000,0.175081,0.185602,0.008570,0.051422,0.000000,143.000000,142.000000,1.000000,6.000000,0.000000,0.000000:
// measure 0
0000
0000
0000
0000
,  // measure 1
0000
0000
0000
0000
,  // measure 2
0000
0000
0000
0000
,  // measure 3
0000
0000
0000
0000
,  // measure 4
0001
0000
0000
0000
,  // measure 5
1000
0000
0000
0000
,  // measure 6
0001
0000
0000
0000
,  // measure 7
1000
0000
0000
0000
,  // measure 8
0001
0000
0001
0000
,  // measure 9
0100
0000
0100
0000
,  // measure 10
0010
0000
0010
0000
,  // measure 11
1000
0000
1000
0000
,  // measure 12
0001
0000
0001
0000
,  // measure 13
0010
0000
0010
0000
,  // measure 14
0100
0000
0100
0000
,  // measure 15
2000
0000
0000
3000
,  // measure 16
0001
0000
1000
0000
,  // measure 17
0001
0000
1000
0000
,  // measure 18
0010
0000
0100
0000
,  // measure 19
0010
0000
0100
0000
,  // measure 20
0001
0000
1000
0000
,  // measure 21
0001
0000
1000
0000
,  // measure 22
0100
0000
0010
0000
,  // measure 23
0100
0000
0010
0000
,  // measure 24
0001
0000
0000
0000
,  // measure 25
0100
0000
0000
0000
,  // measure 26
0010
0000
0000
0000
,  // measure 27
1000
0000
0000
0000
,  // measure 28
0001
0000
0001
0000
,  // measure 29
0010
0000
0010
0000
,  // measure 30
0100
0000
0100
0000
,  // measure 31
1000
0000
1000
0000
,  // measure 32
0002
0000
0000
0003
,  // measure 33
2000
0000
0000
3000
,  // measure 34
0000
0001
0000
1000
,  // measure 35
0000
0001
0000
1000
,  // measure 36
0000
0100
0000
0010
,  // measure 37
0000
0100
0000
0010
,  // measure 38
0000
0001
0000
1000
,  // measure 39
0000
0001
0000
1000
,  // measure 40
0000
0010
0000
0100
,  // measure 41
0000
0010
0000
0100
,  // measure 42
0000
0001
0000
1000
,  // measure 43
0000
0010
0000
0100
,  // measure 44
0000
0001
0000
1000
,  // measure 45
0000
0100
0000
0010
,  // measure 46
0000
0001
0000
0001
,  // measure 47
0000
0100
0000
0100
,  // measure 48
0000
0010
0000
0000
,  // measure 49
0010
0000
0000
0000
0000
2000
0000
0000
,  // measure 50
0000
0000
3000
0001
,  // measure 51
0000
0010
0000
0100
,  // measure 52
0000
1000
0000
0001
,  // measure 53
0000
0100
0000
0010
,  // measure 54
0000
1000
0000
0001
,  // measure 55
0000
0000
0000
0000
,  // measure 56
0000
0000
0000
1000
,  // measure 57
0000
0000
0000
0000
,  // measure 58
0000
0000
0000
0001
,  // measure 59
0000
0000
0000
1000
,  // measure 60
0000
0000
0000
1001
,  // measure 61
0000
0000
0000
0002
,  // measure 62
0000
0000
0003
1000
,  // measure 63
0000
0010
0000
1000
,  // measure 64
0000
0010
0000
0100
,  // measure 65
0000
0001
0000
0100
,  // measure 66
0000
0001
0000
1000
,  // measure 67
0000
0100
0000
1000
,  // measure 68
0000
0100
0000
0010
,  // measure 69
0000
0001
0000
0020
,  // measure 70
0000
0000
0030
0001
,  // measure 71
0000
1000
0000
0001
,  // measure 72
0000
1000
0000
0010
,  // measure 73
0000
0100
0000
0010
,  // measure 74
0000
0100
0000
0001
,  // measure 75
0000
1000
0000
0001
,  // measure 76
0000
1000
0000
0100
,  // measure 77
0000
0010
0000
0100
,  // measure 78
0000
0010
0000
0001
,  // measure 79
0000
0100
0000
0001
,  // measure 80
0000
0100
0000
0010
,  // measure 81
0000
1000
0000
0010
,  // measure 82
0000
1000
0000
0100
,  // measure 83
0000
0010
0000
0100
,  // measure 84
0000
0010
0000
0001
,  // measure 85
0000
0000
1000
0000
0000
0000
0000
0001
,  // measure 86
0000
0000
1000
0000
0000
0001
0000
0000
;
