#TITLE:ちゅるりちゅるりら;
#SUBTITLE:;
#ARTIST:でんぱ組.inc;
#TITLETRANSLIT:Chururi Chururira;
#SUBTITLETRANSLIT:;
#ARTISTTRANSLIT:Dempagumi.inc;
#GENRE:DENPA;
#CREDIT:;
#BANNER:Chururi chururira.png;
#BACKGROUND:Chururi chururira-bg.png;
#LYRICSPATH:;
#CDTITLE:cdtitle.png;
#MUSIC:Chururi Chururira.ogg;
#OFFSET:-0.080000;
#SAMPLESTART:108.050003;
#SAMPLELENGTH:9.439999;
#SELECTABLE:YES;
#BPMS:0.000000=200.000000
,312.000000=100.000000
,332.000000=200.000000
;
#STOPS:
;
#BGCHANGES:0.000=Chururi Chururira.avi=1.000=0=0=0=StretchNoLoop==CrossFade_Fastest==,
99999=-nosongbg-=1.000=0=0=0 // don't automatically add -songbackground-
;
#KEYSOUNDS:;
#ATTACKS:;

//---------------dance-single - ----------------
#NOTES:
     dance-single:
     :
     Challenge:
     14:
     0.776818,1.387595,0.440506,0.187757,0.328574,753.000000,692.000000,61.000000,26.000000,0.000000,0.000000,0.776818,1.387595,0.440506,0.187757,0.328574,753.000000,692.000000,61.000000,26.000000,0.000000,0.000000:
0000
0000
0000
0000
,
0000
0000
0000
0000
,
1001
0000
0000
0000
1001
0000
0000
0001
0100
0000
0010
0000
1000
0000
0100
0000
,
0110
0000
0000
0000
0110
0000
0000
0010
0100
0000
1000
0001
1000
0000
0010
0000
,
1010
0000
0000
0000
1010
0000
0000
1000
0001
0000
0010
0000
0100
0000
1000
0000
,
0001
0100
1000
0100
0001
0000
0000
0000
,
1001
0000
0000
0000
1001
0000
0000
1000
0100
0000
0010
0000
0001
0000
0100
0000
,
0110
0000
0000
0000
0110
0000
0000
0010
1000
0000
0001
1000
0001
0000
0100
0000
,
0010
0000
0000
0010
1000
0000
0001
0000
0100
0000
0000
0100
0001
0000
1000
0000
,
0100
0000
0000
0100
1000
0000
0001
0000
0020
0000
0000
0000
0030
0000
0000
0000
,
0011
0000
0011
0000
1002
0000
0000
1003
,
0100
0100
0110
0000
,
1000
0000
0001
0100
0001
0000
1000
0000
0001
0000
1000
0100
1000
0000
0001
0000
,
0010
0100
1000
0010
0100
0000
0001
1000
,
0010
0000
0010
0000
1000
0100
0000
1100
,
0000
0101
0000
0001
1000
0000
0000
0000
,
0001
0000
1000
0010
1000
0000
0001
0000
1000
0000
0001
0010
0001
0000
1000
0000
,
0100
0010
0001
0100
0010
1000
0001
0100
,
0010
0000
0010
0000
1000
0001
0000
1010
,
0000
0011
0000
1000
0001
0000
0000
0000
,
1000
0000
0100
0000
0010
0000
0100
0000
1000
0000
0001
0100
0001
0000
1000
0000
,
0001
0000
0100
0000
0010
0000
0100
0000
0001
0000
1000
0100
1000
0000
0001
0000
,
1000
0100
0010
0001
1000
0010
0100
0001
,
0010
0100
1000
0001
0100
0010
1000
0001
,
1000
0000
0010
0000
0100
0000
0010
0000
1000
0000
0001
0010
0001
0000
1000
0000
,
0001
0000
0010
0000
0100
0000
0010
0000
0001
0000
1000
0010
1000
0000
0001
0000
,
2000
0000
3001
0100
0020
0000
1030
0100
,
0010
0000
0000
0000
0001
0000
0000
0000
0100
0000
0000
0000
2002
0000
0000
0000
0000
0000
0000
0000
0000
3003
0000
0000
,
1000
0010
0100
0010
1000
0100
0010
0100
,
1000
0001
0100
0001
1000
0001
0010
0001
,
1000
0100
0010
0001
0100
0010
1000
0001
,
0020
0000
0000
0000
0230
0000
0000
0000
1300
0000
0001
1000
0001
0000
0010
0100
,
0010
0001
1000
0100
0010
0100
1000
0001
,
0100
0010
1000
0001
0010
0001
1000
0010
,
1000
0001
0010
0100
1000
0001
1000
0010
,
0100
0000
0110
0000
0010
0100
0010
0100
,
0001
0101
1000
1100
,
1000
0100
0010
0001
0100
0000
0110
0000
,
1000
0000
0001
0000
1000
0100
1000
0000
0001
0000
1000
0000
0001
0100
0001
0000
,
1000
0001
0010
0100
1000
0010
0010
0000
,
2000
0000
3001
0100
0020
0000
0230
0000
,
0301
0011
1001
0000
,
1000
0100
0010
0100
1000
0000
0001
0000
,
1000
0001
0001
0010
0010
0100
0100
1000
,
0001
0011
1000
1010
,
0001
0100
0010
1000
0100
0000
0110
0000
,
1000
0100
0001
0100
0020
0000
0230
0000
,
2300
0000
0000
3000
,
0001
0000
1000
0000
0001
0000
1001
0000
0000
0000
0000
0000
,
1000
0000
0001
0000
1000
0000
1001
0000
0000
0000
0000
0000
,
1000
0010
0100
0001
,
1000
0001
0010
1000
0010
0001
0100
0010
,
1000
0000
0100
0000
1000
0000
0100
0000
0010
0000
0001
0100
0001
0000
1000
0000
,
0001
0010
1000
0010
0001
0000
0000
0000
,
1001
0000
0001
0100
0000
0000
0110
0000
0010
1000
0000
0000
,
1100
0000
0100
0010
0000
0010
0001
0000
0001
0100
0000
0000
,
1001
0000
1000
0010
0000
0000
0110
0000
0100
0001
0000
0000
,
0011
0000
0010
0100
0000
0100
1000
0000
1000
0001
0000
0000
,
0110
0000
0010
1000
0000
0000
1100
0000
0100
0010
0000
0000
,
0101
0000
0001
1000
0000
1000
0010
0000
0010
0100
0000
0000
,
0011
0000
0010
0100
0000
0000
1010
0000
1000
0100
0000
0000
,
1001
0000
1000
0010
0000
0010
0100
0000
0100
0001
0000
0000
,
1000
0100
0001
0100
0000
1000
0010
0001
,
0000
0001
0010
1000
0000
0001
0010
0100
,
1000
0010
0001
0010
0000
1000
0100
0001
,
1000
0001
0100
1000
0000
0001
0100
0010
,
1000
0100
0001
0100
0000
1000
0010
0001
,
0000
0001
0010
1010
,
1001
0000
1000
0100
0010
0000
0010
0100
,
1000
0000
0001
0100
0010
0000
1001
0000
,
1000
0010
0001
1000
0000
0100
0001
1000
,
0000
0001
0010
0100
0000
1000
0010
0100
,
0001
0000
0010
0100
0000
1100
0000
1001
,
0000
1000
0001
0000
1000
0010
1000
0000
,
0001
0100
1000
0000
0001
0010
1000
0000
,
0001
0100
1000
0000
1001
0000
0101
0000
,
1010
0000
0000
1000
0010
0000
0100
0000
0001
0000
0100
0000
0010
0000
1000
0000
,
0001
0000
0010
0000
0100
1000
0100
1000
0001
0100
0001
0100
0010
1000
0010
0000
,
0200
0000
0000
0000
0301
0000
1000
0000
0010
0000
1000
0100
0010
0000
0000
0000
,
0100
0000
1000
0001
1000
0000
0010
0000
0100
0001
0010
0001
0100
0010
1000
0100
,
0020
0000
0000
0000
0031
0000
1000
0000
0100
0000
1000
0001
0010
0000
0000
0000
,
0100
1000
0001
1000
0010
0000
0100
0000
0001
0010
1000
0010
0001
0000
0000
0000
,
1000
0100
1000
0001
0100
0001
1000
0010
1000
0001
0010
0001
1000
0100
0010
0001
0010
0100
1000
0010
0100
0001
0100
0010
,
1000
1100
0001
0101
,
1000
0000
0100
0010
0100
0000
0010
0000
0001
0000
0000
0000
0110
0000
0000
0000
,
1000
0100
0001
0100
1000
0010
0001
0010
,
0100
0001
0010
0100
1000
0010
0010
0000
,
0200
0000
0301
0010
2000
0000
3020
0000
,
0031
1001
1100
0000
,
1000
0010
0100
0001
0010
0000
0001
0000
,
1000
0010
0010
0100
0100
0001
0001
1000
,
0001
0011
1000
1010
,
0001
0100
0010
1000
0100
0000
0110
0000
,
1000
0100
0001
0100
0020
0000
0032
0000
,
2003
0000
0000
3000
,
0001
0000
0100
0000
0001
0000
0101
0000
0000
0000
0000
0000
,
1000
0000
0010
0000
1000
0000
1010
0000
0000
0000
0000
0000
,
1000
0100
0010
0001
,
0100
0001
0010
1000
0010
0001
0100
0010
,
1000
0100
0010
0100
0001
0100
0010
0100
,
1000
0010
0100
0001
0010
0000
0000
0000
,
0001
0100
0010
0100
1000
0100
0010
0100
,
0001
0010
0100
1000
0010
0000
0000
0000
,
1000
0000
0010
0000
1000
0000
0010
0000
0100
0000
0001
0010
0001
0000
1000
0000
,
0200
2300
3020
0230
,
0301
0000
0000
0001
1000
0000
0010
0000
0100
0000
0000
0100
0001
0000
1000
0000
,
0010
0000
0000
0010
1000
0000
0100
0000
0010
0000
0000
0000
1001
0000
0000
0000
;

//---------------dance-single - ----------------
#NOTES:
     dance-single:
     :
     Hard:
     13:
     0.662307,0.770886,0.187757,0.115543,0.173314,642.000000,616.000000,26.000000,16.000000,0.000000,0.000000,0.662307,0.770886,0.187757,0.115543,0.173314,642.000000,616.000000,26.000000,16.000000,0.000000,0.000000:
0000
0000
0000
0000
,
0000
0000
0000
0000
,
1000
0000
0000
0000
0010
0000
0000
0100
0001
0000
0010
0000
0100
0000
1000
0000
,
0010
0000
0000
0000
0100
0000
0000
0001
0010
0000
0001
0000
1000
0000
0010
0000
,
1000
0000
0000
0000
0100
0000
0000
1000
0010
0000
0100
0000
0001
0000
0010
0000
,
0001
0100
1000
0100
0002
0000
0003
0000
,
1000
0000
0000
0000
0100
0000
0000
0010
0001
0000
0100
0000
0010
0000
1000
0000
,
0100
0000
0000
0000
0010
0000
0000
0001
0100
0000
0001
0000
1000
0000
0100
0000
,
1000
0000
0000
1000
0001
0000
0010
0000
0001
0000
0000
0001
1000
0000
0010
0000
,
1000
0000
0000
1000
0100
0000
0010
0000
0002
0000
0000
0000
0003
0000
0000
0000
,
1001
0000
1001
0000
1001
0000
0000
0100
,
0010
0110
0110
0000
,
1000
0010
1000
0000
0001
0010
0001
0000
,
1000
0100
0010
0100
1000
0010
0100
0001
,
0010
0000
0010
0000
0100
1000
0000
0010
,
0000
0110
0000
1000
0001
0000
0000
0000
,
1000
0100
1000
0000
0001
0100
0001
0000
,
1000
0010
0100
0010
1000
0100
0010
0001
,
0100
0000
0100
0000
0010
1000
0000
0100
,
0000
0110
0000
0001
1000
0000
0000
0000
,
0001
0010
0100
0010
0001
0000
0000
0000
,
1000
0010
0100
0010
1000
0000
0000
0000
,
0001
0010
1000
0010
0001
0000
1000
0010
,
0200
0000
0000
0301
0020
0000
0000
0000
,
0031
0100
1000
0100
0001
0000
0000
0000
,
1000
0100
0001
0100
1000
0000
0010
0100
,
0002
0000
0000
0000
0023
0000
0000
0130
,
1000
0000
0000
0001
0000
0000
1000
0000
1001
0000
0000
0000
0000
0000
0000
0000
,
0001
0010
0100
0010
0001
0100
0010
0000
,
1000
0100
0010
0001
0100
0000
0010
0000
,
1000
0100
0010
0100
1000
0010
0100
0000
,
0001
0010
1000
0010
0001
0100
1000
0100
,
0001
0010
0100
0010
0001
0100
0010
0000
,
1000
0100
0010
0001
0100
0010
1000
0000
,
0001
1000
0100
0010
0100
0000
1000
0010
,
0100
0000
0110
0000
0001
1000
0001
1000
,
0100
0110
1000
1001
,
0001
0010
1000
0010
0001
0000
0110
0000
,
1000
0010
0100
0010
0001
0010
0100
0010
,
1000
0100
0010
0001
0100
0000
0010
0000
,
2000
0000
0000
3001
0010
0000
0100
0000
,
1000
1010
1001
0000
,
0001
0010
0100
0010
0001
0000
1000
0000
,
0010
0100
0100
0001
0001
1000
1000
0100
,
0010
0110
0001
1001
,
1000
0010
0001
0010
1000
0000
0110
0000
,
1000
0100
0010
0001
0100
0000
0010
0000
,
0200
0000
0000
0300
,
0001
0000
1000
0000
0001
0000
1000
0000
0000
0000
0000
0000
,
1000
0000
0001
0000
1000
0000
0001
0000
0000
0000
0000
0000
,
1000
0010
0100
0001
,
0010
0001
1000
0001
0010
0100
0010
0100
,
1000
0010
1000
0010
0100
0001
0010
0100
,
1000
0010
0001
0010
1000
0000
0000
0000
,
0001
0000
0001
1000
0000
0000
1000
0000
1000
0001
0000
0000
,
0001
0000
0010
0100
0000
1000
0010
0000
0100
0001
0000
0000
,
1000
0000
1000
0001
0000
0000
0001
0000
0001
1000
0000
0000
,
1000
0000
0010
0100
0000
0001
0010
0000
0100
1000
0000
0000
,
0001
0000
0001
1000
0000
0000
1000
0000
1000
0001
0000
0000
,
0001
0000
0100
0010
0000
1000
0100
0000
0010
0001
0000
0000
,
1000
0000
1000
0001
0000
0000
0001
0000
0001
1000
0000
0000
,
1000
0000
0100
0010
0000
0001
0100
0000
0010
1000
0000
0000
,
0001
0010
0100
1000
0000
0010
0100
0010
,
0000
1000
0100
0010
0000
0001
0100
0010
,
1000
0100
0010
0001
0000
0100
0010
0100
,
0001
0010
0100
1000
0000
0010
0100
0010
,
1000
0100
0010
0001
0000
0100
0010
0100
,
0000
0001
0010
1000
,
0010
0000
0001
0100
0001
0000
1000
0100
,
1000
0000
0010
0100
0010
0000
1000
0000
,
0100
0010
0100
1000
0000
0010
0100
0001
,
0000
0010
0100
0010
0000
0001
0100
0010
,
1000
0000
0100
0010
0000
0100
0000
1000
,
0000
0001
0100
0000
0010
0100
0010
0100
,
0001
0010
1000
0000
0001
0100
1000
0000
,
0001
0010
1000
0000
0001
0000
0100
0000
,
1000
0000
0000
1000
0010
0000
0100
0000
0010
0000
0100
0000
0001
0000
0010
0000
,
0001
0100
0001
0100
0010
1000
0100
0010
,
0002
0000
0000
0000
1003
0000
0010
0000
1000
0000
0001
0010
0001
0000
0000
0000
,
0100
0000
0010
1000
0010
0000
1000
0000
0100
0000
0010
0000
0100
0000
1000
0000
,
0002
0000
0000
0000
1003
0000
0010
0000
1000
0000
0001
0010
0001
0000
0000
0000
,
1000
0010
1000
0100
1000
0000
0001
0000
0010
0100
0010
0100
1000
0000
0000
0000
,
0002
2003
3020
0230
,
0310
0110
1000
1001
,
0001
0100
1000
0100
0001
0000
0110
0000
,
1000
0100
0010
0100
0001
0100
0010
0100
,
1000
0010
0100
0001
0010
0000
0100
0000
,
2000
0000
0000
3001
0100
0000
0010
0000
,
1000
1100
1001
0000
,
0001
0100
0010
0100
0001
0000
1000
0000
,
0100
0010
0010
0001
0001
1000
1000
0010
,
0100
0110
0001
1001
,
1000
0100
0001
0100
1000
0000
0110
0000
,
1000
0010
0100
0001
0010
0000
0100
0000
,
0020
0000
0000
0030
,
0001
0000
1000
0000
0001
0000
1000
0000
0000
0000
0000
0000
,
1000
0000
0001
0000
1000
0000
0001
0000
0000
0000
0000
0000
,
1000
0100
0010
0001
,
0100
0001
1000
0001
0100
0010
0100
0010
,
1000
0100
1000
0100
0010
0001
0100
0010
,
1000
0100
0001
0100
1000
0000
0000
0000
,
0001
0100
0001
0100
0010
1000
0100
0010
,
0001
0100
1000
0100
0001
0000
0000
0000
,
1000
0010
1000
0010
0100
0001
0010
0100
,
1000
0001
0100
0010
,
0100
0000
0000
0010
1000
0000
0100
0000
0010
0000
0000
0001
0100
0000
0010
0000
,
1000
0000
0000
0100
0010
0000
0100
0000
1000
0000
0000
0000
1001
0000
0000
0000
;

//---------------dance-single - ----------------
#NOTES:
     dance-single:
     :
     Medium:
     9:
     0.496214,0.578165,0.245528,0.079436,0.039718,481.000000,447.000000,34.000000,11.000000,0.000000,0.000000,0.496214,0.578165,0.245528,0.079436,0.039718,481.000000,447.000000,34.000000,11.000000,0.000000,0.000000:
0000
0000
0000
0000
,
0000
0000
0000
0000
,
1000
0000
1000
0000
0001
0010
0001
0010
,
0100
0000
0100
0000
1000
0010
1000
0010
,
0100
0000
0100
0000
0001
0010
0001
0010
,
0100
0110
1001
0000
,
1000
0000
1000
0000
0001
0100
0001
0100
,
0010
0000
0010
0000
1000
0100
1000
0100
,
0010
0000
0110
0000
,
1001
0110
1001
0000
,
1000
0000
1000
0000
0010
0000
0000
0100
,
0001
0001
1000
0000
,
0001
0000
0000
0100
0000
0000
0010
0000
,
1000
0000
0000
0100
0000
0000
0010
0000
,
0001
0000
0001
0000
0100
0000
0000
0010
,
0000
0100
0000
0010
1000
0000
0000
0000
,
0001
0000
0000
0010
0000
0000
0100
0000
,
1000
0000
0000
0010
0000
0000
0100
0000
,
0001
0000
0001
0000
1000
0000
0000
0100
,
0000
0010
0000
0001
1000
0000
0000
0000
,
0001
0000
1000
0010
1000
0000
0001
0000
,
0100
0000
0001
0010
0001
0000
1000
0000
,
0010
0000
1000
0100
1000
0000
0010
0000
,
0100
0000
0001
1000
0001
0000
1000
0000
,
0100
0000
1000
0010
1000
0000
0001
0000
,
0100
0000
0010
1000
0010
0000
0100
0000
,
0002
0000
2003
0000
,
3100
0000
0110
0000
,
0001
0000
1000
0010
,
0100
0000
0001
0010
0001
0000
0000
0000
,
1000
0000
0100
0010
0100
0000
1000
0000
,
0010
0010
0100
0100
,
0001
0000
0010
0100
,
1000
0000
0010
0100
0010
0000
0000
0000
,
1000
0000
0100
0010
0100
0000
1000
0000
,
0010
0100
0010
0000
,
0100
0110
0010
0110
,
1000
0010
1000
0001
0010
0000
1001
0000
,
1000
0000
0010
0100
0010
0000
0100
0001
,
0100
0000
0001
0010
0001
0000
1000
0000
,
0020
0000
0130
0001
,
0010
0100
1000
0000
,
0001
1000
0001
1000
0100
0000
0010
0000
,
0001
0100
0010
0100
0010
0100
0010
0100
,
0001
1001
1000
1001
,
0001
0100
0001
1000
0100
0000
1001
0000
,
1000
0000
0010
0100
0010
0000
1000
0000
,
0002
0000
0000
0000
,
1003
0000
0001
0000
1000
0000
0001
0000
0000
0000
0000
0000
,
0001
0000
1000
0000
0001
0000
1000
0000
0000
0000
0000
0000
,
0001
0001
0010
0010
,
0100
1000
0100
0000
1000
0000
0001
0000
,
1000
0100
1000
0000
0010
0100
0010
0000
,
0100
0001
0100
0001
0010
0000
0000
0000
,
1001
0000
0000
0000
,
1001
0000
0110
0000
,
1001
0000
0000
0000
,
1001
0110
1001
0000
,
0110
0000
0000
0000
,
0110
0000
1001
0000
,
0110
0000
0000
0000
,
0110
1001
0110
1001
,
1000
0000
0100
0010
0000
0010
0100
0000
,
1000
0000
0001
1000
0000
1000
0010
0000
,
0100
0000
0001
0010
0000
0010
0100
0000
,
1000
0000
0010
0100
0000
0100
0001
0000
,
1000
0000
0100
0010
0000
0010
0001
0000
,
1000
0000
0001
0010
0000
0010
0100
0000
,
1000
0000
0001
0100
0001
0000
1000
0000
,
0100
0000
0010
0100
0010
0000
0001
0000
,
1000
0000
0010
0100
0000
0100
0001
0000
,
0010
0000
0100
1000
0000
1000
0010
0000
,
1000
0000
0100
0010
0000
0010
0100
0000
,
1000
0000
0001
0100
0000
0100
0001
0000
,
1000
0010
1000
0000
0001
0010
0001
0000
,
1000
0010
1000
0000
0001
0000
0010
0000
,
0200
0000
0000
1300
0002
0000
0000
0000
,
0000
0000
0000
0003
,
1000
0000
0000
0000
0100
0000
0010
0000
0001
0000
1000
0001
1000
0000
0000
0000
,
0010
0000
0100
0010
0100
0000
0001
0000
0010
0000
0000
0000
0000
0000
0000
0000
,
0001
0000
0000
0000
1000
0000
0001
0000
0100
0000
0010
1000
0010
0000
0000
0000
,
1000
0100
0010
0001
1000
0001
1000
0000
,
0002
0000
2003
0000
,
3010
0110
0100
0110
,
0001
0010
0001
1000
0010
0000
1001
0000
,
1000
0000
0100
0010
0100
0000
0010
0001
,
0010
0000
0001
0100
0001
0000
1000
0000
,
0200
0000
0310
0001
,
0100
0010
1000
0000
,
0001
1000
0001
1000
0010
0000
0100
0000
,
0001
0010
0100
0010
0100
0010
0100
0010
,
0001
1001
1000
1001
,
0001
0010
0001
1000
0010
0000
1001
0000
,
1000
0000
0100
0010
0100
0000
1000
0000
,
0002
0000
0000
0000
,
1003
0000
0001
0000
1000
0000
0001
0000
0000
0000
0000
0000
,
0001
0000
1000
0000
0001
0000
1000
0000
0000
0000
0000
0000
,
0001
0001
0100
0100
,
0010
1000
0010
0000
1000
0000
0001
0000
,
1000
0010
1000
0000
0100
0010
0100
0000
,
0010
0001
0010
0001
0100
0000
0000
0000
,
0001
0010
0001
0000
0100
0010
0100
0000
,
0010
1000
0010
1000
0100
0000
0000
0000
,
1000
0100
1000
0000
0001
0100
0001
0000
,
0010
0100
1000
0010
,
0200
0000
0000
0000
,
0000
0000
0000
0310
;

//---------------dance-single - ----------------
#NOTES:
     dance-single:
     :
     Easy:
     7:
     0.344565,0.385443,0.151650,0.064993,0.000000,334.000000,313.000000,21.000000,9.000000,0.000000,0.000000,0.344565,0.385443,0.151650,0.064993,0.000000,334.000000,313.000000,21.000000,9.000000,0.000000,0.000000:
0000
0000
0000
0000
,
0000
0000
0000
0000
,
1000
1000
0001
0001
,
1000
0100
0010
0001
,
1000
1000
0001
0001
,
0100
0010
0110
0000
,
0001
0001
1000
1000
,
0001
0010
0100
1000
,
0001
0000
1001
0000
,
1000
0001
1000
0000
,
0000
0000
0000
0000
,
0000
0000
0000
0000
,
0001
0000
0000
0100
0000
0000
0010
0000
,
1000
0000
0000
0100
0000
0000
0010
0000
,
0001
0001
0100
0100
,
0010
1000
0100
0000
,
1000
0000
0000
0010
0000
0000
0100
0000
,
0001
0000
0000
0010
0000
0000
0100
0000
,
1000
1000
0010
0010
,
0100
0001
0010
0000
,
0001
0100
0001
0000
,
1000
0100
1000
0000
,
0001
0100
0010
0000
,
1000
0100
0010
0001
,
1000
0010
1000
0000
,
0001
0010
0001
0000
,
2000
0000
3020
0000
,
0130
0000
0110
0000
,
0001
0000
1000
0001
,
0010
0100
1000
0000
,
0001
0100
0010
1000
,
0100
0100
0010
0010
,
0001
0000
1000
0010
,
0100
0001
0010
0000
,
0001
1000
0100
0010
,
0100
0100
0100
0000
,
1001
0000
0110
0000
,
1000
0001
1000
0000
,
0001
0001
0100
0100
,
0010
1000
0100
0010
,
0001
0000
1000
0000
,
0010
0100
0001
0000
,
1001
0000
0000
0000
,
0000
1000
0001
1000
,
1001
0000
0110
0000
,
1000
0001
1000
0000
,
0001
0001
1000
1000
,
0100
0010
0100
1000
,
0020
0000
0130
0000
,
0200
0000
0310
0000
,
0010
0100
0001
0010
,
0001
1000
0100
0010
,
0001
0001
1000
1000
,
0010
0100
0001
0000
,
1001
0000
0000
0000
,
1001
0000
0110
0000
,
1001
0000
0000
0000
,
1000
0001
1000
0000
,
0110
0000
0000
0000
,
0110
0000
1001
0000
,
0110
0000
0000
0000
,
0010
0100
0010
0000
,
1000
0010
1000
0010
,
0100
0001
0100
0001
,
0010
0100
0010
0100
,
1000
0001
1000
0001
,
0100
0010
0100
0010
,
1000
0100
1000
0001
,
0010
0000
0001
0000
,
1000
0000
0010
0000
,
1000
0100
1000
0010
,
0100
0001
1000
0001
,
0010
0100
1000
0010
,
1000
0001
1000
0100
,
0010
0010
0100
0100
,
1000
1000
0001
0100
,
0001
0000
2000
0000
,
0000
0000
0000
3000
,
0001
0000
1000
0010
,
1000
0001
0010
0000
,
0001
0000
1000
0100
,
1000
0001
0100
0000
,
0002
0000
2003
0000
,
3001
0000
1001
0000
,
1000
0001
0000
0000
,
1000
1000
0100
0100
,
0010
0001
0100
0010
,
1000
0000
0001
0000
,
0010
0100
1000
0000
,
1001
0000
0000
0000
,
0000
0001
1000
0001
,
1001
0000
0110
0000
,
0001
1000
0001
0000
,
1000
1000
0001
0001
,
0100
0010
0100
0001
,
0020
0000
0130
0000
,
0200
0000
0310
0000
,
0010
0100
1000
0010
,
1000
0001
0100
0010
,
1000
1000
0001
0001
,
0010
0100
1000
0000
,
0001
0001
1000
1000
,
0010
0100
0001
0000
,
1000
1000
0001
0001
,
0010
0100
0010
0001
,
1000
0000
0001
0000
,
1000
0000
0001
1001
;

//---------------dance-single - ----------------
#NOTES:
     dance-single:
     :
     Beginner:
     3:
     0.133080,0.192722,0.007221,0.007221,0.000000,129.000000,128.000000,1.000000,1.000000,0.000000,0.000000,0.133080,0.192722,0.007221,0.007221,0.000000,129.000000,128.000000,1.000000,1.000000,0.000000,0.000000:
// measure 0
0000
0000
0000
0000
,  // measure 1
0000
0000
0000
0000
,  // measure 2
1000
0000
0000
0000
,  // measure 3
1000
0000
0000
0000
,  // measure 4
0001
0000
0000
0000
,  // measure 5
0001
0000
0000
0000
,  // measure 6
1000
0000
0000
0000
,  // measure 7
1000
0000
0000
0000
,  // measure 8
0001
0000
1000
0000
,  // measure 9
0001
0000
0000
0000
,  // measure 10
0000
0000
0000
0000
,  // measure 11
0000
0000
0000
0000
,  // measure 12
1000
0000
0000
0000
,  // measure 13
0010
0000
0000
0000
,  // measure 14
1000
0000
0000
0000
,  // measure 15
0100
0000
0000
0000
,  // measure 16
1000
0000
0000
0000
,  // measure 17
0001
0000
0000
0000
,  // measure 18
0100
0000
0000
0000
,  // measure 19
0010
0000
0000
0000
,  // measure 20
1000
0000
0000
0000
,  // measure 21
1000
0000
0000
0000
,  // measure 22
0010
0000
0000
0000
,  // measure 23
0010
0000
0000
0000
,  // measure 24
0100
0000
0000
0000
,  // measure 25
0100
0000
0000
0000
,  // measure 26
0001
0000
0000
0000
,  // measure 27
0001
0000
0000
0000
,  // measure 28
1000
0000
0000
0000
,  // measure 29
0100
0000
0000
0000
,  // measure 30
0010
0000
0000
0000
,  // measure 31
0001
0000
0000
0000
,  // measure 32
1000
0000
0000
0000
,  // measure 33
0010
0000
0000
0000
,  // measure 34
0100
0000
0000
0000
,  // measure 35
0001
0000
0000
0000
,  // measure 36
1000
0000
0001
0000
,  // measure 37
1000
0000
0000
0000
,  // measure 38
0001
0000
0001
0000
,  // measure 39
0001
0000
0001
0000
,  // measure 40
1000
0000
1000
0000
,  // measure 41
1000
0000
1000
0000
,  // measure 42
0000
0000
0000
0000
,  // measure 43
0000
0000
0000
0000
,  // measure 44
0001
0000
1000
0000
,  // measure 45
0001
0000
0000
0000
,  // measure 46
1000
0000
1000
0000
,  // measure 47
1000
0000
1000
0000
,  // measure 48
0010
0000
0000
0000
,  // measure 49
0100
0000
0000
0000
,  // measure 50
0001
0000
0000
0000
,  // measure 51
0000
0000
0000
0000
,  // measure 52
1000
0000
0000
0000
,  // measure 53
0001
0000
1000
0000
,  // measure 54
0001
0000
0000
0000
,  // measure 55
0100
0000
0100
0000
,  // measure 56
0100
0000
0000
0000
,  // measure 57
0010
0000
0010
0000
,  // measure 58
1000
0000
0000
0000
,  // measure 59
0100
0000
0100
0000
,  // measure 60
0100
0000
0000
0000
,  // measure 61
0010
0000
0010
0000
,  // measure 62
0001
0000
0000
0000
,  // measure 63
0001
0000
0000
0000
,  // measure 64
0100
0000
0000
0000
,  // measure 65
0100
0000
0000
0000
,  // measure 66
0010
0000
0000
0000
,  // measure 67
0010
0000
0000
0000
,  // measure 68
1000
0000
0000
0000
,  // measure 69
1000
0000
0000
0000
,  // measure 70
0001
0000
0000
0000
,  // measure 71
0001
0000
0000
0000
,  // measure 72
0010
0000
0000
0000
,  // measure 73
0010
0000
0000
0000
,  // measure 74
0100
0000
0000
0000
,  // measure 75
0100
0000
0000
0000
,  // measure 76
1000
0000
0000
0000
,  // measure 77
1000
0000
0000
0000
,  // measure 78
0001
0000
1000
0000
,  // measure 79
0001
0000
1000
0000
,  // measure 80
0010
0000
0100
0000
,  // measure 81
0010
0000
0100
0000
,  // measure 82
0002
0000
0000
0000
,  // measure 83
1003
0000
0001
0000
,  // measure 84
1000
0000
0000
0000
,  // measure 85
0001
0000
0001
0000
,  // measure 86
0001
0000
0001
0000
,  // measure 87
1000
0000
1000
0000
,  // measure 88
1000
0000
1000
0000
,  // measure 89
0001
0000
0000
0000
,  // measure 90
0000
0000
0000
0000
,  // measure 91
0100
0000
0010
0000
,  // measure 92
1000
0000
0001
0000
,  // measure 93
1000
0000
1000
0000
,  // measure 94
0001
0000
0001
0000
,  // measure 95
0100
0000
0000
0000
,  // measure 96
0010
0000
0000
0000
,  // measure 97
1000
0000
0000
0000
,  // measure 98
0000
0000
0000
0000
,  // measure 99
0010
0000
0000
0000
,  // measure 100
1000
0000
0001
0000
,  // measure 101
1000
0000
0000
0000
,  // measure 102
0010
0000
0100
0000
,  // measure 103
0001
0000
0000
0000
,  // measure 104
1000
0000
0001
0000
,  // measure 105
1000
0000
0000
0000
,  // measure 106
0000
0000
0000
1001
;
