#VERSION:0.83;
#TITLE:Cattleya;
#SUBTITLE:;
#ARTIST:Sota Fujimori 2nd Season;
#TITLETRANSLIT:;
#SUBTITLETRANSLIT:;
#ARTISTTRANSLIT:;
#GENRE:SYNTH TRANCECORE;
#ORIGIN:;
#CREDIT:;
#BANNER:Cattleya.png;
#BACKGROUND:Cattleya-bg.png;
#PREVIEWVID:;
#JACKET:Cattleya-jacket.png;
#CDIMAGE:;
#DISCIMAGE:;
#LYRICSPATH:;
#CDTITLE:cdtitle.png;
#MUSIC:Cattleya.ogg;
#OFFSET:-0.620000;
#SAMPLESTART:55.333939;
#SAMPLELENGTH:10.376308;
#SELECTABLE:YES;
#BPMS:0.000=184.000,
232.000=92.000,
248.000=184.000;
#STOPS:287.000=0.163,
290.500=0.163;
#DELAYS:;
#WARPS:;
#TIMESIGNATURES:0.000=4=4;
#TICKCOUNTS:0.000=4;
#COMBOS:0.000=1;
#SPEEDS:0.000=1.000=0.000=0;
#SCROLLS:0.000=1.000;
#FAKES:;
#LABELS:0.000=Song Start;
#BGCHANGES:;
#KEYSOUNDS:;
#ATTACKS:
;

//---------------dance-single - ----------------
#NOTEDATA:;
#CHARTNAME:;
#STEPSTYPE:dance-single;
#DESCRIPTION:;
#CHARTSTYLE:;
#DIFFICULTY:Challenge;
#METER:17;
#RADARVALUES:0.945088,1.382806,0.529585,0.075655,1.143232,787.000000,724.000000,63.000000,9.000000,0.000000,0.000000,0.000000,0.000000,0.000000,0.945088,1.382806,0.529585,0.075655,1.143232,787.000000,724.000000,63.000000,9.000000,0.000000,0.000000,0.000000,0.000000,0.000000;
#CREDIT:;
#NOTES:
0000
0000
0000
0000
,
0000
0000
0000
0000
,
0000
0000
0000
0000
,
0000
0000
0000
0000
,
0000
0000
0000
0000
,
2000
0000
3001
0100
0010
0100
0001
0010
,
0000
0100
0000
1000
0000
0010
1000
0100
,
0020
0000
0130
1000
0010
0001
0010
1010
,
0000
1000
0001
1001
0000
0100
0010
0100
,
0001
0001
0010
0100
1000
0010
0100
0001
,
0000
0000
0110
0000
0000
0000
1001
0000
0000
0000
1000
0000
0010
0100
0010
0000
,
1000
0000
0001
0010
0100
0010
0001
1001
,
0000
0000
1000
0000
0010
0000
0100
0000
0001
1000
0001
1000
0001
0000
0000
0000
,
1000
0100
0001
0100
1000
0010
0000
0110
,
0000
1010
0000
1001
0000
0001
1000
0100
,
0010
0000
0110
0000
0100
1000
0001
2000
,
0000
3001
1000
0020
0000
0030
1001
0000
,
1000
0000
0100
0000
0010
0000
0000
0100
1000
0000
0001
0000
0100
0010
0100
0000
,
0002
0000
0000
0000
0013
0001
0010
0000
0100
0000
1000
0001
1000
0001
1000
0001
,
2000
0000
0000
0000
3010
0100
0000
0100
0001
0000
0010
0000
0001
1000
0001
0000
,
1000
0000
0100
0000
0001
0000
0100
0000
0010
0000
0100
1000
0100
1000
0001
1000
,
0001
0000
0100
0000
0010
0000
0100
0001
0100
0001
0010
0000
0001
0000
1001
0000
,
0000
0000
1000
0000
1010
0000
0000
0000
0110
0000
1000
0100
1000
0100
0010
0001
,
0010
0000
0001
0000
0100
0010
0000
0010
1000
0000
0001
0000
1000
0000
1100
0000
,
0000
0001
0100
0100
0010
0000
1001
0000
,
1000
0100
1000
0100
0010
0000
0100
1000
0100
0000
1000
0000
0001
0100
0001
0000
,
0010
0000
0100
0000
0010
0001
0010
0000
0001
0000
1000
0010
1000
0001
1000
0001
,
1000
0000
0010
0000
0100
0000
0001
0010
0001
0000
1000
0000
0010
0000
0100
0000
,
0010
1000
0010
1000
0100
0000
1000
0000
0010
0000
1000
0100
1000
0001
0100
0001
,
0100
0000
0001
0000
0010
0000
0001
1000
0001
1000
0001
0000
1000
0000
1010
0000
,
0000
0000
0010
0000
0110
0000
0000
0000
1001
0000
0001
0100
0001
1000
0001
0000
,
0010
0000
0010
0000
0100
0000
0000
0110
0000
0000
0010
0000
0001
0000
1001
0000
,
0000
1000
0010
0010
0220
0330
0000
0000
,
1001
0000
0000
1100
0000
0000
0101
0000
0000
0011
0000
0000
1010
0000
0000
0000
,
1000
0000
0000
0100
0000
0000
0010
0000
0000
0001
0000
0000
0100
0000
0010
0000
,
1000
0000
0000
0011
0000
0000
1010
0000
0000
1100
0000
0000
0101
0000
0000
0000
,
1001
0000
0000
0011
0000
0000
0101
0000
0000
1010
0000
0000
1100
0000
0000
0000
,
1001
0000
0000
1010
0000
0000
1100
0000
0000
0011
0000
0000
0101
0000
0000
0000
,
0001
0000
0000
0010
0000
0000
0100
0000
0000
1000
0000
0000
0010
0000
0100
0000
,
0001
0000
0000
0011
0000
0000
1001
0000
0000
1010
0000
0000
1001
0000
0000
0000
,
1000
0000
0000
1100
0000
0000
1001
0000
0000
0101
0000
0000
1001
0000
0000
0000
,
1000
0000
0010
0000
1000
0100
1000
0100
0010
0000
0001
1000
0001
0000
0000
0000
,
1000
0000
0001
0010
0000
0001
0100
0000
0010
1000
0000
0001
1000
0001
1000
0000
,
0001
0000
1000
0010
0000
1000
0100
0000
0010
0001
0000
1000
0001
1000
0001
0000
,
1000
0000
0010
0100
0000
0010
1000
0000
0100
0010
0000
0001
1000
0001
1000
0010
,
1000
0000
0100
0010
0000
0100
1000
0000
0010
0100
0000
0001
1000
0001
1000
0000
,
0001
0000
1000
0010
0000
1000
0100
0000
0010
0001
0000
1000
0001
1000
0001
0000
,
1000
0000
0001
0010
0000
0001
0100
0000
0010
1000
0000
0001
0000
1000
0001
0000
,
1000
0000
0100
0010
0000
0100
1000
0000
0010
0100
0000
0001
1000
0001
1000
0100
,
1000
0000
0010
0100
0000
0010
1000
0000
0100
0010
0000
0001
1000
0001
1000
0001
,
1000
0000
0001
0010
0000
0001
1000
0000
0010
0100
0000
0001
1000
0001
1000
0000
,
0001
0000
1000
0010
0000
1000
0001
0000
0010
0100
0000
1000
0001
1000
0001
0000
,
1000
0000
0100
0010
0000
0100
0001
0000
0100
0010
0000
0001
1000
0001
1000
0100
,
1000
0000
0010
0100
0000
0010
0001
0000
0010
0100
0000
0001
1000
0001
1000
0000
,
0001
0000
0100
0010
0000
0100
1000
0000
0100
0010
0000
1000
0001
1000
0001
0100
,
0001
0000
0010
0100
0000
0010
1000
0000
0010
0100
0000
1000
0001
1000
0001
0000
,
1000
0000
0001
0100
0000
0001
1000
0000
0100
0010
0000
0001
1000
0001
1000
0001
,
1000
0000
0000
1010
0000
0000
0011
0000
0000
0101
0000
0000
1100
0000
0000
0000
,
1000
0000
0010
0000
1000
0000
0000
0000
0001
0000
0010
0000
0000
0000
0100
0000
0000
0000
0010
0000
0001
0000
1000
0001
1000
0000
0010
0000
1000
0000
0001
0000
,
0010
0000
0200
0000
0000
0000
0000
0000
0310
0000
0001
0000
1000
0001
1000
0001
1000
0100
0000
0100
0010
0000
0001
1000
0010
1000
0001
0010
0100
0000
0000
0000
,
1000
0010
0000
0001
0000
0010
0000
0000
1000
0100
0000
0001
0000
0100
1000
0000
0010
0100
0010
0000
1000
0000
0100
0000
0010
0000
0001
0000
0100
0000
0010
0000
,
1000
0000
0001
0000
0010
0000
0010
0000
0001
0000
1000
0000
0010
0000
0010
0000
1000
0000
0100
0000
0010
0000
0001
1000
0001
0100
0001
0100
0010
0000
0000
0000
,
1000
0000
0010
0000
1000
0100
1000
0100
0010
0000
0001
1000
0001
0000
0000
0000
,
1000
0000
0001
0100
0000
0001
0010
0000
0100
1000
0000
0001
1000
0001
1000
0000
,
0001
0000
1000
0100
0000
1000
0010
0000
0100
0001
0000
1000
0001
1000
0001
0000
,
1000
0000
0100
0010
0000
0100
1000
0000
0010
0100
0000
0001
1000
0001
1000
0100
,
1000
0000
0010
0100
0000
0010
1000
0000
0100
0010
0000
0001
1000
0001
1000
0000
,
0001
0000
1000
0100
0000
1000
0010
0000
0100
0001
0000
1000
0001
1000
0001
0000
,
1000
0000
0001
0100
0000
0001
0010
0000
0100
1000
0000
0001
0000
1000
0001
0000
,
1000
0000
0010
0100
0000
0010
1000
0000
0100
0010
0000
0001
1000
0001
1000
0010
,
1000
0000
0100
0010
0000
0100
1000
0000
0010
0100
0000
0001
1000
0001
1000
0001
,
1000
0000
0001
0100
0000
0001
1000
0000
0100
0010
0000
0001
1000
0000
0001
0000
,
1000
0100
0000
1000
0001
0000
0100
0010
0000
1000
0001
0000
1000
0000
0010
0100
,
0000
0010
0001
0000
0010
0100
0000
0001
1000
0001
1000
0010
1000
0000
0100
0010
,
0000
0100
0001
0000
0100
0010
0000
0001
1000
0001
1000
0001
1000
0000
0000
1010
,
0000
0000
0101
0000
0000
0011
0000
0000
1000
0100
1000
0000
0001
0000
0000
0101
,
0000
0000
1010
0000
0000
1100
0000
0000
0001
0010
0001
0000
1000
0000
0100
0010
,
0000
0100
1000
0000
0010
0100
0000
0001
1000
0001
1000
0100
0010
0000
0000
1100
,
0000
0000
0101
0000
0000
0011
0000
0000
1010
0000
0000
0000
1000
0000
0001
0000
,
0010
0000
0000
0001
0100
0000
0010
0000
1000
0100
1000
0000
0001
0000
0100
0000
,
1000
0000
0100
0000
0001
0000
1000
0010
0000
1000
0100
1000
0001
0000
1000
0000
,
0010
0000
0000
0100
0000
0000
0001
0000
0010
0000
0110
0000
0000
0000
1000
0000
,
0010
0000
1000
0001
1000
0000
0000
0000
0000
0000
0000
0000
0000
0000
0000
0000
;

//---------------dance-single - ----------------
#NOTEDATA:;
#CHARTNAME:;
#STEPSTYPE:dance-single;
#DESCRIPTION:;
#CHARTSTYLE:;
#DIFFICULTY:Hard;
#METER:14;
#RADARVALUES:0.718122,1.313666,0.226965,0.092467,0.828002,598.000000,571.000000,27.000000,11.000000,0.000000,0.000000,0.000000,0.000000,0.000000,0.718122,1.313666,0.226965,0.092467,0.828002,598.000000,571.000000,27.000000,11.000000,0.000000,0.000000,0.000000,0.000000,0.000000;
#CREDIT:;
#NOTES:
0000
0000
0000
0000
,
0000
0000
0000
0000
,
0000
0000
0000
0000
,
0000
0000
0000
0000
,
0000
0000
0000
0000
,
2000
0000
3001
0100
0010
0100
0001
0010
,
0000
0100
0000
1000
0000
0010
0100
0010
,
0200
0000
0301
0010
0001
1000
0100
0110
,
0000
0010
0001
1001
0000
1000
0010
1000
,
0001
0001
0100
0010
1000
0100
0010
0100
,
0000
0000
1100
0000
0000
0000
0101
0000
0000
0000
0001
1000
0001
0000
1000
0000
,
0010
0000
0100
0000
0001
0010
0001
1001
,
0000
0000
1000
0000
0010
0000
0100
0000
0001
1000
0001
1000
0001
0000
0000
0000
,
1000
0100
0010
0100
0001
0100
0000
1010
,
0000
0011
0000
1001
0000
1000
0010
0100
,
0001
0000
0000
0000
1001
0000
0000
0000
1000
0000
0100
0010
0100
0000
1000
0000
,
0000
0010
0100
0002
0000
0000
1003
0000
,
0001
0000
0010
0000
0001
0000
0000
1000
0001
0000
1000
0000
0010
0000
0100
0000
,
0010
0000
0000
0000
1000
0001
0000
0010
0000
0000
0001
1000
0000
0001
1000
0000
,
0001
0000
0000
0000
1000
0010
0000
0100
0000
0000
0001
0000
0010
0000
0001
0000
,
1000
0000
0000
0000
0100
0010
0000
0100
0000
0000
1000
0010
0000
1000
0001
0000
,
1000
0000
0000
0000
0001
0010
0000
0100
0010
0000
0001
0000
1000
0000
1001
0000
,
0000
0000
0001
0000
1000
0000
0010
0000
0100
0000
0010
1000
0000
0010
1000
0000
,
0100
0000
0000
0000
0010
0001
0000
1000
0000
0001
0100
0000
0010
0000
0110
0000
,
0000
1000
0100
0010
0001
0000
1001
0000
,
1000
0000
0010
0000
0100
0000
0000
0010
1000
0000
0100
0000
0010
0000
0001
0000
,
0100
0000
0010
0000
0100
0000
0001
0000
0010
0000
0100
1000
0000
0100
1000
0000
,
0001
0000
0100
0000
0010
0000
0000
0100
0001
0000
0010
0000
0100
0000
1000
0000
,
0010
0000
0100
0000
0010
0000
1000
0000
0100
0000
0010
0001
0000
0010
0001
0000
,
1000
0000
0001
0000
0100
0000
0000
0001
0010
0000
0100
0000
1000
0000
1001
0000
,
0000
0000
0001
0000
0100
0000
0010
0000
0100
0000
0010
1000
0000
0010
1000
0000
,
0100
0000
0100
0000
0010
0000
0000
1001
0000
0000
0001
0000
0100
0000
0110
0000
,
0000
0010
1000
0100
0110
0000
0000
0000
,
0002
0000
0000
0010
0000
0000
0100
0000
0000
1000
0000
0000
0103
0000
0000
0000
,
0001
0000
0000
0010
0000
0000
1000
0000
0000
0010
0000
0000
0001
0000
1000
0000
,
0002
0000
0000
0100
0000
0000
0010
0000
0000
1000
0000
0000
0103
0000
0000
0000
,
0200
0000
0000
1000
0000
0000
0010
0000
0000
0001
0000
0000
0310
0000
0000
0000
,
0020
0000
0000
1000
0000
0000
0100
0000
0000
0001
0000
0000
0130
0000
0000
0000
,
1000
0000
0000
0100
0000
0000
0001
0000
0000
0100
0000
0000
1000
0000
0001
0000
,
2000
0000
0000
0010
0000
0000
0100
0000
0000
0001
0000
0000
3010
0000
0000
0000
,
0002
0000
0000
0010
0000
0000
0100
0000
0000
1000
0000
0000
0013
0000
0000
0000
,
1000
0000
0100
0000
1000
0001
1000
0001
1000
0000
0010
0100
0010
0000
0000
0000
,
1000
0000
0000
0100
0000
0000
0010
0000
0001
0000
0000
0000
0100
0010
0100
0000
,
0001
0000
0000
0010
0000
0000
0100
0000
0000
1000
0000
0000
0010
0100
0010
0100
,
0001
0000
0000
0010
0000
0000
0100
0000
0000
0010
0000
0000
0001
0000
1000
0001
,
1000
0000
0000
0010
0000
0000
0100
0000
0000
0010
0000
0000
1000
0001
1000
0000
,
0001
0000
0000
0100
0000
0000
1000
0000
0000
0100
0000
0000
0001
1000
0001
0000
,
1000
0000
0000
0100
0000
0000
1000
0000
0010
1000
0000
0001
0000
0010
0000
0001
,
1000
0000
0000
0010
0000
0000
0100
0000
0000
0010
0000
1000
0100
0000
1000
0001
,
1000
0000
0000
0100
0000
0000
0010
0000
0000
0001
0000
0000
1000
0010
1000
0010
,
1000
0000
0000
0100
0000
0000
0001
0000
0000
0100
0000
0000
1000
0010
1000
0000
,
0001
0000
0000
0010
0000
0000
1000
0000
0000
0010
0000
0000
0001
0100
0001
0000
,
1000
0000
0000
0100
0000
0000
0010
0000
0000
0001
0000
0100
0010
0000
1000
0001
,
1000
0000
0000
0100
0000
0000
1000
0000
0000
0001
0000
0000
0100
0010
0100
0000
,
0001
0000
0000
0010
0000
0000
0100
0000
0000
0010
0000
0000
0001
1000
0001
0000
,
1000
0000
0000
0010
0000
0000
0100
0000
0000
0010
0000
0000
1000
0001
1000
0000
,
0001
0000
0000
0010
0000
0000
1000
0000
0000
0010
0000
0001
0100
0000
0001
1000
,
0001
0000
0000
0101
0000
0000
1100
0000
0000
1010
0000
0000
0011
0000
0000
0000
,
0000
0000
1000
0000
0100
0000
0000
0000
1000
0000
0010
0000
0000
0000
0100
0000
0000
0000
0001
0000
0000
0000
0010
0001
0020
0000
0000
0000
0000
0000
0000
0000
,
0000
0000
0032
0000
0000
0000
0000
0000
1003
0000
0100
0000
1000
0010
1000
0010
1000
0100
0000
0100
0010
0000
0001
1000
0001
1000
0001
1000
0001
0000
0000
0000
,
1000
0010
0000
0100
0000
0010
0000
0000
1000
0100
0000
0010
0000
0001
0000
0000
1000
0000
0010
0000
0100
0000
0010
0000
0001
0000
0010
0000
0100
0000
0010
0000
,
1000
0100
0001
0100
1000
0010
0001
0010
1000
0100
0010
0001
0100
0010
1000
0000
,
0001
0000
0100
0000
0001
1000
0001
1000
0001
0000
0010
0100
0010
0000
0000
0000
,
0001
0000
0000
0100
0000
0000
0010
0000
1000
0000
0000
0000
0100
0010
0100
0000
,
1000
0000
0000
0010
0000
0000
0100
0000
0000
0001
0000
0000
0010
0100
0010
0100
,
1000
0000
0000
0010
0000
0000
0100
0000
0000
0010
0000
0000
1000
0000
0001
1000
,
0001
0000
0000
0010
0000
0000
0100
0000
0000
0010
0000
0000
0001
1000
0001
0000
,
1000
0000
0000
0100
0000
0000
0001
0000
0000
0100
0000
0000
1000
0001
1000
0000
,
0001
0000
0000
0100
0000
0000
0001
0000
0010
0001
0000
1000
0000
0010
0000
1000
,
0001
0000
0000
0010
0000
0000
0100
0000
0000
0010
0000
0001
0100
0000
0001
1000
,
0001
0000
0000
0100
0000
0000
0010
0000
0000
1000
0000
0000
0001
0010
0001
0010
,
0001
0000
0000
0100
0000
0000
1000
0000
0000
0100
0000
0000
0001
0000
1000
0000
,
0000
0010
0000
0000
0001
0000
0000
0010
0000
0000
1000
0000
0001
0000
0000
0100
,
0000
0000
0010
0000
0000
1000
0000
0100
0010
0000
0001
1000
0001
0000
0000
0100
,
0000
0000
0001
0000
0000
1000
0000
0000
0100
0010
0100
0010
0100
0000
0000
1000
,
0000
0000
0010
0000
0000
0100
0000
0000
0001
1000
0001
0000
1000
0000
0000
0100
,
0000
0000
0010
0000
0000
0100
0000
0000
1000
0001
1000
0000
0001
0000
0000
0100
,
0000
0000
1000
0000
0000
0100
0000
0001
0010
0000
0001
1000
0001
0000
0000
0011
,
0000
0000
1010
0000
0000
1100
0000
0000
0101
0000
0000
0000
1000
0000
0100
0000
,
0010
0000
0000
0100
1000
0000
0010
0000
0100
0000
0001
0000
0000
0000
0010
0000
,
0100
0000
0110
0000
0010
0001
1000
0001
,
1000
0000
0000
1010
0000
0000
0010
0000
0100
0000
0101
0000
0000
0000
0001
0000
,
0010
0000
0001
1000
0001
0000
0000
0000
0000
0000
0000
0000
0000
0000
0000
0000
;

//---------------dance-single - ----------------
#NOTEDATA:;
#CHARTNAME:;
#STEPSTYPE:dance-single;
#DESCRIPTION:;
#CHARTSTYLE:;
#DIFFICULTY:Medium;
#METER:11;
#RADARVALUES:0.513974,0.829684,0.084061,0.050437,0.159716,428.000000,418.000000,10.000000,6.000000,0.000000,0.000000,0.000000,0.000000,0.000000,0.513974,0.829684,0.084061,0.050437,0.159716,428.000000,418.000000,10.000000,6.000000,0.000000,0.000000,0.000000,0.000000,0.000000;
#CREDIT:;
#NOTES:
0000
0000
0000
0000
,
0000
0000
0000
0000
,
0000
0000
0000
0000
,
0000
0000
0000
0000
,
0000
0000
0000
0000
,
1000
0000
0010
0100
0010
0100
0000
0001
,
0000
0010
0000
0100
0000
1000
0010
1000
,
0001
0000
0010
0100
0010
0001
1000
0020
,
0000
0000
0000
1030
0000
0001
1000
0001
,
1000
1000
0100
0010
0100
1000
0010
0100
,
0000
0001
0000
1001
0000
1000
0100
1000
,
0001
0000
0100
0000
0010
1000
0000
0100
,
0000
0010
0001
1000
0000
0000
0000
0000
,
0001
0001
0100
0010
0100
0001
0000
1000
,
0000
0001
0000
1001
0000
1000
0100
0010
,
0001
0000
0001
0000
1000
0001
1000
0001
,
0000
0100
0010
0100
0000
0000
1001
0000
,
0001
0000
0100
0000
0010
1000
0010
0000
,
1000
0000
0100
0000
1000
0010
1000
0001
,
1000
0000
0100
0000
0010
0001
0010
0000
,
0001
0000
0100
0000
0001
0010
0001
1000
,
0001
0000
0100
0000
0010
1000
0010
1000
,
0000
0100
0010
0000
1001
0000
0000
0000
,
1000
0000
0010
0000
0100
0001
0100
0001
,
0000
0010
0100
0100
1000
0000
1001
0000
,
0001
0000
0100
0000
0001
1000
0001
0000
,
1000
0000
0100
0000
1000
0010
1000
0001
,
1000
0000
0001
0000
0010
0100
0010
0000
,
0001
0000
1000
0000
0010
0100
0010
1000
,
0001
0000
0010
0000
0100
1000
0100
1000
,
0000
0001
1000
0000
1001
0000
0001
0000
,
1000
0000
0010
0000
0100
0000
0000
0010
0000
0000
1000
0000
0100
0000
0010
0000
,
0000
0001
0100
0100
0010
0000
0000
0000
,
1000
0000
0000
1000
0000
0000
0001
0000
0000
0001
0000
0000
0010
0000
0000
0000
,
2002
0000
0000
3003
,
0001
0000
0000
0001
0000
0000
1000
0000
0000
1000
0000
0000
0010
0000
0000
0000
,
1000
0000
0000
1000
0000
0000
0001
0000
0000
0001
0000
0000
0100
0000
0000
0000
,
0001
0000
0000
0001
0000
0000
0010
0000
0000
0010
0000
0000
0100
0000
0000
0000
,
2002
0000
0000
3003
,
1000
0000
0000
1000
0000
0000
0010
0000
0000
0010
0000
0000
0100
0000
0000
0000
,
0001
0000
0000
0001
0000
0000
0100
0000
0000
0100
0000
0000
0010
0000
0000
0000
,
1000
0100
1000
0000
0001
0000
1001
0000
,
1000
0000
0010
0000
0100
0000
0001
0010
,
0001
0000
0100
0000
0010
0000
1000
0100
,
1000
0000
0010
0000
1000
0000
0001
1000
,
0001
0000
0010
0000
0001
0000
1000
0001
,
1000
0000
0100
0000
0010
0000
0001
0100
,
0001
0000
0010
0000
0100
1000
0100
1000
,
0001
0000
0100
0000
0010
0000
1000
0001
,
1000
0000
0100
0000
0010
0000
0001
1000
,
0001
0000
0010
0000
0001
0000
1000
0010
,
1000
0000
0100
0000
1000
0000
0001
0100
,
0001
0000
0010
0000
0100
0000
1000
0001
,
1000
0000
0010
0000
0100
0000
0001
1000
,
0001
0000
0010
0000
0100
0000
0010
0001
,
1000
0000
0010
0000
0100
0000
0010
1000
,
0001
0000
0010
0000
0100
0000
1000
0010
,
1000
0000
0000
1000
0000
0000
0001
0000
0000
0001
0000
0000
1000
0000
0000
0000
,
0000
0001
0010
0000
0100
1000
0000
0010
0000
0100
0000
0010
1000
0000
0000
0000
,
0000
0200
0000
0000
0310
0001
0010
0001
1000
0000
0010
0000
1000
0001
1000
0000
,
0001
0000
0001
0000
0010
0000
0010
0000
0100
0000
0100
0000
1000
0010
1000
0000
,
0001
1000
0001
1000
0100
0010
0100
0010
0001
0100
0001
0000
1000
0100
1000
0000
,
0001
0010
0001
0000
1000
0000
1001
0000
,
0001
0000
0010
0000
0100
0000
1000
0010
,
1000
0000
0100
0000
0010
0000
0001
0100
,
0001
0000
0010
0000
0001
0000
1000
0001
,
1000
0000
0010
0000
1000
0000
0001
1000
,
0001
0000
0100
0000
0010
0000
1000
0100
,
1000
0000
0010
0000
0100
0001
0100
0001
,
1000
0000
0100
0000
0010
0000
0001
1000
,
0001
0000
0100
0000
0010
0000
1000
0001
,
1000
0000
0010
0000
1000
0000
0100
1000
,
0000
0010
0000
1000
0000
0001
1000
0000
,
0010
0000
0100
0000
0001
1000
0001
0000
,
0010
0000
0000
0000
0100
0000
0000
0000
1000
0000
0001
0000
1000
0000
0000
1000
,
0000
0000
0001
0000
0000
0001
0000
0000
0010
0000
0001
0000
1000
0000
0000
1000
,
0000
0000
0010
0000
0000
0010
0000
0000
0100
0000
0001
0000
1000
0000
0000
0000
,
0100
0000
0000
0000
0010
0000
0000
0000
0001
0000
0100
0000
0001
0000
0000
0001
,
0000
0000
1000
0000
0000
1000
0000
0000
0001
0000
0000
0000
1000
0000
0100
0000
,
0010
0000
0100
1000
0001
1000
0000
0010
,
0100
0000
0010
0000
1000
0001
1000
0100
,
1000
0000
0000
0001
0000
0000
0010
0000
0100
0000
1000
0000
0000
0000
0010
0000
,
0100
0010
0100
0000
0000
0000
0000
0000
;

//---------------dance-single - ----------------
#NOTEDATA:;
#CHARTNAME:;
#STEPSTYPE:dance-single;
#DESCRIPTION:;
#CHARTSTYLE:;
#DIFFICULTY:Easy;
#METER:7;
#RADARVALUES:0.362664,0.449412,0.050437,0.033624,0.021015,302.000000,296.000000,6.000000,4.000000,0.000000,0.000000,0.000000,0.000000,0.000000,0.362664,0.449412,0.050437,0.033624,0.021015,302.000000,296.000000,6.000000,4.000000,0.000000,0.000000,0.000000,0.000000,0.000000;
#CREDIT:;
#NOTES:
0000
0000
0000
0000
,
0000
0000
0000
0000
,
0000
0000
0000
0000
,
0000
0000
0000
0000
,
0000
0000
0000
0000
,
1000
0000
0100
0000
1000
0000
0000
0001
,
0000
1000
0000
0001
0000
0000
0010
0000
,
0100
0000
1000
0000
0010
0000
0000
0100
,
0000
0000
0000
0001
0000
0000
1000
0000
,
0001
0000
0010
0000
0001
0000
0000
1000
,
0000
0001
0000
1000
0000
0000
0100
0000
,
0010
0000
0100
0000
1000
0000
0000
0010
,
0000
0000
0000
1000
0000
0000
0000
0000
,
0001
0000
1000
0000
0100
0000
0000
1000
,
0000
0001
0000
1000
0000
0000
0010
0000
,
0100
0000
0100
0000
0001
0000
0000
1000
,
0000
0000
0000
0001
0000
0000
1001
0000
,
0001
0100
0010
1000
,
0100
0010
0001
1000
,
0001
0100
0010
0100
,
0001
0010
0001
1000
,
0100
0000
0010
0000
0100
0000
1000
0001
,
0000
0001
1000
0000
1001
0000
0001
0000
,
1000
0000
0010
0000
0100
0000
0001
1000
,
0000
0100
0010
0000
0100
0000
1001
0000
,
0001
0100
0010
0100
,
0001
0010
0100
1000
,
0001
0100
0010
1000
,
0001
0010
0100
0010
,
0001
0000
1000
0000
0010
0000
0100
0001
,
0000
0001
1000
0000
1001
0000
0001
0000
,
1000
0001
1000
0000
0100
0000
0010
0001
,
0000
1000
0001
1000
0001
0000
0000
0000
,
1000
0000
0000
1000
0000
0000
1000
0000
,
0220
0000
0000
0330
,
0001
0000
0000
0001
0000
0000
0001
0000
,
0010
0000
0000
0010
0000
0000
0010
0000
,
0100
0000
0000
0100
0000
0000
0100
0000
,
2002
0000
0000
3003
,
1000
0000
0000
1000
0000
0000
1000
0000
,
0010
0000
0000
0010
0000
0000
0010
0000
,
1000
0100
0010
0001
,
1000
1000
0010
0100
,
0001
0001
0010
0100
,
1000
1000
0010
1000
,
0001
0001
0010
0001
,
1000
1000
0100
1000
,
0001
0001
0100
0001
,
0010
0010
0100
1000
,
0010
0000
0010
0000
0100
0000
0001
1000
,
0001
0010
0100
1000
,
0001
0100
0010
1000
,
0001
0010
0100
0010
,
0001
1000
0010
1000
,
0001
0100
0001
1000
,
0001
0010
0001
1000
,
0100
0010
0001
0100
,
0010
0000
0000
0010
0000
0000
0010
0000
,
1000
0000
0000
0000
0001
0000
0000
1000
0000
0000
0100
0000
0010
0000
0000
0000
,
0001
0000
0000
0000
1000
0000
0000
0001
0000
0000
0100
0000
0010
0000
0000
0000
,
1000
0000
0000
0000
0100
0000
0000
1000
0000
0000
0010
0000
0100
0000
0000
0000
,
0001
0000
0000
0000
0010
0000
0000
0001
0000
0000
0100
0000
0010
1000
0010
0000
,
1000
0100
0010
0001
,
1000
1000
0010
0100
,
0001
0001
0010
0100
,
1000
1000
0010
1000
,
0001
0001
0010
0001
,
1000
1000
0100
1000
,
0001
0001
0100
0001
,
0010
0010
0100
1000
,
0010
0010
0100
0001
,
1000
0000
0010
0000
0100
0000
0001
1000
,
0000
0100
0000
0010
0000
0001
1000
0000
,
0010
0100
0010
1000
,
0001
0010
0001
1000
,
0000
1000
0000
0000
1000
0000
0001
0000
,
0000
0001
0000
0000
0001
0000
0100
0000
,
0010
1000
0100
0010
,
0000
0010
0000
0000
0010
0000
0100
0000
,
1000
0010
0100
0001
,
1000
0001
0000
1000
,
0100
0010
0100
1000
,
0010
0100
0000
0000
;

//---------------dance-single - ----------------
#NOTEDATA:;
#CHARTNAME:;
#STEPSTYPE:dance-single;
#DESCRIPTION:;
#CHARTSTYLE:;
#DIFFICULTY:Beginner;
#METER:4;
#RADARVALUES:0.171725,0.241991,0.000000,0.000000,0.000000,143.000000,143.000000,0.000000,0.000000,0.000000,0.000000,0.000000,0.000000,0.000000,0.171725,0.241991,0.000000,0.000000,0.000000,143.000000,143.000000,0.000000,0.000000,0.000000,0.000000,0.000000,0.000000,0.000000;
#CREDIT:;
#NOTES:
// measure 0
0000
0000
0000
0000
,  // measure 1
0000
0000
0000
0000
,  // measure 2
0000
0000
0000
0000
,  // measure 3
0000
0000
0000
0000
,  // measure 4
0000
0000
0000
0000
,  // measure 5
1000
0000
0000
0000
,  // measure 6
0001
0000
0000
0000
,  // measure 7
1000
0000
0000
0000
0000
0000
0000
0001
,  // measure 8
0000
0000
0000
0000
,  // measure 9
0100
0000
0000
0000
0000
0000
0000
0010
,  // measure 10
0000
0000
0000
0000
,  // measure 11
0100
0000
0000
0000
0000
0000
0000
0010
,  // measure 12
0000
0000
0000
0000
,  // measure 13
1000
0000
0000
0000
0000
0000
0000
0001
,  // measure 14
0000
0000
0000
0000
,  // measure 15
1000
0000
0000
0000
1000
0000
0000
1000
,  // measure 16
0000
0000
0000
0001
0000
0000
0000
0000
,  // measure 17
0001
0000
0010
0000
,  // measure 18
0001
0000
0010
0000
,  // measure 19
0100
0000
1000
0000
,  // measure 20
0100
0000
1000
0000
,  // measure 21
0010
0000
0000
0000
0100
0000
0000
0010
,  // measure 22
0000
0000
0100
0000
,  // measure 23
0001
0000
0000
0000
1000
0000
0000
0001
,  // measure 24
0000
0000
1000
0000
,  // measure 25
0001
0000
1000
0000
,  // measure 26
0001
0000
1000
0000
,  // measure 27
0100
0000
0010
0000
,  // measure 28
0100
0000
0010
0000
,  // measure 29
0001
0000
0000
0000
1000
0000
0000
0001
,  // measure 30
0000
0000
1000
0000
,  // measure 31
0010
0000
0000
0000
0100
0000
0000
0010
,  // measure 32
0000
0000
0100
0000
,  // measure 33
0001
0000
0001
0000
,  // measure 34
0100
0000
0000
0000
,  // measure 35
0010
0000
0010
0000
,  // measure 36
1000
0000
1000
0000
,  // measure 37
0100
0000
0100
0000
,  // measure 38
0010
0000
0000
0000
,  // measure 39
0001
0000
0001
0000
,  // measure 40
0100
0000
0100
0000
,  // measure 41
0010
0000
0000
0000
,  // measure 42
1000
0000
0001
0000
,  // measure 43
1000
0000
0001
0000
,  // measure 44
0010
0000
0100
0000
,  // measure 45
0010
0000
0100
0000
,  // measure 46
1000
0000
0001
0000
,  // measure 47
1000
0000
0001
0000
,  // measure 48
0100
0000
0010
0000
,  // measure 49
0100
0000
0010
0000
,  // measure 50
1000
0000
0100
0000
,  // measure 51
1000
0000
0100
0000
,  // measure 52
0010
0000
0001
0000
,  // measure 53
0010
0000
0001
0000
,  // measure 54
1000
0000
0010
0000
,  // measure 55
1000
0000
0010
0000
,  // measure 56
0100
0000
0001
0000
,  // measure 57
0100
0000
0000
0001
,  // measure 58
1000
1000
0000
0010
,  // measure 59
0100
0001
0000
0001
,  // measure 60
0010
0010
0000
0100
,  // measure 61
1000
0010
0000
0010
,  // measure 62
1000
0000
0000
0000
,  // measure 63
0001
0000
1000
0000
,  // measure 64
0001
0000
1000
0000
,  // measure 65
0100
0000
0010
0000
,  // measure 66
0100
0000
0010
0000
,  // measure 67
0001
0000
1000
0000
,  // measure 68
0001
0000
1000
0000
,  // measure 69
0010
0000
0100
0000
,  // measure 70
0010
0000
0100
0000
,  // measure 71
0001
0000
0000
0000
0010
0000
0000
0001
,  // measure 72
0000
0000
0000
0010
0000
0000
0100
0000
,  // measure 73
0000
1000
0000
0100
,  // measure 74
0000
1000
0000
0001
,  // measure 75
0000
0000
0001
1000
,  // measure 76
0000
0000
1000
0001
,  // measure 77
0000
0100
0000
0001
,  // measure 78
0000
0000
1000
0001
,  // measure 79
0000
0000
0000
1000
,  // measure 80
0000
0000
0000
0001
,  // measure 81
0000
0000
0000
0000
0000
1000
0000
0000
,  // measure 82
0000
0010
0000
0000
;
