#TITLE:CHERNOBOG;
#SUBTITLE:;
#ARTIST:漆黒のEBONY;
#TITLETRANSLIT:;
#SUBTITLETRANSLIT:;
#ARTISTTRANSLIT:Shikkoku no EBONY;
#GENRE:CYBERCORE;
#CREDIT:;
#BANNER:CHERNOBOG.png;
#BACKGROUND:CHERNOBOG-bg.png;
#LYRICSPATH:;
#CDTITLE:cdtitle.png;
#MUSIC:CHERNOBOG.ogg;
#OFFSET:-2.320000;
#SAMPLESTART:53.886589;
#SAMPLELENGTH:9.674992;
#SELECTABLE:YES;
#BPMS:0.000000=200.000000
;
#STOPS:122.500000=0.300000,
201.000000=0.300000
;
#BGCHANGES:0.000=CHERNOBOG.avi=1.000=0=0=0=StretchNoLoop==CrossFade_Fastest==,
99999=-nosongbg-=1.000=0=0=0 // don't automatically add -songbackground-
;
#KEYSOUNDS:;
#ATTACKS:;

//---------------dance-single - ----------------
#NOTES:
     dance-single:
     :
     Hard:
     15:
     0.771688,0.988373,0.252029,0.193222,0.495657,643.000000,613.000000,30.000000,23.000000,0.000000,0.000000,0.771688,0.988373,0.252029,0.193222,0.495657,643.000000,613.000000,30.000000,23.000000,0.000000,0.000000:
// measure 0
0000
0000
0000
0000
,  // measure 1
0000
0000
0000
0000
,  // measure 2
0000
0000
0000
0000
0000
0000
0000
0000
0000
0000
0000
0000
0001
1000
0001
1000
,  // measure 3
0001
0000
0000
0000
0000
0000
0000
0000
0000
0000
0000
0000
1000
0001
1000
0001
,  // measure 4
1000
0000
0000
0000
0000
0000
0000
0000
0000
0000
0000
0000
0001
1000
0001
1000
,  // measure 5
0001
0000
0110
0000
,  // measure 6
1000
0000
0100
0000
0010
0000
0001
0000
0100
0000
0010
0000
,  // measure 7
1000
0000
1001
0000
,  // measure 8
0001
0000
0000
0010
0000
0000
0001
0000
0000
0010
0000
0000
0001
0000
0000
0010
0000
0000
0001
0000
0000
0010
0000
0000
0001
0000
0000
0000
0000
0000
0000
0000
0100
0000
0000
0000
0000
0000
0000
0000
0010
0000
0000
0000
0000
0000
0000
0000
,  // measure 9
2002
0000
0000
0000
,  // measure 10
0000
0000
0000
3003
0000
0000
0000
0000
,  // measure 11
1000
0100
0010
0100
1000
0001
0100
0000
,  // measure 12
0001
0010
1000
0010
0001
0100
0010
0000
,  // measure 13
1000
0100
0001
0100
1000
0010
0100
0000
,  // measure 14
0001
0010
0100
0010
0001
1000
0100
0000
,  // measure 15
1000
0010
0100
1000
0100
0001
1000
0000
,  // measure 16
0001
0010
0100
0001
0100
1000
0001
0000
,  // measure 17
1000
0010
0100
0010
1000
0100
0010
0001
,  // measure 18
0100
0010
0100
0010
0100
0010
0100
0010
0100
0000
0000
0000
1001
0000
0000
0000
,  // measure 19
0001
0010
0100
0001
0100
0010
0100
1000
,  // measure 20
0001
0100
0010
0001
0010
0100
0010
1000
,  // measure 21
0100
0010
0100
0001
0100
0010
0100
1000
,  // measure 22
0010
0100
0010
0001
0010
0100
0010
1000
,  // measure 23
0001
0010
0100
0001
0100
1000
0001
1000
,  // measure 24
0010
0100
1000
0100
0001
1000
0001
1000
,  // measure 25
0001
0010
1000
0010
0001
0100
1000
0100
,  // measure 26
0001
1000
1100
0101
,  // measure 27
1000
0010
0100
0001
1000
0100
0010
0001
,  // measure 28
0100
0000
0010
0000
1000
0000
0001
0000
0010
0000
0100
0000
1000
0001
1000
0001
,  // measure 29
1000
0000
0010
0000
0100
0000
0010
0000
1000
0000
0001
0000
0010
0100
0010
0100
,  // measure 30
0010
0001
0100
0010
1000
0001
1000
0100
,  // measure 31
0001
0100
1000
0010
0100
0001
0010
1000
,  // measure 32
0010
0001
0100
0010
1000
0100
1000
0010
,  // measure 33
0001
0010
1000
0010
0001
0010
1000
0100
,  // measure 34
0010
0001
0100
0010
1000
0001
2200
0000
,  // measure 35
3300
0202
0303
0022
,  // measure 36
0033
0000
0000
2020
0000
0000
3030
0000
0000
1000
0000
1100
,  // measure 37
0000
0110
0000
0011
0000
0101
0000
1010
0000
2002
0000
0000
,  // measure 38
3003
0000
0000
0000
1000
0010
1000
0010
1000
0010
1000
0010
2000
0000
0000
0000
,  // measure 39
3000
0220
0330
0022
,  // measure 40
0033
0000
0000
0000
0001
1000
0001
1000
0000
0000
0000
0000
0010
0100
0010
0100
,  // measure 41
0010
0100
0010
0100
0010
0100
0010
0100
0010
0100
0010
0100
0020
0000
0000
0000
,  // measure 42
0000
0000
0000
0000
0000
0000
1030
0100
,  // measure 43
0001
1000
0010
0001
1000
0010
1000
0001
,  // measure 44
0010
0000
0001
0000
1000
0000
0100
0000
1000
0001
1000
0000
0001
0000
0100
0000
,  // measure 45
0001
0010
1000
0001
0100
1000
0001
1000
,  // measure 46
0010
0000
1000
0000
0001
0010
0001
0010
0100
1000
0100
1000
0001
0000
0100
0000
,  // measure 47
1000
0001
0010
1000
0001
0010
0001
1000
,  // measure 48
0010
0000
1000
0000
0001
0000
0100
0000
0001
1000
0001
0000
1000
0000
0100
0000
,  // measure 49
1000
0000
0010
0000
0001
0000
1000
0000
0100
0010
0100
0010
1000
0000
2002
0000
,  // measure 50
0000
0000
3003
0000
0110
0000
0000
0000
0001
0010
0001
0000
0100
0000
0010
0000
,  // measure 51
1000
0100
1000
0000
0010
0000
0100
0000
0001
1000
0001
0000
0010
0000
0100
0000
,  // measure 52
1000
0001
1000
0000
0010
0100
0010
0100
0001
1000
0001
0000
1000
0000
0100
0000
,  // measure 53
1000
0001
1000
0000
0001
0000
0100
0000
0001
0010
0001
0000
1000
0000
0010
0000
,  // measure 54
1000
0100
1000
0000
0001
1000
0001
1000
0100
0000
0100
0000
0010
0000
0010
0000
,  // measure 55
0001
0000
0001
0000
0100
0010
0100
0000
0001
0000
0001
0000
0010
0000
0010
0000
,  // measure 56
0100
1000
0100
1000
0100
0010
0100
0000
0010
0000
0010
0000
0001
0000
0001
0000
,  // measure 57
0100
0000
0100
0000
0010
1000
0010
0000
1000
0100
1000
0100
0010
0001
0010
0001
,  // measure 58
0100
0010
0100
0010
1000
0001
1000
0001
1000
0000
0100
0000
0000
0000
0000
0000
,  // measure 59
0110
0000
0000
0000
0011
0001
0000
0000
,  // measure 60
1000
0000
0000
0000
0010
0000
0000
0000
0100
0000
0000
0000
0001
0000
0000
0010
0000
0000
0000
0000
0000
0000
0000
0000
,  // measure 61
0110
0000
0000
0000
1100
1000
0000
0000
,  // measure 62
0001
0000
0100
0000
0010
0000
1000
0000
0000
0100
0000
0000
,  // measure 63
0110
0000
0010
0001
0100
0000
0010
0000
,  // measure 64
1010
0000
1000
0100
0010
0000
0001
0000
,  // measure 65
0101
0000
0000
0000
0100
0000
0010
0000
1000
0100
0010
0100
1000
0000
0001
0000
,  // measure 66
0100
1000
0100
0001
1000
0100
0010
0100
,  // measure 67
1000
0010
0001
0010
1000
0100
0001
0100
,  // measure 68
1000
0000
0010
0000
0100
0010
0100
0010
1000
0000
0100
0000
0010
0000
0001
0000
,  // measure 69
0100
0000
0010
0000
1000
0001
1000
0001
1000
0000
0001
0000
0010
0000
0100
0000
,  // measure 70
1000
0000
0010
0000
0100
0001
0100
0001
0010
0000
0100
0000
1000
0010
1000
0010
,  // measure 71
0100
0000
0001
0000
0010
0100
0010
0100
1000
0000
0010
0000
0100
0001
0100
0001
,  // measure 72
0010
0000
0001
0000
1000
0010
1000
0010
1000
0000
0100
0000
0001
0000
0100
0000
,  // measure 73
1000
0010
0001
0010
1000
0100
0001
1000
,  // measure 74
0010
0001
1000
0100
0020
0000
0000
0000
,  // measure 75
0000
0000
0000
0000
,  // measure 76
0030
0000
0100
0010
0110
0000
0000
0000
,  // measure 77
0000
0000
0000
0000
0001
1000
0001
1000
0001
0000
0000
0000
0000
0000
0000
0000
,  // measure 78
0000
0000
0000
0000
1000
0001
1000
0001
1000
0000
0000
0000
0000
0000
0000
0000
,  // measure 79
0110
0000
0000
0000
0000
0000
1000
0000
0100
0000
1000
0000
,  // measure 80
0001
0000
0100
0000
0001
0000
1000
0000
0100
0000
0001
0000
,  // measure 81
1000
0000
0010
0000
0001
0000
1000
0000
0010
0000
0100
0000
,  // measure 82
0001
0000
0000
0000
0010
0000
0000
0000
0100
0000
0000
0000
1000
0000
0000
0010
0000
0000
0100
0000
0000
0010
0000
0000
,  // measure 83
0001
0010
0100
0010
1000
0100
0010
0100
,  // measure 84
0001
0100
0010
0100
1000
0010
0100
0001
,  // measure 85
1000
0000
0100
0000
0001
0000
0100
0000
1000
0010
1000
0010
1000
0010
1000
0010
,  // measure 86
0100
0001
0100
0001
0100
0001
0100
0000
2002
0000
0000
0000
0000
0000
0000
0000
,  // measure 87
0000
0000
0000
0000
,  // measure 88
0000
0000
0000
0000
,  // measure 89
0000
0000
0000
0000
,  // measure 90
0000
0000
3003
0000
;

//---------------dance-single - ----------------
#NOTES:
     dance-single:
     :
     Medium:
     11:
     0.546062,0.646244,0.235227,0.042005,0.042005,455.000000,427.000000,28.000000,5.000000,0.000000,0.000000,0.546062,0.646244,0.235227,0.042005,0.042005,455.000000,427.000000,28.000000,5.000000,0.000000,0.000000:
0000
0000
0000
0000
,
0000
0000
0000
0000
,
0000
0000
0000
0000
0000
0000
0001
1000
,
0001
0000
0000
0000
0000
0000
1000
0001
,
1000
0000
0000
0000
0000
0000
0001
1000
,
0001
0000
0101
0000
,
1000
0000
0100
0000
1000
0000
0001
0000
0100
0000
0001
0000
,
1000
0000
0110
0000
,
0001
0000
0000
0010
0000
0000
0100
0000
0000
1000
0000
0000
0001
0000
0000
0000
1000
0000
0000
0000
0010
0000
0000
0000
,
2000
0000
0000
0000
,
0000
0000
0000
3000
0000
0000
0000
0000
,
0001
0010
0100
0000
0010
0000
0001
0000
,
1000
0010
0100
0000
0010
0000
1000
0000
,
0100
0010
0001
0000
0100
0000
0010
0000
,
1000
0001
0010
0000
0100
0000
1000
0000
,
0001
0100
1000
0000
0100
0000
0010
0000
,
1000
0100
0001
0000
0100
0000
0010
0000
,
1000
0100
1000
0100
0010
0001
0100
0000
,
0001
0010
0100
1000
0001
0000
1001
0000
,
1000
0010
1000
0010
0100
0001
0100
0000
,
0001
0010
0001
0010
0100
1000
0100
0000
,
1000
0010
1000
0001
0010
0001
1000
0000
,
0001
0100
0001
1000
0100
1000
0001
0000
,
1000
0100
0010
0100
1000
0001
0100
0000
,
0001
0010
0100
0010
0001
1000
0010
0000
,
1000
0100
0010
0001
0100
0010
1000
0001
,
0010
0100
1000
0010
0100
0000
1001
0000
,
0001
0010
0100
0000
0010
0001
1000
0000
,
0010
0100
0010
0000
1000
0100
0010
0001
,
1000
0010
1000
0000
0001
0010
0100
0010
,
0001
0100
0010
0000
1000
0001
1000
0100
,
0010
0000
0010
0001
1000
0000
1000
0010
,
0001
0000
0001
0010
1000
0000
0001
0010
,
0001
0100
0010
1000
0100
0010
0001
1000
,
0010
0100
0001
0010
0100
1000
0001
0000
,
0000
1001
0000
1100
,
0000
0101
0000
0011
,
0000
1010
0000
1001
,
0000
0000
0001
1000
0001
1000
0001
0000
,
0000
0110
0000
1010
,
0000
0000
0011
0000
0000
0000
1000
0001
,
1000
0001
1000
0100
0010
0001
2000
0000
,
0000
3000
0000
0000
0000
0000
0001
0100
,
0001
0000
1000
0100
0000
0100
0010
0000
,
0010
0001
0000
0001
1000
0001
0100
0010
,
0100
0000
0001
0010
0000
0010
0100
0000
,
0100
1000
0000
1000
0001
1000
0010
0100
,
0010
0000
1000
0001
0000
0001
0010
0000
,
0010
0100
0000
0100
1000
0010
1000
0100
,
0010
0001
1000
0001
0000
1000
0001
0200
,
0000
0000
0310
0000
1000
0100
1000
0000
,
0001
0100
0001
0000
1000
0010
1000
0000
,
0001
0010
0001
0000
1000
0100
0001
0000
,
1000
0010
0001
0000
1000
0010
0001
0000
,
1000
0100
0001
0000
1000
0010
1000
0010
,
1000
0010
0100
0001
0010
0100
0010
0100
,
0010
0100
1000
0001
0100
0010
0100
0010
,
0100
0010
1000
0100
1000
0010
0100
0001
,
1000
0100
0010
0001
1000
0001
0000
0000
,
1001
0000
0000
0000
0001
1000
0000
0000
,
1000
0000
0000
0000
0100
0000
0000
0000
0010
0000
0000
0000
0001
0000
0000
1000
0000
0000
0000
0000
0000
0000
0000
0000
,
1001
0000
0000
0000
1000
0001
0000
0000
,
0001
0000
0010
0000
0100
0000
1000
0000
0000
0010
0000
0000
,
0100
0000
0001
1000
0001
0000
0010
0000
,
0100
0000
1000
0010
1000
0000
0100
0000
,
0010
0000
0001
0100
0001
0010
0001
1000
,
0001
0000
1000
0100
0010
0000
0100
0000
,
1000
0000
0010
0100
0010
0000
1000
0000
,
0001
0000
0010
0100
0010
0000
0001
0000
,
1000
0000
0010
1000
0010
0000
0100
0000
,
0001
0000
0010
0001
0010
0000
0011
0000
,
0001
0101
0100
0110
,
0010
0000
1010
0000
1000
0100
1000
0100
,
0010
0001
0010
0001
1000
0010
0100
0001
,
1000
0100
0010
0001
1000
0000
0000
0000
,
0000
0000
0000
0000
,
0000
0000
0001
1000
0001
0000
0000
0000
,
0000
0000
1000
0001
1000
0000
0000
0000
,
0000
0000
0001
1000
0001
0000
0000
0000
,
0101
0000
1100
0000
,
1001
0000
0011
0000
,
1010
0000
1001
0000
,
0110
0000
1001
0001
,
0100
0010
0100
0000
0001
0000
1000
0000
,
0100
0010
0100
0000
1000
0000
0010
0000
,
0100
0001
0100
0000
0001
0010
0001
0010
,
0100
1000
0100
1000
2002
0000
0000
0000
,
0000
0000
0000
0000
,
0000
0000
0000
0000
,
0000
0000
0000
0000
,
0000
0000
3003
0000
;

//---------------dance-single - ----------------
#NOTES:
     dance-single:
     :
     Easy:
     8:
     0.394845,0.494187,0.151217,0.050406,0.000000,329.000000,311.000000,18.000000,6.000000,0.000000,0.000000,0.394845,0.494187,0.151217,0.050406,0.000000,329.000000,311.000000,18.000000,6.000000,0.000000,0.000000:
0000
0000
0000
0000
,
0000
0000
0000
0000
,
0000
0000
0000
0000
0000
0000
0001
1000
,
0001
0000
0000
0000
0000
0000
1000
0001
,
1000
0000
0000
0000
0000
0000
0001
1000
,
0001
0000
1000
0000
,
0001
0010
0100
1000
,
0001
0000
1000
0000
,
0001
0100
0010
1000
,
0002
0000
0000
0000
,
0000
0000
0000
0003
0000
0000
0000
0000
,
1000
0100
0010
0100
,
1000
0010
0100
0001
,
1000
0100
0010
0001
,
1000
0010
0100
0010
,
1000
0001
0010
0100
,
1000
0010
0100
0001
,
1000
0100
0010
0001
,
0100
0010
1000
1001
,
0001
0010
0100
0010
,
0001
0100
0010
1000
,
0001
0010
0100
1000
,
0001
0100
0010
0100
,
0001
1000
0100
0010
,
0001
0100
0010
1000
,
0001
0010
0100
1000
,
0010
0100
0001
1001
,
1000
0100
1000
0001
,
0100
0000
0001
0000
0010
0000
0001
1000
,
0001
0000
0100
0000
0001
0000
1000
0001
,
1000
0000
0001
0000
1000
0001
1000
0000
,
0100
0010
0001
1000
,
0010
0000
0100
0000
0001
0000
0010
0100
,
0010
0000
0001
0000
1000
0000
0010
0100
,
0010
1000
0001
1001
,
0000
0110
0000
1010
,
0000
0101
0000
0011
,
0000
1100
0000
1001
,
0000
0110
0000
1100
,
0000
0011
0000
1010
,
0000
0101
0000
1001
,
0000
0110
0000
2002
,
0000
3003
0000
0000
0000
0000
1000
0000
,
0100
0010
0100
1000
,
0010
0000
0100
0000
0001
1000
0001
0000
,
0010
0100
0010
0001
,
0100
0000
0010
0000
1000
0001
1000
0000
,
0100
0010
0001
0100
,
0010
0000
1000
0000
0001
1000
0001
0000
,
0010
0000
0100
0000
1000
0000
0010
0200
,
0000
0310
1000
1000
,
0100
0100
0010
0010
,
0001
0000
0001
0000
1000
0010
1000
0000
,
0010
0100
0010
0000
0100
0001
0100
0000
,
0001
0010
0001
0000
1000
0000
0010
0000
,
0100
0000
0001
1000
0001
0000
0010
0000
,
0100
0000
1000
0001
1000
0000
0010
0000
,
0100
0000
0001
1000
0001
0000
0010
0000
,
0100
0000
1000
0001
1000
0000
0000
0000
,
0001
0000
0010
0000
,
0100
0000
1000
0000
,
0010
0000
0100
0000
,
0001
0000
1000
0010
,
1000
0010
0100
0001
,
0100
0001
0010
0100
,
0010
0000
0100
0000
1000
0001
1000
0000
,
0001
1000
0001
0010
,
0001
0100
0010
1000
,
0100
0010
0001
1000
,
0010
0100
0001
0010
,
0100
0000
1000
0000
0001
0100
0001
0000
,
1000
0000
0100
0000
1000
0010
1000
0000
,
0001
0010
0001
0001
,
0100
0000
0100
0000
0010
1000
0010
0000
,
1000
0100
1000
0000
0001
0000
0000
0000
,
0000
0000
0000
0000
,
0000
0000
1000
0001
1000
0000
0000
0000
,
0000
0000
0001
1000
0001
0000
0000
0000
,
0000
0000
1000
0001
1000
0000
0000
0000
,
0001
0000
1000
0100
,
0010
0001
1000
0010
,
0100
0001
1000
0100
,
0010
0001
1000
0010
,
0100
0001
1000
0100
,
0010
0001
1000
0001
,
0010
0100
1000
0001
,
0100
0010
2002
0000
,
0000
0000
0000
0000
,
0000
0000
0000
0000
,
0000
0000
0000
0000
,
0000
0000
3003
0000
;

//---------------dance-single - ----------------
#NOTES:
     dance-single:
     :
     Beginner:
     4:
     0.184821,0.190072,0.000000,0.025203,0.000000,154.000000,154.000000,0.000000,3.000000,0.000000,0.000000,0.184821,0.190072,0.000000,0.025203,0.000000,154.000000,154.000000,0.000000,3.000000,0.000000,0.000000:
0000
0000
0000
0000
,
0000
0000
0000
0000
,
0000
0000
0000
0000
,
0001
0000
0000
0000
,
1000
0000
0000
0000
,
0001
0000
1000
0000
,
0001
0000
1000
0000
,
0001
0000
1000
0000
,
0001
0000
1000
0000
,
0002
0000
0000
0000
,
0000
0000
0000
0003
0000
0000
0000
0000
,
1000
0000
1000
0000
,
0010
0000
0010
0000
,
0100
0000
0100
0000
,
0001
0000
0001
0000
,
1000
0000
1000
0000
,
0100
0000
0100
0000
,
0010
0000
0010
0000
,
0001
0000
0001
0000
,
1000
0000
1000
0000
,
0001
0000
0001
0000
,
0100
0000
0100
0000
,
0010
0000
0010
0000
,
1000
0000
1000
0000
,
0001
0000
0001
0000
,
0010
0000
0010
0000
,
0100
0000
0100
0000
,
1000
0000
0001
0000
,
1000
0000
0000
0000
,
0010
0000
0100
0000
,
0010
0000
0100
0001
,
0000
1000
0000
0001
,
0000
1000
0000
0100
,
0000
0010
0000
0100
,
0000
0010
0000
0001
,
0000
0001
0000
1000
,
0000
1000
0000
0010
,
0000
0010
0000
0100
,
0000
0100
0000
0001
,
0000
0001
0000
1000
,
0000
1000
0000
0100
,
0000
0100
0000
0020
,
0000
0030
0000
0000
0000
0000
0001
0000
,
0000
0100
0000
0001
,
0000
0100
0000
0010
,
0000
1000
0000
0010
,
0000
1000
0000
0001
,
0000
0010
0000
0001
,
0000
0010
0000
0100
,
0000
1000
0000
0100
,
0000
1000
0001
0000
,
0001
0000
1000
0000
,
1000
0000
0010
0000
,
0010
0000
0100
0000
,
0100
0000
0001
0000
,
0001
0000
1000
0000
,
1000
0000
0100
0000
,
0100
0000
0010
0000
,
0010
0000
0001
0000
,
0000
0000
0000
0000
,
0000
0000
1000
0000
,
0001
0000
1000
0000
,
0010
0000
0100
0000
,
0001
0000
1000
0000
,
0001
0000
0010
0000
,
0100
0000
1000
0000
,
0001
0000
0100
0000
,
0010
0000
0100
0000
,
0010
0000
1000
0000
,
0001
0000
1000
0000
,
0001
0000
1000
0000
,
0010
0000
1000
0000
,
0010
0000
0100
0000
,
0001
0000
0100
0000
,
0001
0000
1000
0000
,
0000
0000
0000
0000
,
0000
0000
0001
0000
,
0000
0000
1000
0000
,
0000
0000
0001
0000
,
1000
0000
0001
0000
,
1000
0000
0001
0000
,
1000
0000
0001
0000
,
1000
0000
0001
0000
,
0010
0000
0100
0000
,
1000
0000
0001
0000
,
0010
0000
0100
0000
,
1000
0000
0002
0000
,
0000
0000
0000
0000
,
0000
0000
0000
0000
,
0000
0000
0000
0000
,
0000
0000
0003
0000
;
