#VERSION:0.83;
#TITLE:Allegro PIU Mosso;
#SUBTITLE:;
#ARTIST:DM Ashura;
#TITLETRANSLIT:;
#SUBTITLETRANSLIT:;
#ARTISTTRANSLIT:;
#GENRE:SYMPHONIC TRANCE;
#ORIGIN:;
#CREDIT:;
#BANNER:Allegro PIU Mosso.png;
#BACKGROUND:Allegro PIU Mosso-bg.png;
#PREVIEWVID:;
#JACKET:Allegro PIU Mosso-jacket.png;
#CDIMAGE:;
#DISCIMAGE:;
#LYRICSPATH:;
#CDTITLE:cdtitle.png;
#MUSIC:Allegro PIU Mosso.ogg;
#OFFSET:-0.080000;
#SAMPLESTART:24.044052;
#SAMPLELENGTH:11.939999;
#SELECTABLE:YES;
#BPMS:0.000=160.000;
#STOPS:;
#DELAYS:;
#WARPS:;
#TIMESIGNATURES:0.000=4=4;
#TICKCOUNTS:0.000=4;
#COMBOS:0.000=1;
#SPEEDS:0.000=1.000=0.000=0;
#SCROLLS:0.000=1.000;
#FAKES:;
#LABELS:0.000=Song Start;
#BGCHANGES:0.000=Allegro PIU Mosso.avi=1.000=0=0=0=StretchNoLoop==CrossFade_Fastest==,
99999=-nosongbg-=1.000=0=0=0 // don't automatically add -songbackground-
;
#KEYSOUNDS:;
#ATTACKS:
;

//---------------dance-single - ----------------
#NOTEDATA:;
#CHARTNAME:;
#STEPSTYPE:dance-single;
#DESCRIPTION:;
#CHARTSTYLE:;
#DIFFICULTY:Challenge;
#METER:15;
#RADARVALUES:0.606600,0.876754,0.197116,0.131410,0.800782,517.000000,493.000000,24.000000,16.000000,0.000000,0.000000,0.000000,0.000000,0.000000,0.606600,0.876754,0.197116,0.131410,0.800782,517.000000,493.000000,24.000000,16.000000,0.000000,0.000000,0.000000,0.000000,0.000000;
#CREDIT:;
#NOTES:
// measure 0
0000
0000
0000
0000
,  // measure 1
0000
0000
0000
0000
,  // measure 2
0000
0000
0000
0000
,  // measure 3
0000
0000
0000
0000
,  // measure 4
1000
0001
1000
0001
,  // measure 5
0100
0010
0100
0010
,  // measure 6
1000
0001
1000
0001
,  // measure 7
0020
0000
0000
0000
0030
0000
0000
0000
0001
0100
0001
0100
0010
1000
0010
1000
,  // measure 8
0100
0000
1001
0000
,  // measure 9
1000
0000
0000
0000
0110
0000
0000
0010
,  // measure 10
1000
0000
1100
0000
,  // measure 11
0100
0000
0000
0000
0000
0000
0000
0000
0110
0000
0000
0000
0000
0000
0010
0001
,  // measure 12
0010
0000
0101
0000
,  // measure 13
0100
0000
0000
0000
0000
0000
0000
0000
1001
0000
0000
0000
0000
0000
1000
0100
,  // measure 14
1000
0000
0001
0100
0000
0001
0010
0000
0001
1000
0000
0100
1000
0000
0010
1000
,  // measure 15
0000
0001
1000
0000
0001
0010
0001
0010
0100
1000
0100
1000
0001
0100
0001
0100
,  // measure 16
0010
0000
1000
0010
0000
1000
0001
0000
0020
0000
0000
0000
0031
0000
1000
0100
,  // measure 17
1000
0000
0001
0100
0000
0001
1000
0000
0200
0000
0000
0000
0310
0000
0001
1000
,  // measure 18
0001
0000
1000
0010
0000
0000
1000
0001
1000
0000
0001
0010
0000
0000
0100
1000
,  // measure 19
0100
0000
1000
0010
0000
0010
0100
0000
0002
0000
0000
0000
1003
0010
1000
0010
,  // measure 20
1000
0100
0000
1000
0001
0000
0010
0100
0010
0000
0000
0000
1001
0000
0001
0100
,  // measure 21
0001
0100
0000
0010
1000
0000
0100
0010
0100
0000
0000
0000
1001
0000
1000
0010
,  // measure 22
1000
0010
0000
0100
0001
0000
0010
0100
0010
0100
0000
1000
0001
0000
0100
0010
,  // measure 23
0100
0010
0000
1000
0100
0010
0001
0010
0001
0100
0001
0100
0010
1000
0010
1000
,  // measure 24
0200
0000
0000
0000
0300
0000
0000
1000
,  // measure 25
2001
0000
0000
0000
0000
0000
0000
0000
3000
0000
0000
0000
0000
0000
0001
1000
,  // measure 26
0002
0000
0000
0000
0003
0000
0000
0100
,  // measure 27
0120
0000
0000
0000
0000
0000
0000
0000
0030
0000
0000
0000
0000
0000
1000
0001
,  // measure 28
2000
0000
0000
0000
3000
0000
0000
0001
,  // measure 29
0012
0000
0000
0000
0000
0000
0000
0000
0003
0000
0000
0000
0000
0000
0100
0010
,  // measure 30
0100
0000
0000
0000
1001
0000
0000
0001
,  // measure 31
0011
0000
0000
0000
0010
0000
0000
0000
0100
0000
0000
0000
1000
0001
1000
0001
,  // measure 32
1000
0000
0000
0000
0000
0000
1000
0100
1000
0000
0000
0010
0000
0000
0100
0000
,  // measure 33
0001
0000
0000
0000
0000
0000
0001
0100
0001
0000
0000
0010
0000
0000
0100
0000
,  // measure 34
1000
0000
0000
0000
0000
0000
1000
0001
1000
0000
0001
0000
0010
0000
0100
0010
,  // measure 35
0100
0000
0000
0000
0000
0000
0000
0000
0000
0000
0000
0000
0000
0000
0000
0000
0000
0000
0010
0000
0001
0000
0010
0000
0001
0000
0000
0000
0000
0000
0000
0000
0000
0000
0000
0000
0000
0000
0000
0000
0000
0000
1000
0000
0000
0010
0000
0000
,  // measure 36
1000
0000
0000
0000
0001
0100
0001
0100
0010
1000
0010
1000
0100
0010
0100
0010
,  // measure 37
0001
0000
0000
0000
0000
0000
0100
0001
0100
0000
0000
0000
0001
0010
0100
0010
,  // measure 38
0001
0000
0000
1000
0000
0000
0100
0000
0000
0010
0000
0000
0001
0000
0000
0100
,  // measure 39
0000
0000
0000
0000
0000
0000
0010
0000
0000
0000
0000
0000
0000
0000
0000
1000
0000
0000
0000
0000
0000
0000
0000
0000
0001
0000
0000
0000
0010
0000
0000
0000
0100
0000
0000
0000
1000
0000
0000
0000
0100
0000
0000
0000
0010
0000
0000
0000
,  // measure 40
0001
0000
0000
0000
0000
0000
1000
0010
1000
0000
0000
0100
0000
0000
0010
0000
,  // measure 41
0001
0000
0000
0000
0000
0000
0001
0010
0001
0000
0000
0100
0000
0000
0010
0000
,  // measure 42
1000
0000
0000
0000
0000
0000
1000
0001
1000
0000
0010
0000
0100
0000
0001
0000
,  // measure 43
0010
0001
0010
0100
,  // measure 44
1001
0000
0000
0000
0000
0000
0000
0000
1000
0010
1000
0010
0100
0001
0100
0001
,  // measure 45
0010
0000
0000
0000
0000
0000
0000
0000
0001
0010
0001
0010
0100
1000
0100
1000
,  // measure 46
0010
0000
0000
0100
0000
0000
0001
0000
1000
0000
0000
0100
0000
0000
0010
0000
,  // measure 47
0001
0000
0000
0000
0000
0000
1000
0010
0100
0001
0100
0010
,  // measure 48
2000
0000
0000
0000
3000
0000
0001
0100
,  // measure 49
0001
0010
1100
1000
,  // measure 50
2002
0000
0000
3003
,  // measure 51
0001
0100
0001
1000
0010
1000
0001
0010
0001
1000
0100
1000
,  // measure 52
0001
0000
1000
0010
0000
1000
0100
0000
0010
0000
0000
0000
0100
0000
1000
0001
,  // measure 53
1000
0000
0000
0101
0000
0000
0011
0000
1001
0000
0000
0000
0100
0000
0001
0010
,  // measure 54
0001
0000
1000
0100
0000
0000
1000
0010
1000
0000
0001
0100
0000
0000
0001
1000
,  // measure 55
0001
0000
1000
0100
0000
0100
0010
0000
0001
0000
0000
0000
1000
0000
0001
0100
,  // measure 56
0001
0010
0000
0010
0100
0000
1000
0100
1000
0010
0000
0010
0100
0000
0001
1000
,  // measure 57
0001
0100
0000
0100
0010
0000
1000
0100
1000
0001
0000
0001
0100
0000
0001
0010
,  // measure 58
0001
1000
0000
1000
0010
0000
0100
0001
0100
0010
0000
0010
1000
0000
0001
1000
,  // measure 59
0001
0000
0000
0010
0000
0000
0000
0000
0000
0010
0000
0000
0100
0000
0000
0000
0000
0000
0010
0000
0000
0001
0000
0000
0010
0000
0000
0100
0000
0000
0000
0000
0000
0100
0000
0000
1000
0000
0000
0000
0100
0000
0000
0000
0010
0000
0000
0000
,  // measure 60
0001
0000
0000
0100
0000
0000
0010
0000
0000
1000
0010
0100
,  // measure 61
0001
0000
0000
0010
0000
0000
0100
0000
0000
1000
0100
0010
,  // measure 62
0001
0000
0000
0100
0000
0000
0010
0000
0000
1000
0001
0100
,  // measure 63
0001
0000
0000
0010
0000
0000
0100
0000
0000
1000
0001
0010
,  // measure 64
0100
0000
0000
0010
0000
0000
0001
0100
0001
1000
0100
1000
,  // measure 65
0010
0000
0000
1000
0000
0000
0010
0100
0010
1000
0001
1000
,  // measure 66
0010
0000
0000
0100
0000
0000
0001
0010
0001
1000
0010
1000
,  // measure 67
0100
0000
0100
0010
0000
0010
0001
0100
0010
1000
0100
0010
,  // measure 68
0001
0101
1000
1100
,  // measure 69
0001
0011
1000
1010
,  // measure 70
1000
0100
1000
0001
0010
0001
1000
0010
1000
0001
0100
0001
,  // measure 71
1000
0100
0010
0001
0010
0100
1000
0010
0100
0001
0100
0010
,  // measure 72
2000
0000
0000
0000
0000
3000
0000
0000
0000
1000
0010
1000
,  // measure 73
0020
0000
0000
0000
0000
0030
0000
0000
0000
0010
0100
0010
,  // measure 74
0200
0000
0000
0000
,  // measure 75
0000
0000
0000
0000
,  // measure 76
0310
1001
0000
0000
;

//---------------dance-single - ----------------
#NOTEDATA:;
#CHARTNAME:;
#STEPSTYPE:dance-single;
#DESCRIPTION:;
#CHARTSTYLE:;
#DIFFICULTY:Hard;
#METER:13;
#RADARVALUES:0.483402,0.688878,0.271034,0.205329,0.435297,412.000000,379.000000,33.000000,25.000000,0.000000,0.000000,0.000000,0.000000,0.000000,0.483402,0.688878,0.271034,0.205329,0.435297,412.000000,379.000000,33.000000,25.000000,0.000000,0.000000,0.000000,0.000000,0.000000;
#CREDIT:;
#NOTES:
0000
0000
0000
0000
,
0000
0000
0000
0000
,
0000
0000
0000
0000
,
0000
0000
0000
0000
,
1000
0010
0100
0001
,
1000
0100
0010
0001
,
1000
0010
0100
0001
,
0020
0000
0000
0000
0130
1000
0010
0100
,
0001
0000
1001
0000
,
1000
0000
0000
0000
1010
0000
0000
0010
,
0100
0000
0110
0000
,
0010
0000
0000
0000
0000
0000
0000
0000
1010
0000
0000
0000
0000
0000
1000
0100
,
1000
0000
1100
0000
,
0100
0000
0000
0000
0110
0000
0000
0010
,
0001
0000
0000
0001
0000
0000
0100
0000
0000
0100
0000
0000
0010
0000
0000
0010
,
0000
0000
1000
0000
0000
0100
0000
0000
0010
0000
0000
0001
0000
0000
0100
0000
,
0010
0000
1000
0010
0000
1000
0100
0000
0020
0000
0000
0000
0030
0000
0100
1000
,
0100
0000
1000
0001
0000
0010
0001
0000
0200
0000
0000
0000
0300
0000
0001
0010
,
0001
0000
1000
0010
0000
0000
1000
0100
1000
0000
0001
0100
0000
0000
0001
1000
,
0001
0000
1000
0010
0000
0100
0001
0000
0020
0000
0000
0000
0030
0000
0000
0000
,
0100
1000
0000
0001
1000
0000
0001
0100
0002
0000
0000
0000
0003
0000
1000
0000
,
0001
0100
0000
0001
1000
0000
0010
1000
0020
0000
0000
0000
0030
0000
1000
0000
,
0001
0010
0000
0001
1000
0000
0100
0000
0010
0001
0000
0010
0100
0000
1000
0000
,
0001
0100
0000
0010
1000
0100
1000
0100
0020
0000
0000
0000
0000
0000
0000
0000
,
0032
0000
0000
0000
0003
0000
0000
1000
,
2020
0000
0000
0000
0000
0000
0000
0000
3030
0000
0000
0000
0000
0000
0100
0010
,
0200
0000
0000
0000
0300
0000
0000
0001
,
0022
0000
0000
0000
0000
0000
0000
0000
0033
0000
0000
0000
0000
0000
0010
0100
,
0020
0000
0000
0000
0030
0000
0000
0100
,
2200
0000
0000
0000
0000
0000
0000
0000
3300
0000
0000
0000
0000
0000
1000
0001
,
1000
0000
0000
0000
1001
0000
0000
0001
,
1000
0000
1100
0000
0101
0000
0001
0010
,
0100
0000
0000
0000
0000
0000
1000
0010
1000
0000
0000
0100
0000
0000
0010
0000
,
0001
0000
0000
0000
0000
0000
1000
0100
1000
0000
0000
0001
0000
0000
0100
0000
,
0010
0000
0000
0000
0000
0000
1000
0001
1000
0000
0001
0000
0010
0000
0100
1000
,
0100
0000
0000
0000
0000
0000
1000
0001
1000
0000
0000
0000
0000
0000
0001
0010
,
0001
0000
1000
0010
1000
0100
0001
0100
,
1000
0000
0000
0000
0000
0000
0001
0100
0001
0000
0000
0000
1000
0000
0100
0000
,
0010
0000
0000
0010
0000
0000
0100
0000
0000
0100
0000
0000
1000
0000
0000
1000
,
0000
0000
0000
0000
0000
0000
0001
0000
0000
0000
0000
0000
0000
0000
0000
0001
0000
0000
0000
0000
0000
0000
0000
0000
1000
0000
0000
0000
0010
0000
0000
0000
1000
0000
0000
0000
0001
0000
0000
0000
0010
0000
0000
0000
0001
0000
0000
0000
,
1000
0000
0000
0000
0000
0000
0001
0010
0001
0000
0000
0100
0000
0000
0010
0000
,
1000
0000
0000
0000
0000
0000
0001
0100
0001
0000
0000
1000
0000
0000
0100
0000
,
0010
0000
0000
0000
0000
0000
0001
1000
0001
0000
1000
0000
0010
0000
0100
0000
,
0001
0010
0100
1000
,
1001
0000
0000
0000
0001
0100
1000
0100
,
0001
0000
0000
0000
1000
0100
0001
0100
,
1000
0000
0000
1000
0000
0000
0010
0000
0100
0000
0000
0100
0000
0000
0001
0000
,
0010
0000
0000
0000
0000
0000
0001
0100
0001
1000
0100
1000
,
0010
0000
0000
0000
0000
0000
1000
0100
,
0010
0100
1100
1000
,
1001
0000
0000
0000
,
0220
0000
0000
0330
,
1000
0000
0001
0100
0000
0001
0100
0000
0010
0000
0000
0000
0000
0000
1000
0000
,
0100
0000
0000
0110
0000
0000
0011
0000
1001
0000
0000
0000
0000
0000
0001
0000
,
0100
0000
0001
0010
0000
0000
0001
1000
0001
0000
1000
0010
0000
0000
1000
0100
,
1000
0000
0001
0100
0000
0001
0010
0000
0002
0000
0000
0000
1003
0000
0010
0000
,
1000
0100
0000
1000
0001
0000
0100
0000
0010
1000
0000
0001
1000
0000
0100
0000
,
1000
0010
0000
1000
0001
0000
0010
0000
0100
1000
0000
0001
1000
0000
0010
0000
,
0100
0001
0000
0010
0001
0000
1000
0000
0010
0100
0000
0010
1000
0000
0100
0000
,
1000
0000
0000
0001
0000
0000
0000
0000
0000
0010
0000
0000
0001
0000
0000
0000
0000
0000
0100
0000
0000
0000
0000
0000
0010
0000
0000
1000
0000
0000
0000
0000
0000
0100
0000
0000
1000
0000
0000
0000
0001
0000
0000
0000
1000
0000
0000
0000
,
0002
0000
0000
0000
0000
0003
0000
0000
0000
1000
0010
1000
,
0010
0100
0001
0010
,
0200
0000
0000
0000
0000
0300
0000
0000
0000
1000
0100
1000
,
0001
0000
0000
0100
0000
0000
0010
0000
0000
1000
0000
1000
,
0001
0000
0000
0010
0000
0000
0100
0000
0000
0010
0001
0010
,
0001
0000
0000
0100
0000
0000
0010
0000
0000
1000
0001
1000
,
0100
0000
0000
0010
0000
0010
0001
0000
0000
0100
0010
0100
,
0010
1000
0001
0010
,
0001
0101
1000
1100
,
0001
0011
1000
1010
,
1100
0101
0011
1010
,
1001
0110
1001
0110
,
2002
0000
0000
0000
0000
3003
0000
0000
0000
1000
0100
0010
,
0002
0000
0000
0000
0000
0003
0000
0000
0000
0001
0100
0010
,
2000
0000
0000
0000
,
0000
0000
0000
0000
,
3001
0110
0000
0000
;

//---------------dance-single - ----------------
#NOTEDATA:;
#CHARTNAME:;
#STEPSTYPE:dance-single;
#DESCRIPTION:;
#CHARTSTYLE:;
#DIFFICULTY:Medium;
#METER:9;
#RADARVALUES:0.337912,0.438377,0.123197,0.090345,0.053385,288.000000,273.000000,15.000000,11.000000,0.000000,0.000000,0.000000,0.000000,0.000000,0.337912,0.438377,0.123197,0.090345,0.053385,288.000000,273.000000,15.000000,11.000000,0.000000,0.000000,0.000000,0.000000,0.000000;
#CREDIT:;
#NOTES:
0000
0000
0000
0000
,
0000
0000
0000
0000
,
0000
0000
0000
0000
,
0000
0000
0000
0000
,
1000
0010
1000
0100
,
1000
0001
0010
0001
,
0100
0010
1000
0001
,
1000
0000
0000
0000
0001
0010
0001
0010
,
0100
0000
1000
0000
,
0010
0000
0000
0000
0100
0000
0000
0001
,
1000
0000
0100
0000
,
0010
0000
0000
0000
0001
0000
0000
0100
,
0010
0000
1000
0000
,
0100
0000
1000
0000
,
0001
0000
0000
0000
,
0000
0000
0000
0000
,
1000
0000
0000
1000
0000
0000
0010
0000
0200
0000
0000
0000
0000
0000
0301
0000
,
0010
0000
0000
0010
0000
0000
0100
0000
2000
0000
0000
0000
0000
0000
3010
0000
,
0100
0000
0000
0010
0000
0000
1000
0000
0100
0000
0000
0010
0000
0000
0001
0000
,
0100
0000
0000
0010
0000
0000
1000
0000
0002
0000
0000
0000
0003
0000
0000
0000
,
1000
0100
0010
0100
2000
0000
3000
0000
,
0001
0100
0010
0100
0002
0000
0003
0000
,
1000
0100
0010
0000
0001
0100
0010
0000
,
1000
0100
0010
0001
0200
0000
0000
0000
,
0310
0000
0000
0000
0000
0000
0000
0010
,
1000
0000
0000
0000
0000
0000
0000
1000
,
0001
0000
0000
0000
0000
0000
0000
0001
,
0010
0000
0000
0000
0000
0000
0000
0010
,
0100
0000
0000
0000
0000
0000
0000
0100
,
1000
0000
0000
0000
0000
0000
0000
1000
,
0001
0000
0000
0000
0101
0000
0000
1000
,
0100
0000
0100
0000
0010
0001
1000
0001
,
1000
0000
0000
1000
0010
0000
0100
0000
,
0001
0000
0000
0001
0010
0000
0100
0000
,
1000
0000
0000
1000
0100
0000
0010
0100
,
0010
0000
0000
0001
0100
0000
0000
0010
,
1000
0100
0001
0100
,
1000
0000
0000
1000
0010
0000
0100
0001
,
0100
0000
0000
0100
0000
0000
0010
0000
0000
0010
0000
0000
1000
0000
0000
1000
,
0000
0000
0001
0000
0000
0001
0000
0000
1000
0000
0100
0000
0010
0000
0001
0000
,
0100
0000
0000
0100
0010
0000
1000
0000
,
0001
0000
0000
0001
0010
0000
0100
0000
,
1000
0000
0000
1000
0010
0000
0100
0000
,
0001
0010
1000
0010
,
0001
0000
0000
0000
1000
0010
1000
0010
,
0100
0000
0000
0000
0001
0010
0001
0010
,
0100
1000
0010
0100
,
0001
0000
0000
0000
1000
0100
0010
0001
,
0100
0000
0000
0000
0000
0000
0001
1000
,
0001
1000
0010
0100
,
0001
0000
0000
0000
,
0020
0000
0000
0000
,
0130
0000
0000
0000
0000
1000
0001
0000
,
0001
0000
0000
1000
0000
0000
0001
0000
1000
0000
0000
0000
0000
0000
0100
0000
,
0010
0000
0000
0010
0000
0000
0001
0000
0100
0000
0000
0100
0000
0000
0010
0000
,
1000
0000
0000
1000
0000
0000
0100
0000
0010
0000
0000
0000
0001
0000
0000
0000
,
1000
0010
1000
0000
0001
0010
0001
0000
,
1000
0100
1000
0000
0001
0100
0001
0000
,
1000
0100
0010
0000
0001
0100
0010
0000
,
1000
0010
0100
0000
0001
0010
0100
1000
,
0010
0000
0000
1000
,
1100
0100
0010
0001
,
1001
0000
0000
1000
,
1010
0010
0100
0001
,
1001
1000
0010
0010
,
0100
0100
0001
0001
,
0010
0010
0100
0100
,
1000
1000
0010
0010
,
1000
1001
0001
1001
,
1000
1010
0001
0011
,
1000
1001
0001
1001
,
1000
1100
0001
0101
,
2002
0000
0000
3003
0000
0000
1000
0001
,
2000
0000
0000
3000
0000
0000
0010
0100
,
0020
0000
0000
0000
,
0000
0000
0000
0000
,
0130
1001
0000
0000
;

//---------------dance-single - ----------------
#NOTEDATA:;
#CHARTNAME:;
#STEPSTYPE:dance-single;
#DESCRIPTION:;
#CHARTSTYLE:;
#DIFFICULTY:Easy;
#METER:5;
#RADARVALUES:0.232315,0.375752,0.090345,0.057492,0.000000,198.000000,187.000000,11.000000,7.000000,0.000000,0.000000,0.000000,0.000000,0.000000,0.232315,0.375752,0.090345,0.057492,0.000000,198.000000,187.000000,11.000000,7.000000,0.000000,0.000000,0.000000,0.000000,0.000000;
#CREDIT:;
#NOTES:
0000
0000
0000
0000
,
0000
0000
0000
0000
,
0000
0000
0000
0000
,
0000
0000
0000
0000
,
1000
1000
0001
0001
,
0100
0100
0010
0010
,
1000
1000
0001
0001
,
0010
0000
0100
0000
,
1000
0000
0001
0000
,
1000
0000
0001
0000
,
1000
0000
0100
0000
,
1000
0000
0010
0000
,
0100
0000
0010
0000
,
0100
0000
0001
0000
,
0010
0000
0000
0000
,
0000
0000
0000
0000
,
0001
1000
0001
0000
,
1000
0100
1000
0000
,
0001
0001
0100
0100
,
0010
1000
0010
0000
,
1000
0100
1000
0000
,
0010
0100
0010
0000
,
0100
0100
0001
0001
,
1000
0001
1000
0000
,
0001
0000
0000
0000
,
1001
0000
0000
0000
,
0110
0000
0000
0000
,
1001
0000
0000
0000
,
0010
0100
0000
0100
,
0010
1000
0000
1000
,
0001
0000
1001
0000
,
1000
1000
0010
0010
,
0100
0000
0001
0010
,
0001
0000
1000
0010
,
1000
0000
0100
0010
,
0001
0000
1000
0000
,
0010
0100
0010
0100
,
0001
0000
1000
0000
,
0100
0000
0010
0000
,
0001
0000
0100
0100
,
0010
0000
1000
0000
,
0001
0000
1000
0000
,
0010
0000
1000
0000
,
0100
0010
0100
0010
,
0001
0000
0100
0000
,
0001
0000
1000
0000
,
0100
0000
1000
0000
,
0010
0000
0100
0100
,
0001
0000
0000
0000
,
0010
0000
0100
0000
,
1000
0000
0000
0000
,
0002
0000
0000
0000
,
1003
0000
0000
0010
,
0110
0000
0000
0001
,
1000
1000
0010
0010
,
0100
0001
0010
0000
,
0001
0001
0100
0100
,
0010
0010
1000
1000
,
0100
0100
0010
0010
,
0001
0001
1000
0001
,
0100
0000
0000
0010
,
1000
0100
0010
0001
,
0100
0000
0000
0001
,
0010
0100
1000
0010
,
0100
0000
0000
0001
,
1000
0000
0000
1000
,
0001
0000
1000
0010
,
0100
0001
0010
0100
,
1000
1000
0001
0001
,
0100
0100
0010
0010
,
0100
0100
0001
0001
,
1000
1001
0001
1001
,
2002
0000
0000
3003
0000
0000
0010
0000
,
0220
0000
0000
0330
0000
0000
0100
0000
,
2002
0000
0000
0000
,
0000
0000
0000
0000
,
3003
0110
0000
0000
;

//---------------dance-single - ----------------
#NOTEDATA:;
#CHARTNAME:;
#STEPSTYPE:dance-single;
#DESCRIPTION:;
#CHARTSTYLE:;
#DIFFICULTY:Beginner;
#METER:2;
#RADARVALUES:0.112637,0.156563,0.008213,0.032853,0.000000,96.000000,95.000000,1.000000,4.000000,0.000000,0.000000,0.000000,0.000000,0.000000,0.112637,0.156563,0.008213,0.032853,0.000000,96.000000,95.000000,1.000000,4.000000,0.000000,0.000000,0.000000,0.000000,0.000000;
#CREDIT:;
#NOTES:
0000
0000
0000
0000
,
0000
0000
0000
0000
,
0000
0000
0000
0000
,
0000
0000
0000
0000
,
0000
0000
0000
0000
,
0000
0000
0000
0000
,
0000
0000
0000
0000
,
0000
0000
0000
0000
,
1000
0000
0000
0000
,
0001
0000
0000
0000
,
1000
0000
0000
0000
,
0001
0000
0000
0000
,
1000
0000
0000
0000
,
0001
0000
0000
0000
,
1000
0000
0000
0000
,
0000
0000
0000
0000
,
1000
0000
1000
0000
,
0010
0000
0010
0000
,
0100
0000
0100
0000
,
0001
0000
0001
0000
,
0010
0000
0010
0000
,
0100
0000
0100
0000
,
1000
0000
1000
0000
,
0010
0000
0010
0000
,
1000
0000
0000
0000
,
0001
0000
0000
0000
,
1000
0000
0000
0000
,
0001
0000
0000
0000
,
1000
0000
0000
0000
,
0001
0000
0000
0000
,
1000
0000
1000
0000
,
0001
0000
0001
0000
,
1000
0000
0000
0000
,
0010
0000
0000
0000
,
0100
0000
0000
0000
,
0001
0000
0000
0000
,
0010
0000
0000
0000
,
0100
0000
0000
0000
,
1000
0000
0000
0000
,
0010
0000
0100
0000
,
0010
0000
0000
0000
,
1000
0000
0000
0000
,
0100
0000
0000
0000
,
1000
0000
0000
0000
,
0010
0000
0000
0000
,
0100
0000
0000
0000
,
0001
0000
0000
0000
,
0010
0000
0100
0000
,
0010
0000
0000
0000
,
0001
0000
1000
0000
,
0001
0000
0000
0000
,
2000
0000
0000
0000
,
3001
0000
0000
0000
,
0010
0000
0100
0000
,
1000
0000
1000
0000
,
0010
0000
0010
0000
,
0100
0000
0100
0000
,
0001
0000
0001
0000
,
0010
0000
0010
0000
,
0100
0000
0100
0000
,
1000
0000
0000
0000
,
0001
0000
0000
0000
,
1000
0000
0000
0000
,
0001
0000
0000
0000
,
1000
0000
0001
0000
,
1000
0000
0001
0000
,
1000
0000
0001
0000
,
1000
0000
1000
0000
,
0001
0000
0001
0000
,
0100
0000
0100
0000
,
0010
0000
0010
0000
,
1000
0000
1000
0000
,
0200
0000
0000
0300
0000
0000
0000
0000
,
0020
0000
0000
0030
0000
0000
0000
0000
,
0002
0000
0000
0000
,
0000
0000
0000
0000
,
0003
1001
0000
0000
;
