#TITLE:Abing Abing;
#SUBTITLE:;
#ARTIST:Orange Caramel;
#TITLETRANSLIT:;
#SUBTITLETRANSLIT:;
#ARTISTTRANSLIT:;
#GENRE:EURODANCE;
#CREDIT:;
#BANNER:Abing Abing.png;
#BACKGROUND:Abing Abing-bg.png;
#LYRICSPATH:;
#CDTITLE:cdtitle.png;
#MUSIC:Abing Abing.ogg;
#OFFSET:-0.760000;
#SAMPLESTART:52.532536;
#SAMPLELENGTH:15.117199;
#SELECTABLE:YES;
#BPMS:0.000000=128.000000
;
#STOPS:
;
#BGCHANGES:0.000=Abing Abing.avi=1.000=0=0=0=StretchNoLoop==CrossFade_Fastest==,
99999=-nosongbg-=1.000=0=0=0 // don't automatically add -songbackground-
;
#KEYSOUNDS:;
#ATTACKS:;

//---------------dance-single - ----------------
#NOTES:
     dance-single:
     :
     Hard:
     11:
     0.503013,0.514736,0.000000,0.019893,0.243691,354.000000,354.000000,0.000000,2.000000,0.000000,0.000000,0.503013,0.514736,0.000000,0.019893,0.243691,354.000000,354.000000,0.000000,2.000000,0.000000,0.000000:
0000
0000
0000
0000
,
0000
0000
0000
0000
,
0000
0000
0000
0000
,
0000
0000
0000
0000
0000
0000
0000
0000
0000
0000
0001
1000
0001
0000
1000
0000
,
0100
0000
0010
0100
0000
0010
0100
0000
1000
0000
0002
0000
0000
0000
0000
0000
,
1003
0010
0100
0010
1000
0100
0010
0001
,
0100
0000
0010
0100
0000
0010
0100
0000
0001
0000
2000
0000
0000
0000
0000
0000
,
3001
0010
0100
0010
1000
0010
0100
0010
,
0001
0000
0000
0100
0000
0000
0010
0000
1000
0000
0100
0000
0010
0000
0001
0000
,
0100
0000
0010
1000
0000
0010
1000
0000
0100
0000
0010
0000
0100
0000
1000
0000
,
0001
0000
1000
0010
0000
1000
0010
0000
0100
0000
0001
1000
0001
0000
1000
0000
,
0100
0000
0010
0001
0000
0010
0001
0000
1000
0000
0010
0000
0001
0000
0010
0000
,
1000
0000
0000
0100
0000
0000
1000
0000
0010
0000
0100
0000
0001
0000
0010
0000
,
0001
0000
1000
0001
1000
0100
0001
0100
,
1000
0000
0000
0010
0000
0000
1000
0000
0100
0000
0010
0000
0001
0000
0100
0000
,
0001
0000
1000
0100
0010
0100
0001
0100
,
0010
0000
0000
0001
0000
0000
0100
0000
0010
0000
0010
0000
1000
0000
0100
0000
,
1000
0000
0000
0010
0000
0000
1000
0000
0100
0000
0001
0000
0100
0000
1000
0000
,
0000
0001
0100
0010
0100
1000
0100
0010
,
1000
0000
0001
1000
0000
0001
1000
0000
0100
0000
0010
0000
0100
0000
0100
0000
,
1000
0000
1000
0000
0010
0000
0010
0100
0000
0000
0001
0000
0010
0000
0100
0000
,
1000
0000
0000
0000
0001
0000
0100
0001
0000
0000
0000
0000
0010
0000
0010
0000
,
0100
0000
0100
0000
1000
0000
1000
0010
0000
0000
0100
0000
0001
0000
0010
0000
,
0001
0000
0000
0000
1000
0000
0100
1000
0000
0000
0000
0000
0001
0000
0100
0000
,
0001
0000
0000
0000
0010
0000
0000
0000
0001
0000
0100
0000
0001
0000
1000
0001
,
1000
0000
0000
0000
0100
0000
0000
0000
1000
0000
0010
0000
1000
0000
0001
1000
,
0001
0010
0100
1000
0010
0100
0001
1000
,
0100
0000
1000
0001
1000
0000
0010
0000
0100
0000
0001
1000
0001
0000
0010
0000
,
0001
0000
0001
0000
0100
0000
0100
0010
0000
0000
1000
0000
0100
0000
0010
0000
,
0001
0000
1000
0000
0001
0000
1000
0010
0000
0000
0000
0000
0100
0000
0001
0000
,
0010
0000
0010
0000
0100
0000
0100
1000
0000
0000
0010
0000
0100
0000
0001
0000
,
0010
0000
0001
0000
1000
0000
0001
0100
0000
0000
0000
0000
0010
0000
1000
0000
,
0100
0000
0000
0010
0000
0000
0100
0000
1000
0000
0010
0000
0001
0000
0010
0000
,
1000
0000
0000
0100
0000
0000
0010
0000
0001
0000
0100
0000
0001
0000
0000
0000
,
1000
0010
0010
0100
0100
0001
0001
0010
,
0001
0100
0010
1000
0100
1000
0010
0100
,
0001
0000
0000
0010
0000
0000
0001
0000
0100
0000
0010
0000
1000
0000
0100
0000
,
0010
0000
0000
0100
0000
0000
1000
0000
0010
0000
0100
0000
0001
0000
0000
0000
,
1000
0000
0000
0100
0000
0000
0010
0000
0100
0000
1000
0000
0010
0000
0001
0000
,
0010
0000
0000
1000
0000
0000
0001
0000
0010
0000
0100
0000
1000
0000
0010
0000
,
0100
0000
0000
0001
0000
0000
0010
0000
0100
0000
0010
0000
0001
0000
1000
0000
,
0010
0000
0000
0100
0000
0000
1000
0000
0100
0000
0001
0000
1000
0000
0100
0000
,
1000
0010
0100
0010
0001
0010
0100
0010
,
1000
0000
0000
0000
0000
0001
0010
0001
,
1000
0000
0000
0100
0000
0000
0010
0000
0100
0000
1000
0000
0010
0000
0100
0000
,
0001
0000
0000
0010
0000
0000
0100
0000
0010
0000
0001
0000
1000
0000
0000
0000
,
0001
0000
0000
0100
0000
0000
1000
0000
0100
0000
0001
0000
0010
0000
0100
0000
,
1000
0000
0000
0010
0000
0000
0001
0000
0010
0000
1000
0000
0100
0000
0010
0000
,
0001
0000
0000
1000
0000
0000
0010
0000
0100
0000
0010
0000
1000
0000
0100
0000
,
0010
0000
0000
0001
0000
0000
0100
0000
1000
0000
0100
0000
0001
0000
0000
0000
,
0010
0000
0000
0100
0000
0000
0010
0000
0001
0000
0100
0000
0010
0000
1000
0000
,
0100
0000
0000
1000
0000
0000
0001
0000
1000
0001
1000
0001
1000
0000
0000
0000
;

//---------------dance-single - ----------------
#NOTES:
     dance-single:
     :
     Medium:
     8:
     0.323975,0.308842,0.000000,0.009947,0.029840,228.000000,228.000000,0.000000,1.000000,0.000000,0.000000,0.323975,0.308842,0.000000,0.009947,0.029840,228.000000,228.000000,0.000000,1.000000,0.000000,0.000000:
0000
0000
0000
0000
,
0000
0000
0000
0000
,
0000
0000
0000
0000
,
0000
0000
0000
0000
,
1000
1000
0001
0010
,
0001
0100
0001
0000
1000
0000
0010
0000
,
1000
1000
0100
1000
,
0001
0100
0010
0000
0100
0001
0100
0000
,
0001
0000
0000
0010
0000
0000
0100
0000
0000
0000
1000
0000
0010
0000
0000
0000
,
1000
0000
0000
0100
0000
0000
0010
0000
0000
0000
0001
0000
1000
0000
0000
0000
,
0001
0001
1000
0100
,
1000
0010
1000
0000
0001
0000
0000
0000
,
1000
0000
0000
0001
0000
0000
1000
0000
0001
0000
0000
0000
0010
0000
0000
0000
,
0100
0000
1000
0010
1000
0001
1000
0000
,
0001
0000
0000
1000
0000
0000
0001
0000
1000
0000
0000
0000
0100
0000
0000
0000
,
0010
0000
0001
0100
0001
1000
0001
0000
,
1000
0000
0000
1000
0000
0000
0000
0000
0100
0000
0010
0000
0100
0000
0000
0000
,
0010
0000
0000
0010
0000
0000
0000
0000
0001
0000
1000
0000
0001
0000
0000
0000
,
0000
1000
0010
0000
0100
0001
0100
0001
,
0020
0000
0000
0130
,
1000
1000
0010
0010
,
0100
0100
0001
0001
,
0010
0010
0100
0100
,
1000
1000
0001
0001
,
1000
0000
0001
0000
1000
0000
0001
1000
,
0001
0000
1000
0000
0001
0000
1000
0001
,
1000
0100
0001
0100
,
1000
0010
0001
0010
,
1000
0000
0001
0000
0010
0100
0010
0000
,
0001
0000
1000
0000
0010
0100
0010
0000
,
1000
0000
0001
0000
1000
0100
1000
0000
,
0001
0000
1000
0000
0001
0100
0001
0010
,
0001
0000
0100
0000
0010
1000
0010
0000
,
1000
0000
0100
0000
0010
0001
0010
0000
,
0001
0000
1000
0000
0010
0100
0010
0000
,
1000
0000
0001
0000
0010
0100
0010
0100
,
1000
0000
0001
0000
1000
0100
1000
0000
,
0001
0000
1000
0000
0001
0100
0001
0000
,
0010
0000
0100
0000
1000
0010
1000
0000
,
0010
0000
0100
0000
0001
0010
0001
1000
,
0001
0000
0100
0000
0001
1000
0001
0000
,
1000
0000
0100
0000
1000
0001
1000
0000
,
0001
0000
0100
0000
0001
0010
0100
1000
,
0001
0000
0000
0000
,
1000
1000
0100
0010
,
0001
0000
0001
0000
0100
0010
0100
0000
,
0001
0001
0010
0100
,
1000
0000
1000
0000
0010
0100
0010
0100
,
0001
0001
1000
0100
,
1000
0000
1000
0000
0001
0100
0001
0000
,
1000
1000
0001
0010
,
0001
0000
0001
0000
1000
0010
1000
0000
;

//---------------dance-single - ----------------
#NOTES:
     dance-single:
     :
     Easy:
     5:
     0.210299,0.231631,0.000000,0.000000,0.000000,148.000000,148.000000,0.000000,0.000000,0.000000,0.000000,0.210299,0.231631,0.000000,0.000000,0.000000,148.000000,148.000000,0.000000,0.000000,0.000000,0.000000:
0000
0000
0000
0000
,
0000
0000
0000
0000
,
0000
0000
0000
0000
,
0000
0000
0000
0000
,
1000
0000
0001
0000
,
0010
0000
0100
0000
,
1000
0000
0001
0000
,
0100
0000
0010
0000
,
1000
0000
0100
0000
,
0010
0000
0001
0000
,
1000
0000
0010
0000
,
0100
0000
0001
0000
,
1000
0100
0000
0100
,
0010
0001
0000
0001
,
0100
0010
0000
0010
,
1000
0001
0000
0001
,
1000
0010
0000
0010
,
0100
0001
0000
0001
,
0010
0100
0000
0100
,
1000
0000
0000
0000
,
0001
1000
0001
0000
,
1000
0010
1000
0000
,
0001
0010
0001
0000
,
1000
0001
1000
0000
,
0001
0001
0001
0001
,
1000
1000
1000
1000
,
0001
1000
0100
0010
,
0001
0100
0010
0000
,
1000
1000
0001
0001
,
1000
0100
0010
0001
,
0100
0100
0010
0010
,
1000
0001
0010
0100
,
0000
1000
0010
1000
,
0100
0010
0001
1000
,
0001
0001
1000
1000
,
0001
0010
0100
1000
,
0010
0010
0100
0100
,
0001
1000
0100
0010
,
0001
0100
0001
0010
,
0100
1000
0010
1000
,
0000
0001
0010
0100
,
1000
0010
1000
0100
,
0010
0010
0100
0100
,
1000
0000
0000
0000
,
0001
0000
0100
0000
,
0010
0000
1000
0001
,
1000
0000
0100
0000
,
0010
0000
0001
1000
,
0001
0001
1000
0000
,
0100
0100
0010
0001
,
1000
1000
0001
0000
,
0100
0100
0010
1000
;

//---------------dance-single - ----------------
#NOTES:
     dance-single:
     :
     Beginner:
     2:
     0.105150,0.180158,0.000000,0.000000,0.000000,74.000000,74.000000,0.000000,0.000000,0.000000,0.000000,0.105150,0.180158,0.000000,0.000000,0.000000,74.000000,74.000000,0.000000,0.000000,0.000000,0.000000:
// measure 0
0000
0000
0000
0000
,  // measure 1
0000
0000
0000
0000
,  // measure 2
0000
0000
0000
0000
,  // measure 3
0000
0000
0000
0000
,  // measure 4
1000
0000
0000
0000
,  // measure 5
0001
0000
0000
0000
,  // measure 6
1000
0000
0000
0000
,  // measure 7
0001
0000
0000
0000
,  // measure 8
0100
0000
0000
0000
,  // measure 9
0010
0000
0000
0000
,  // measure 10
0100
0000
0000
0000
,  // measure 11
0010
0000
0000
0000
,  // measure 12
1000
0000
0000
0000
,  // measure 13
0001
0000
0000
0000
,  // measure 14
1000
0000
0000
0000
,  // measure 15
0001
0000
0000
0000
,  // measure 16
0010
0000
0000
0000
,  // measure 17
0100
0000
0000
0000
,  // measure 18
0010
0000
0000
0000
,  // measure 19
0100
0000
0000
0000
,  // measure 20
1000
0000
1000
0000
,  // measure 21
0001
0000
0001
0000
,  // measure 22
1000
0000
1000
0000
,  // measure 23
0001
0000
0001
0000
,  // measure 24
1000
1000
1000
0000
,  // measure 25
0001
0001
0001
0000
,  // measure 26
1000
0000
0010
0000
,  // measure 27
0100
0000
0001
0000
,  // measure 28
1000
0000
1000
0000
,  // measure 29
0001
0000
0001
0000
,  // measure 30
0010
0000
0010
0000
,  // measure 31
0100
0000
0100
0000
,  // measure 32
1000
0000
1000
0000
,  // measure 33
0001
0000
0001
0000
,  // measure 34
0100
0000
0100
0000
,  // measure 35
0010
0000
0010
0000
,  // measure 36
1000
0000
1000
0000
,  // measure 37
0100
0000
0100
0000
,  // measure 38
0010
0000
0010
0000
,  // measure 39
0001
0000
0001
0000
,  // measure 40
1000
0000
1000
0000
,  // measure 41
0010
0000
0010
0000
,  // measure 42
0100
0000
0100
0000
,  // measure 43
0001
0000
0000
0000
,  // measure 44
1000
0000
0000
0000
,  // measure 45
0001
0000
0000
0000
,  // measure 46
0010
0000
0000
0000
,  // measure 47
0100
0000
0000
0000
,  // measure 48
1000
0000
0000
0000
,  // measure 49
0001
0000
0000
0000
,  // measure 50
0100
0000
0000
0000
,  // measure 51
0010
0000
0000
0010
;
