#TITLE:0/1 ANGEL;
#SUBTITLE:;
#ARTIST:V.C.O. featuring Alt;
#TITLETRANSLIT:;
#SUBTITLETRANSLIT:;
#ARTISTTRANSLIT:;
#GENRE:TECHNO POP;
#CREDIT:;
#BANNER:0-1 ANGEL.png;
#BACKGROUND:0-1 ANGEL-bg.png;
#LYRICSPATH:;
#CDTITLE:cdtitle.png;
#MUSIC:0-1 ANGEL.ogg;
#OFFSET:-1.200000;
#SAMPLESTART:53.944000;
#SAMPLELENGTH:13.715000;
#SELECTABLE:YES;
#BPMS:0.000000=140.000000
;
#STOPS:
;
#BGCHANGES:;
#KEYSOUNDS:;
#ATTACKS:;

//---------------dance-single - ----------------
#NOTES:
     dance-single:
     :
     Hard:
     10:
     0.424730,0.450067,0.041008,0.205042,0.102521,290.000000,286.000000,4.000000,20.000000,0.000000,0.000000,0.424730,0.450067,0.041008,0.205042,0.102521,290.000000,286.000000,4.000000,20.000000,0.000000,0.000000:
// measure 0
0000
0000
0000
0000
,  // measure 1
0000
0000
0000
0000
,  // measure 2
0000
0000
0000
0000
,  // measure 3
0000
1000
0001
1000
0001
0000
0000
0001
,  // measure 4
1000
0001
1000
0000
0000
0000
0000
0000
,  // measure 5
0001
0000
1000
0010
0000
0010
0100
0001
,  // measure 6
0010
0000
0100
1000
0000
1000
0010
0100
,  // measure 7
0001
0000
0010
0100
0000
0100
0010
0001
,  // measure 8
1000
0000
0010
0100
0000
0100
0010
1000
,  // measure 9
0001
0000
1000
0100
0000
0100
1000
0010
,  // measure 10
0100
0000
0001
0010
0000
0010
0001
1000
,  // measure 11
0010
0000
0100
0001
0000
0001
0010
0100
,  // measure 12
1000
0000
0001
1000
0000
1000
0010
0100
,  // measure 13
0001
0000
0010
0100
0000
0100
1000
0010
,  // measure 14
1000
0000
0100
0010
0000
0010
0001
0100
,  // measure 15
0001
0000
1000
0100
0000
0100
1000
0001
,  // measure 16
0100
0000
0001
0010
0000
0010
0001
1000
,  // measure 17
0010
0000
1000
0100
0000
0100
0010
0001
,  // measure 18
0100
0000
0000
0000
0001
0000
1000
0001
1000
0000
0100
0000
0010
0000
0001
0000
,  // measure 19
0100
0000
0000
0000
0001
0000
0000
0010
0100
0000
1000
0000
0010
0000
1000
0000
,  // measure 20
0001
0000
0010
0100
0000
0100
1000
0000
,  // measure 21
0002
0203
0320
2030
,  // measure 22
3100
0020
0000
0032
0000
1003
0010
1000
,  // measure 23
0001
0101
1000
1100
,  // measure 24
0010
0110
1000
1001
,  // measure 25
0002
0023
0230
2300
,  // measure 26
3010
0200
0000
0302
0000
0013
0100
0010
,  // measure 27
0001
0100
0010
0100
,  // measure 28
0001
0000
0010
0000
0100
1000
0100
0000
,  // measure 29
1000
0000
0010
0000
0100
0000
0001
1000
,  // measure 30
0001
0000
0000
0000
1000
0000
0001
0010
0000
0001
0010
0000
0100
0000
1000
0000
,  // measure 31
0010
0000
1000
0100
0010
0000
0100
1000
,  // measure 32
0000
0001
1000
0000
0010
0000
1000
0100
,  // measure 33
0001
0100
1000
0000
0010
0000
0100
0001
,  // measure 34
1000
0001
0010
0001
0200
0000
0320
0000
,  // measure 35
1030
0000
0100
0010
0001
0000
0100
0010
,  // measure 36
0000
1000
0001
0000
0010
0000
0001
0100
,  // measure 37
1000
0100
0001
0000
0010
0000
0100
1000
,  // measure 38
0001
1000
0010
0000
0100
0000
0010
1000
,  // measure 39
0100
0000
0010
0001
0100
0000
0001
1000
,  // measure 40
0000
0010
1000
0000
0100
0000
1000
0010
,  // measure 41
0001
0010
1000
0000
0100
0000
0010
0001
,  // measure 42
0100
0000
0100
0010
0000
0010
1000
0000
,  // measure 43
0002
0000
0000
2003
0000
0000
3002
0000
,  // measure 44
0000
0003
1000
0000
0100
0000
0010
0000
,  // measure 45
0002
0000
0000
2003
0000
0000
3020
0000
,  // measure 46
0000
0030
1000
0000
0100
1000
0010
1000
,  // measure 47
0001
0000
0000
0001
0000
0000
0010
0000
0000
0100
0000
0000
1000
0000
0010
0000
,  // measure 48
1000
0000
0000
1000
0000
0000
0100
0000
0000
0010
0000
0000
0001
0000
0100
0000
,  // measure 49
0001
0000
0000
0001
0000
0000
0010
0000
0000
0100
0000
0000
0010
0000
0001
0000
,  // measure 50
1000
0000
0000
1000
0000
0000
0010
0000
0000
0100
0000
0000
0010
0000
1000
0000
,  // measure 51
0100
0000
0000
0100
0000
0000
0010
0000
0000
0001
0000
0000
1000
0000
0010
0000
,  // measure 52
0100
0000
0000
0100
0000
0000
0010
0000
0000
1000
0000
0000
0001
0000
1000
0000
,  // measure 53
0001
0000
0000
0001
0000
0000
0010
0000
0000
0100
0000
0000
1000
0000
0001
0000
,  // measure 54
1000
0000
0000
1000
0000
0000
0010
0000
0000
0100
0000
0000
0001
0000
1000
0000
;

//---------------dance-single - ----------------
#NOTES:
     dance-single:
     :
     Medium:
     7:
     0.316350,0.337550,0.000000,0.000000,0.005126,216.000000,216.000000,0.000000,0.000000,0.000000,0.000000,0.316350,0.337550,0.000000,0.000000,0.005126,216.000000,216.000000,0.000000,0.000000,0.000000,0.000000:
0000
0000
0000
0000
,
0000
0000
0000
0000
,
0000
0000
0000
0000
,
0000
1000
0001
1000
0001
0000
0000
0001
,
1000
0001
1000
0000
0000
0000
0000
0000
,
1000
0010
0100
0001
,
0001
0100
0010
1000
,
1000
0001
1000
0010
,
0010
1000
0001
0010
,
0010
0001
1000
0100
,
0100
1000
0001
0100
,
0100
0001
1000
0100
,
0100
0010
0001
1000
,
1000
0010
0100
0010
,
0010
0100
0001
1000
,
1000
0010
0100
0001
,
0001
1000
0100
0010
,
0010
0001
0100
0010
,
0010
0000
1000
0100
,
0010
0000
0000
0000
0100
0000
1000
0001
,
1000
0000
0010
0100
0000
0100
0001
0000
,
1000
1000
0100
0100
,
0010
0001
0000
0100
0000
0001
1000
0000
,
0001
0010
0100
0010
,
0001
0100
1000
0100
,
0001
0001
0010
0010
,
0100
1000
0000
0010
0000
0100
0001
0000
,
1000
0100
0010
0100
,
1000
0001
0100
0010
,
0100
0001
0010
0100
,
1000
0000
0000
0000
0001
0000
0100
0000
0000
0100
0000
0000
0010
0000
0000
0000
,
1000
0000
0001
0100
0001
0000
1000
0100
,
0000
1000
0010
0000
0100
0000
0001
0000
,
0010
0000
0100
0000
0010
0000
0001
1000
,
0001
1000
0100
0010
,
0001
0000
0100
0010
0100
0000
0001
1000
,
0000
0100
0010
0000
0100
0000
1000
0000
,
0010
0000
0100
0000
0001
0000
0010
0001
,
0010
0100
1000
0001
,
1000
0000
0010
0100
0010
0000
1000
0100
,
0000
1000
0001
0000
0100
0000
0001
0000
,
0010
0100
1000
0010
,
0100
0001
0010
0001
,
1000
0000
0000
0001
0000
0000
1000
0000
,
0000
0010
0100
0001
,
0010
0000
0000
0100
0000
0000
0010
0000
,
0000
0000
0000
0000
0001
0000
1000
0001
,
1000
0100
0010
0100
,
1000
0010
0100
0001
,
0010
0100
0010
0001
,
0100
0010
1000
0100
,
1000
0001
1000
0010
,
1000
0100
1000
0001
,
0010
0001
0100
0010
,
1000
0000
0100
0000
0010
0000
0001
1000
;

//---------------dance-single - ----------------
#NOTES:
     dance-single:
     :
     Easy:
     4:
     0.166963,0.252586,0.000000,0.000000,0.000000,114.000000,114.000000,0.000000,0.000000,0.000000,0.000000,0.166963,0.252586,0.000000,0.000000,0.000000,114.000000,114.000000,0.000000,0.000000,0.000000,0.000000:
0000
0000
0000
0000
,
0000
0000
0000
0000
,
0000
0000
0000
0000
,
0000
0000
0000
0000
,
0000
0000
0000
0000
,
0001
0000
1000
0000
,
0100
0000
1000
0000
,
0010
0000
0100
0000
,
0001
0000
1000
0000
,
0001
0000
1000
0000
,
0100
0000
1000
0000
,
0010
0000
0100
0000
,
0001
0000
0010
0000
,
0100
0000
1000
0000
,
0001
0000
1000
0000
,
0010
0000
1000
0000
,
0001
0000
0010
0000
,
0001
0000
1000
0000
,
0100
0000
1000
0000
,
0001
0000
0100
0000
,
0001
0000
0010
0000
,
0001
0000
0001
0000
,
1000
0000
1000
0000
,
0001
1000
0001
1000
,
0100
0010
0100
0010
,
0001
0000
0001
0000
,
1000
0000
1000
0000
,
0001
1000
0001
1000
,
0010
0100
0010
0100
,
0001
0010
0001
0010
,
0001
1000
0000
0000
,
1000
0000
0010
0000
,
1000
0000
0001
0000
,
0100
0000
0010
0000
,
1000
0000
0100
0010
,
0001
0000
0100
0000
,
0001
0000
1000
0000
,
0010
0000
0100
0000
,
0001
0010
0100
0000
,
1000
0000
0010
0000
,
1000
0000
0100
0000
,
1000
0000
0001
0000
,
1000
0001
0010
0001
,
1000
0000
0000
0010
,
0000
0000
0100
0000
,
0001
0000
0000
0010
,
0000
0000
0100
1000
,
0001
0000
1000
0000
,
0010
0000
1000
0000
,
0100
0000
0010
0000
,
0001
0000
0100
0000
,
0010
0000
1000
0000
,
0001
0000
0010
0000
,
0100
0000
1000
0000
,
0001
0000
1000
0100
;

//---------------dance-single - ----------------
#NOTES:
     dance-single:
     :
     Beginner:
     1:
     0.074694,0.084195,0.000000,0.000000,0.000000,51.000000,51.000000,0.000000,0.000000,0.000000,0.000000,0.074694,0.084195,0.000000,0.000000,0.000000,51.000000,51.000000,0.000000,0.000000,0.000000,0.000000:
0000
0000
0000
0000
,
0000
0000
0000
0000
,
0000
0000
0000
0000
,
0000
0000
0000
0000
,
0000
0000
0000
0000
,
0001
0000
0000
0000
,
0001
0000
0000
0000
,
1000
0000
0000
0000
,
1000
0000
0000
0000
,
0010
0000
0000
0000
,
0010
0000
0000
0000
,
0100
0000
0000
0000
,
0100
0000
0000
0000
,
0001
0000
0000
0000
,
0001
0000
0000
0000
,
1000
0000
0000
0000
,
1000
0000
0000
0000
,
0100
0000
0000
0000
,
0100
0000
0000
0000
,
0010
0000
0000
0000
,
0010
0000
0000
0000
,
0001
0000
0000
0000
,
1000
0000
0000
0000
,
0001
0000
0000
0000
,
1000
0000
0000
0000
,
0010
0000
0000
0000
,
0100
0000
0000
0000
,
0010
0000
0000
0000
,
0100
0000
0000
0000
,
0001
0000
0000
0000
,
1000
0000
0000
0000
,
0001
0000
0000
0000
,
1000
0000
0000
0000
,
0100
0000
0000
0000
,
0010
0000
0000
0000
,
0100
0000
0000
0000
,
0010
0000
0000
0000
,
0001
0000
0000
0000
,
0100
0000
0000
0000
,
0001
0000
0000
0000
,
0010
0000
0000
0000
,
0100
0000
0000
0000
,
1000
0000
0000
0000
,
0001
0000
0000
0000
,
0100
0000
0000
0000
,
0010
0000
0000
0000
,
1000
0000
0000
0000
,
0001
0000
0000
0000
,
0001
0000
0000
0000
,
1000
0000
0000
0000
,
1000
0000
0000
0000
,
0010
0000
0000
0000
,
0010
0000
0000
0000
,
0100
0000
0000
0000
,
0100
0000
0000
0001
;
