#TITLE:scar in the earth;
#SUBTITLE:;
#ARTIST:猫叉Master;
#TITLETRANSLIT:;
#SUBTITLETRANSLIT:;
#ARTISTTRANSLIT:Nekomata Master;
#GENRE:WORLD/ELECTRONICA;
#CREDIT:;
#BANNER:scar in the earth.png;
#BACKGROUND:scar in the earth-bg.png;
#LYRICSPATH:;
#CDTITLE:cdtitle.png;
#MUSIC:scar in the earth.ogg;
#OFFSET:-0.400000;
#SAMPLESTART:30.519238;
#SAMPLELENGTH:13.723404;
#SELECTABLE:YES;
#BPMS:0.000000=141.000000
;
#STOPS:
;
#BGCHANGES:0.000=scar in the earth.avi=1.000=0=0=0=StretchNoLoop==CrossFade_Fastest==,
99999=-nosongbg-=1.000=0=0=0 // don't automatically add -songbackground-
;
#KEYSOUNDS:;
#ATTACKS:;

//---------------dance-single - ----------------
#NOTES:
     dance-single:
     :
     Hard:
     11:
     0.447669,0.481863,0.141724,0.125977,0.200776,398.000000,380.000000,18.000000,16.000000,0.000000,0.000000,0.447669,0.481863,0.141724,0.125977,0.200776,398.000000,380.000000,18.000000,16.000000,0.000000,0.000000:
0000
0000
0000
0000
,
0000
0000
0000
0000
,
1000
0000
0001
0000
,
1000
0000
0001
0000
,
1000
0010
1000
0001
,
0010
0001
1000
0001
,
1000
0000
0001
0000
,
1000
0000
0001
0000
,
1000
0100
1000
0001
,
0100
0001
1000
0001
,
1001
0000
0000
0000
1000
0000
0000
0000
0100
0000
0000
0100
0010
0000
0001
0000
,
0100
0000
0000
0010
0000
0000
1000
0000
0200
0000
0000
0000
1000
0000
0000
0000
,
0310
0000
0000
0001
0000
0000
0100
0000
0010
0000
0000
1000
0000
0000
0001
0000
,
0010
0000
0000
0100
0000
0000
1000
0000
0010
0000
0000
0000
0100
0000
0001
0000
,
0010
0000
0000
0000
0100
0000
0000
0000
1000
0000
0000
1000
0010
0000
0100
0000
,
0001
0000
0000
0010
0000
0000
0100
0000
0010
0000
0000
0000
0001
0000
1000
0001
,
2000
0100
0010
3001
,
1001
0000
0000
0000
0000
0000
0000
0000
0100
0010
0100
0010
0100
0010
0000
0000
,
0110
0000
0000
0000
0010
0000
0000
0000
1000
0000
0000
1000
0001
0000
0010
0000
,
0100
0000
0000
0010
0000
0000
0001
0000
0100
0000
0000
0000
0010
0000
1000
0100
,
1000
0000
0000
0000
0001
0000
0100
0010
0100
0000
0000
0000
0001
0000
0000
0000
,
0010
0000
0000
0000
0100
0000
1000
0000
0010
0000
0100
0000
0001
0010
0001
0000
,
1000
0000
0000
0000
0100
0000
0000
0000
0010
0000
0000
0010
0001
0000
0100
0000
,
0010
0000
0000
1000
0000
0000
0001
0000
1000
0000
0000
0000
0100
0000
0010
0001
,
0010
0000
0000
0000
0001
0000
1000
0010
1000
0000
0000
0000
0001
0000
0000
0000
,
1000
0000
0000
0000
0010
0000
0000
0000
1000
0001
1000
0001
1000
0000
0000
0000
,
1010
1000
1100
0001
,
0011
0001
0101
1000
,
1001
0002
0203
0320
,
2030
0000
0000
0000
3100
0000
0000
0100
0010
0000
0000
0010
0001
0000
0000
0000
,
1010
1000
0101
0001
,
0011
1000
1100
0001
,
0100
0020
2030
3200
,
0320
0000
0000
0000
0032
0000
0000
0000
1003
0000
0000
1000
0010
0000
0000
0000
,
1000
0000
0001
0000
1000
0000
0010
1000
0010
0000
0100
0000
0001
0000
0000
0000
,
0010
0000
0001
0100
1000
0100
0010
0100
,
0001
0000
1000
0000
0001
0000
0010
0001
0010
0000
0100
0000
1000
0000
0000
0000
,
0010
0000
1000
0100
0001
0100
0010
0100
,
1000
0000
0000
0000
0000
0000
0001
0100
0001
0000
0010
0000
0100
0000
0000
0000
,
0010
0000
0001
0010
1000
0010
0001
0100
,
0010
0000
1000
0000
0010
0000
1000
0100
1000
0000
0010
0000
0100
0000
0000
0000
,
0001
0000
0000
0000
1000
0000
0000
0000
0001
0100
0001
0100
0001
0000
0000
0000
,
1001
0000
0000
0000
1000
0000
0100
0000
0010
0000
0000
0000
0010
0000
0100
1000
,
0100
0000
0100
0010
0001
0000
0001
0100
,
0010
0000
0000
0000
0010
0000
1000
0100
1000
0000
0000
0000
0001
0000
0010
0000
,
0100
0000
0000
0000
0100
0000
1000
0000
0001
1000
0001
1000
0000
0000
0100
0000
,
0110
0000
0000
0000
0000
0000
0010
0000
0001
0000
0000
0000
0000
0000
0001
1000
,
0001
0000
0000
0000
0000
0000
1000
0000
0010
0000
0000
0000
0000
0000
0010
0100
,
0010
0000
0000
0000
0000
0000
1000
0001
1000
0000
0000
0000
0000
0000
1000
0000
,
0100
1000
0100
0010
0000
0001
0100
0001
,
0100
0010
0000
1000
0010
1000
0010
0100
,
0000
0001
0010
0001
0010
0100
1000
0000
,
1001
0000
0000
0000
0010
0000
0000
0000
1000
0000
0000
1000
0100
0000
0010
0000
,
0001
0000
0000
0100
0000
0000
0010
0000
1000
0000
0000
0000
0001
0000
0100
0010
,
0100
0000
0000
0000
0001
0000
0010
0100
0010
0000
0000
0000
0001
0000
0000
0000
,
1000
0000
0000
0000
0001
0000
0100
0000
1000
0000
0100
0000
0001
1000
0001
0000
,
1000
0000
0000
0000
0100
0000
0000
0000
0010
0000
0000
0010
0001
0000
1000
0000
,
0100
0000
0000
1000
0000
0000
0010
0000
0100
0000
0000
0000
0001
0000
1000
0010
,
1000
0000
0000
0000
0100
0000
0010
0001
0010
0000
0000
0000
0001
0000
0000
0000
,
0100
0000
0010
1000
0001
0100
1000
0100
,
0002
0010
0100
1000
,
0100
0000
0000
0000
0010
0000
0000
0000
0103
0000
0000
0000
1000
0000
0010
0100
,
0010
0000
0000
0000
1000
0000
0100
0010
0100
0000
0000
0000
1000
0000
0000
0000
,
0001
0000
0000
0000
1000
0000
0100
0000
0001
0000
0100
0000
1000
0001
1000
0000
,
0010
0000
0110
0000
,
1001
0000
0000
0000
0001
0001
1000
1000
,
0010
0000
0000
0000
1000
0000
0001
0100
0001
0000
0000
0000
0010
0000
0000
0000
,
0100
0000
1000
0010
0100
0010
0001
0010
,
0200
0000
0000
0000
,
0020
0000
0000
0330
,
2002
0000
0000
0000
,
0000
0000
0000
0000
,
3003
0000
0000
0000
;

//---------------dance-single - ----------------
#NOTES:
     dance-single:
     :
     Medium:
     7:
     0.331815,0.396829,0.110230,0.181092,0.000000,295.000000,281.000000,14.000000,23.000000,0.000000,0.000000,0.331815,0.396829,0.110230,0.181092,0.000000,295.000000,281.000000,14.000000,23.000000,0.000000,0.000000:
// measure 0
0000
0000
0000
0000
,  // measure 1
0000
0000
0000
0000
,  // measure 2
1000
0000
0001
0000
,  // measure 3
1000
0000
0001
0010
,  // measure 4
0100
1000
0010
1000
,  // measure 5
0001
0010
0001
1000
,  // measure 6
0001
0000
1000
0000
,  // measure 7
0001
0000
1000
0100
,  // measure 8
0010
0001
0100
0001
,  // measure 9
1000
0100
1000
0001
,  // measure 10
1001
0000
1000
0000
0010
0000
0100
0010
,  // measure 11
0100
0000
0001
1000
0002
0000
0000
0000
,  // measure 12
1003
0100
0010
0100
,  // measure 13
1000
0000
0010
0000
0100
0000
0001
0010
,  // measure 14
0001
0000
1000
0000
0010
0000
1000
0100
,  // measure 15
1000
0000
0001
1000
0001
0000
1000
0100
,  // measure 16
0020
0000
0000
0030
,  // measure 17
1001
0000
0000
0000
0001
1000
0001
1000
,  // measure 18
0100
0000
0010
0000
0001
0000
1000
0010
,  // measure 19
1000
0000
0001
0100
0001
0000
0010
0100
,  // measure 20
1000
0000
0010
0100
0001
0000
1000
0000
,  // measure 21
0100
0000
1000
0010
1000
0001
1000
0100
,  // measure 22
1000
0000
0010
0000
0100
0000
0001
0010
,  // measure 23
0001
0000
1000
0010
1000
0000
0001
0100
,  // measure 24
0010
0000
1000
0100
0010
0000
0001
0000
,  // measure 25
0100
0000
0000
0000
0010
0100
0010
0000
,  // measure 26
1000
0001
1001
1000
,  // measure 27
1010
0010
0110
0100
,  // measure 28
0101
0002
0023
0230
,  // measure 29
2300
3020
0230
0301
,  // measure 30
1001
1000
1100
0100
,  // measure 31
0110
0010
0011
0001
,  // measure 32
1001
2000
3020
0230
,  // measure 33
0302
0023
0230
1300
,  // measure 34
0002
0000
0000
1003
0010
0000
1000
0000
,  // measure 35
0100
0000
1000
0010
1000
0001
0100
0001
,  // measure 36
0020
0000
0000
0031
0100
0000
0010
0000
,  // measure 37
1000
0000
0100
0010
0100
1000
0001
0100
,  // measure 38
0020
0000
0000
1030
0100
0000
1000
0000
,  // measure 39
0001
0000
1000
0010
1000
0001
1000
0100
,  // measure 40
2000
0000
0000
3001
0010
0000
0001
0000
,  // measure 41
1000
0000
0100
0000
0010
0001
0010
0000
,  // measure 42
0001
0000
1000
0000
,  // measure 43
0010
0000
1000
0000
,  // measure 44
0001
0000
1000
0000
,  // measure 45
0010
0000
0000
0000
1000
0001
0000
0001
,  // measure 46
0100
0000
0010
0000
,  // measure 47
1000
0000
0100
0000
,  // measure 48
0010
0000
0001
0000
,  // measure 49
1000
0000
0000
0000
,  // measure 50
0001
0000
0000
0000
,  // measure 51
0100
0000
0000
0001
,  // measure 52
1001
0000
1000
0000
0010
0000
0100
0001
,  // measure 53
0100
0000
0001
1000
0001
0000
1000
0100
,  // measure 54
0010
0000
0001
0010
0100
0000
1000
0000
,  // measure 55
0010
0000
1000
0001
1000
0010
1000
0100
,  // measure 56
1000
0000
0001
0000
0010
0000
0100
1000
,  // measure 57
0100
0000
1000
0001
1000
0000
0001
1000
,  // measure 58
0010
0000
1000
0001
0010
0000
0001
0000
,  // measure 59
0100
0000
0001
0010
0001
1000
0001
0100
,  // measure 60
0002
0000
0100
0000
,  // measure 61
1000
0000
0000
0000
0013
0000
0100
0001
,  // measure 62
0100
0000
0001
0010
0100
0000
1000
0000
,  // measure 63
0010
0000
1000
0001
0010
0001
0100
0001
,  // measure 64
1000
0000
0100
0000
,  // measure 65
0010
0000
0001
0000
,  // measure 66
1001
0000
1000
0010
1000
0000
0001
0000
,  // measure 67
0100
0000
0001
0010
0001
1000
0001
0100
,  // measure 68
0020
0000
0000
0000
,  // measure 69
0200
0000
0000
0330
,  // measure 70
2002
0000
0000
0000
,  // measure 71
0000
0000
0000
0000
,  // measure 72
3003
0000
0000
0000
;

//---------------dance-single - ----------------
#NOTES:
     dance-single:
     :
     Easy:
     4:
     0.187841,0.255104,0.015747,0.102357,0.000000,167.000000,165.000000,2.000000,13.000000,0.000000,0.000000,0.187841,0.255104,0.015747,0.102357,0.000000,167.000000,165.000000,2.000000,13.000000,0.000000,0.000000:
0000
0000
0000
0000
,
0000
0000
0000
0000
,
1000
0000
0001
0000
,
1000
0000
0001
0000
,
1000
1000
0001
0001
,
0100
0100
0010
0010
,
1000
0000
0001
0000
,
1000
0000
0001
0000
,
1000
1000
0001
0001
,
0010
0010
0100
1000
,
0001
0000
0100
0000
,
0001
1000
0001
0000
,
1000
0000
0100
0000
,
1000
0000
0001
0000
,
1000
0000
0010
0000
,
0100
0001
0100
0000
,
0002
0000
0000
0003
,
1000
0000
1001
0000
,
1000
0000
0010
0000
,
0100
0010
0100
0000
,
0001
0000
1000
0000
,
0000
0001
0010
0100
,
1000
0000
0010
0000
,
1000
0000
0001
1000
,
0001
0000
0100
0000
,
0001
0000
1000
0001
,
1000
0000
0010
0000
,
1000
0000
0001
0000
,
1000
1000
0010
0010
,
0100
0100
0001
0001
,
0010
0000
0100
0000
,
1000
0000
0010
0000
,
1000
1000
0001
0001
,
0010
0010
0100
0100
,
2000
0000
3002
0000
,
0003
1000
0001
1000
,
0020
0000
0230
0000
,
0300
0001
1000
0010
,
2000
0000
3200
0000
,
0300
0010
0001
1000
,
0002
0000
0203
0000
,
0300
0000
0001
1000
,
0010
0000
0100
0000
,
0001
0000
1000
0000
,
0100
0000
0010
0000
,
0001
1000
0001
0000
,
1000
0000
0100
0000
,
0010
0000
0001
0000
,
0100
0000
0010
0000
,
0000
0000
0000
0000
,
1000
0000
0000
0000
,
0001
0000
0000
1000
,
0010
0000
0100
0000
,
0001
0010
0001
0000
,
1000
0000
0010
0000
,
0000
1000
0010
0100
,
0001
0000
0010
0000
,
0100
1000
0100
0000
,
1000
0000
0001
0000
,
0000
1000
0100
0010
,
0001
0000
1000
0000
,
0001
0000
0100
0010
,
0100
0000
0001
0000
,
0000
1000
0010
1000
,
0001
0000
0100
0000
,
0001
0000
1000
0000
,
0010
0000
0100
0000
,
0001
1000
0100
0010
,
0002
0000
0000
0000
,
2003
0000
0000
3000
,
2002
0000
0000
0000
,
0000
0000
0000
0000
,
3003
0000
0000
0000
;

//---------------dance-single - ----------------
#NOTES:
     dance-single:
     :
     Beginner:
     2:
     0.127102,0.137788,0.007874,0.007874,0.000000,113.000000,112.000000,1.000000,1.000000,0.000000,0.000000,0.127102,0.137788,0.007874,0.007874,0.000000,113.000000,112.000000,1.000000,1.000000,0.000000,0.000000:
0000
0000
0000
0000
,
0000
0000
0000
0000
,
1000
0000
0001
0000
,
1000
0000
0001
0000
,
1000
0000
0010
0000
,
1000
0000
0100
0000
,
1000
0000
0001
0000
,
1000
0000
0001
0000
,
1000
0000
0100
0000
,
1000
0000
0010
0000
,
0100
0000
0100
0000
,
0010
0000
0010
0000
,
1000
0000
0000
0000
,
0001
0000
0000
0000
,
1000
0000
1000
0000
,
0001
0000
0001
0000
,
0010
0000
0000
0000
,
0100
0000
0000
0000
,
1000
0000
1000
0000
,
0010
0000
0010
0000
,
0100
0000
0100
0000
,
0001
0000
0001
0000
,
1000
0000
1000
0000
,
0100
0000
0100
0000
,
0010
0000
0010
0000
,
0001
0000
0001
0000
,
1000
0000
0000
0000
,
0001
0000
0000
0000
,
1000
0000
0000
0000
,
0010
0000
0000
0000
,
0100
0000
0000
0000
,
0001
0000
0000
0000
,
0010
0000
0000
0000
,
0100
0000
0000
0000
,
1000
0000
1000
0000
,
0010
0000
0010
0000
,
0100
0000
0100
0000
,
0001
0000
0001
0000
,
0010
0000
0010
0000
,
0100
0000
0100
0000
,
1000
0000
1000
0000
,
0001
0000
0001
0000
,
1000
0000
0000
0000
,
0001
0000
0000
0000
,
1000
0000
0000
0000
,
0010
0000
0000
0000
,
1000
0000
0000
0000
,
0100
0000
0000
0000
,
0010
0000
0000
0000
,
0001
0000
0000
0000
,
0100
0000
0000
0000
,
0010
0000
0000
0000
,
1000
0000
1000
0000
,
0010
0000
0010
0000
,
0100
0000
0100
0000
,
0001
0000
0001
0000
,
0010
0000
0010
0000
,
0100
0000
0100
0000
,
1000
0000
1000
0000
,
0001
0000
0001
0000
,
1000
0000
1000
0000
,
0010
0000
0010
0000
,
0100
0000
0100
0000
,
0001
0000
0001
0000
,
1000
0000
1000
0000
,
0001
0000
0001
0000
,
1000
0000
1000
0000
,
0100
0000
0100
0000
,
0020
0000
0000
0000
,
0000
0000
0000
0030
,
1001
0000
0000
0000
;
