#TITLE:passionate fate;
#SUBTITLE:;
#ARTIST:Ryu☆;
#TITLETRANSLIT:;
#SUBTITLETRANSLIT:;
#ARTISTTRANSLIT:;
#GENRE:HANDZ UP;
#CREDIT:;
#BANNER:passionate fate.png;
#BACKGROUND:passionate fate-bg.png;
#LYRICSPATH:;
#CDTITLE:cdtitle.png;
#MUSIC:passionate fate.ogg;
#OFFSET:-0.380000;
#SAMPLESTART:57.312050;
#SAMPLELENGTH:12.986572;
#SELECTABLE:YES;
#BPMS:0.000000=149.000000
;
#STOPS:
;
#BGCHANGES:;
#KEYSOUNDS:;
#ATTACKS:;

//---------------dance-single - ----------------
#NOTES:
     dance-single:
     :
     Hard:
     11:
     0.526099,0.549427,0.195616,0.025515,0.323192,433.000000,410.000000,23.000000,3.000000,0.000000,0.000000,0.526099,0.549427,0.195616,0.025515,0.323192,433.000000,410.000000,23.000000,3.000000,0.000000,0.000000:
// measure 0
0000
0000
0000
0000
,  // measure 1
0000
0000
0000
0000
,  // measure 2
0000
0000
0000
0000
,  // measure 3
0000
0000
0000
0000
,  // measure 4
0000
0000
0000
0000
,  // measure 5
0000
0000
0000
0000
,  // measure 6
0001
0000
0000
0001
0010
0000
0000
0000
0010
0000
0000
0010
0100
0000
0000
0000
,  // measure 7
0100
0000
0000
0100
1000
0000
0000
0000
1000
0000
0000
1000
0001
0000
0000
0000
,  // measure 8
0001
0000
0000
0001
0100
0000
0000
0000
0100
0000
0000
0100
0010
0000
0000
0000
,  // measure 9
1000
0100
0010
2002
,  // measure 10
0000
3003
0000
0001
0100
1000
0100
0001
,  // measure 11
1000
0000
0000
0100
0000
0000
0010
0000
0001
0000
0000
0100
0000
0000
0010
0000
,  // measure 12
1000
0001
0000
0010
0100
0010
0001
1000
,  // measure 13
0010
0000
0000
0000
1000
0000
0001
1000
0001
0000
0000
0010
0000
0000
0100
0000
,  // measure 14
1000
0000
0001
1000
0010
0001
0010
1000
,  // measure 15
0001
0000
0000
0100
0000
0000
0010
0000
1000
0000
0000
0100
0000
0000
0010
0001
,  // measure 16
0010
0001
0000
0100
0010
0100
0001
1000
,  // measure 17
0100
0000
0000
0000
1000
0000
0001
1000
0001
0000
0000
0100
0000
0000
0010
0000
,  // measure 18
1000
1001
0000
1000
0100
0001
0100
1000
,  // measure 19
0010
0000
0000
0100
0000
0000
0001
0000
0010
0000
0000
0100
0000
0000
1000
0001
,  // measure 20
1000
0010
0000
1000
0100
0010
0001
0100
,  // measure 21
0001
0000
0000
0000
1000
0000
0001
1000
0001
0000
0000
0010
0000
0000
0100
0000
,  // measure 22
1000
0000
0001
1000
0010
0001
0010
1000
,  // measure 23
0100
0000
0000
0010
0000
0000
0001
0000
0100
0000
0000
0010
0000
0000
1000
0001
,  // measure 24
1000
0100
0000
1000
0010
0100
0001
0010
,  // measure 25
0001
0000
0000
1001
0000
0000
1000
0010
1000
0000
0000
1100
0000
0000
0102
0000
,  // measure 26
0000
1000
0000
1000
0000
1000
0000
1003
,  // measure 27
0100
0010
0100
1000
0000
1000
0010
0001
,  // measure 28
0000
0000
0001
0000
0010
0000
1000
0000
0001
0000
0000
0000
1000
0100
1000
0100
,  // measure 29
0010
0100
0010
0001
0000
0001
0100
1000
,  // measure 30
0000
0000
1000
0000
0100
0000
0001
0000
1000
0100
1000
0100
0010
0001
0010
0001
,  // measure 31
0100
0010
0100
0001
0000
0001
0010
1000
,  // measure 32
0000
0000
1000
0000
0010
0000
0001
0000
1000
0000
0010
0000
0100
0001
0100
0001
,  // measure 33
0010
0100
1000
0001
0000
0001
0100
0010
,  // measure 34
1000
0000
0100
0000
0001
0000
0100
0000
1000
0000
0000
1001
0000
0000
0110
0000
,  // measure 35
0000
0000
0000
0001
0010
1000
0010
0001
,  // measure 36
1000
0000
0000
0010
0000
0000
0100
0000
0001
0000
0000
0010
0000
0000
0100
0000
,  // measure 37
1000
0001
0000
0100
0010
0100
0001
1000
,  // measure 38
0100
0000
0000
0000
1000
0000
0001
1000
0001
0000
0000
0100
0000
0000
0010
0000
,  // measure 39
1000
0000
0001
1000
0100
0001
0100
1000
,  // measure 40
0001
0000
0000
0010
0000
0000
0100
0000
1000
0000
0000
0010
0000
0000
0100
0001
,  // measure 41
0100
0001
0000
0010
0100
0010
0001
1000
,  // measure 42
0010
0000
0000
0000
0000
0000
1000
0000
0100
0000
0000
0110
0000
0000
0011
0000
,  // measure 43
0000
0101
0000
1001
0000
1000
1001
0000
,  // measure 44
0001
0000
0000
0010
0000
0000
0001
0000
1000
0000
0000
0010
0000
0000
1000
0000
,  // measure 45
0001
0100
1000
0100
0001
0001
1000
0100
,  // measure 46
1000
0000
0000
0010
0000
0000
1000
0000
0001
0000
0000
0010
0000
0000
0001
0000
,  // measure 47
1000
0100
0001
0100
1000
1000
0001
0100
,  // measure 48
0001
0000
0000
0010
0000
0000
0100
0000
1000
0000
0000
0010
0000
0000
0100
0000
,  // measure 49
0001
0010
1000
0010
0001
0001
0100
0010
,  // measure 50
1000
0000
0000
0100
0000
0000
0010
0000
0001
0000
0000
0100
0000
0000
0010
0000
,  // measure 51
1000
1001
0000
0001
0100
1000
0100
0001
,  // measure 52
1000
0000
0000
0010
0000
0000
1000
0000
0100
0000
0000
0010
0000
0000
0001
0100
,  // measure 53
0001
1000
0000
0100
0010
0100
1000
0010
,  // measure 54
0100
0000
0000
0000
0000
0000
0001
1000
0001
0000
0000
0010
0000
0000
0100
0000
,  // measure 55
0000
0000
0000
1000
0010
0001
0010
1000
,  // measure 56
0001
0000
0000
0100
0000
0000
0010
0000
0100
0000
0000
0001
0000
0000
1000
0100
,  // measure 57
1000
0010
0000
1000
0100
0010
0001
0100
,  // measure 58
0001
0000
0000
0000
1000
0000
0001
1000
0001
0000
0000
0010
0000
0000
0100
0000
,  // measure 59
1000
1010
0011
0101
,  // measure 60
1100
0000
0000
1000
0000
0000
0010
0000
0100
0000
0000
0001
0000
0000
0010
0100
,  // measure 61
0010
0001
0000
1000
0010
0100
0001
0010
,  // measure 62
0100
0000
0000
0000
1000
0000
0001
1000
0001
0000
0000
0100
0000
0000
0010
0000
,  // measure 63
1000
0000
0000
0000
0000
0000
0001
1000
0001
1000
0000
0000
,  // measure 64
0001
0000
0000
0010
0000
0000
0100
0000
0010
0000
0000
0001
0000
0000
1000
0010
,  // measure 65
1000
0000
0100
0000
0000
0000
1000
0000
0001
0000
0000
0101
0000
0000
1100
0000
,  // measure 66
1000
0000
0000
0000
0000
0000
0001
0010
0001
0000
0000
1000
0000
0000
0010
0000
,  // measure 67
1000
0000
0000
1100
0000
0000
1001
0000
0000
0101
0000
0000
0011
0000
0001
0000
,  // measure 68
1000
0000
0000
0000
;

//---------------dance-single - ----------------
#NOTES:
     dance-single:
     :
     Medium:
     9:
     0.375438,0.404841,0.068041,0.025515,0.034020,309.000000,301.000000,8.000000,3.000000,0.000000,0.000000,0.375438,0.404841,0.068041,0.025515,0.034020,309.000000,301.000000,8.000000,3.000000,0.000000,0.000000:
0000
0000
0000
0000
,
0000
0000
0000
0000
,
0000
0000
0000
0000
,
0000
0000
0000
0000
,
0000
0000
0000
0000
,
0000
0000
0000
0000
,
1000
1000
0010
0010
,
0100
0000
0100
0000
0001
0000
1000
0001
,
1000
0000
0001
0000
,
1000
0100
0010
2002
,
0000
3003
0000
0001
1000
0010
1000
0001
,
0010
0001
0100
0000
,
0001
1000
0100
0000
,
1000
0000
0010
0100
0010
0000
0100
0000
,
0001
0000
0010
0001
1000
0100
1000
0001
,
0100
0000
0010
0000
1000
0000
0100
1000
,
0001
0000
0100
0000
0010
0000
1000
0001
,
1000
0000
0100
0010
0100
0000
1000
0000
,
0001
0001
0000
1000
0001
0010
0001
1000
,
0010
0000
0010
0000
0100
0000
0100
0001
,
1000
0100
0000
1000
0010
0000
1000
0001
,
1000
0000
0001
0010
0001
0000
1000
0000
,
0100
0000
0010
0001
1000
0010
1000
0001
,
0010
0000
0100
0000
,
1001
0000
0110
0000
,
1001
0000
0000
0001
0000
0000
1000
0000
0100
0000
0000
0100
0000
0000
0020
0000
,
0000
0000
0000
0030
,
0100
1000
0010
0100
,
0001
0000
0010
0000
0100
0000
1000
0001
,
1000
0010
0100
0001
,
0010
0000
0100
0000
1000
0010
1000
0001
,
0010
0001
0100
0010
,
1000
0000
0100
0000
0010
0000
0100
1000
,
0001
0100
0010
0100
,
0001
0000
0010
0000
0001
0000
0100
0000
0010
0000
0000
1000
0000
0000
0001
0000
,
0000
0000
0000
1000
0001
0010
0001
1000
,
0010
0000
1000
0000
0100
0000
0010
0001
,
1000
0001
0000
0100
0010
0000
1000
0001
,
1000
0000
0001
0010
0001
0000
1000
0000
,
0100
0000
1000
0001
1000
0010
1000
0001
,
0010
0000
0001
0000
0100
0000
0010
1000
,
0100
0010
0000
0100
1000
0000
0001
1000
,
0001
0000
0000
0000
0000
0000
1000
0000
0010
0000
0000
0100
0000
0000
0001
0000
,
0000
0010
0000
0010
0000
0100
1000
0000
,
0001
0001
0100
0100
,
0010
1000
0010
1000
0100
0000
1000
0001
,
1000
1000
0010
0010
,
0100
0001
0100
0001
0010
0000
0001
1000
,
0001
0001
0100
0100
,
0010
1000
0010
1000
0100
0000
1000
0001
,
1000
0000
1001
0000
,
0001
0001
0000
1000
0001
0010
0001
1000
,
0010
0010
0010
0010
,
0100
0100
0100
0100
,
0001
0001
0001
0001
,
1000
1000
1000
1000
,
0001
0000
0100
0000
0010
0000
1000
0100
,
0010
0001
0000
0100
0010
0000
1000
0001
,
1000
0000
0100
0010
0100
0000
1000
0000
,
0001
0101
1010
1001
,
1000
0000
0100
0000
0010
0000
0001
0100
,
0010
1000
0000
0100
0010
0000
0100
1000
,
0100
0000
1000
0001
1000
0000
0010
0000
,
0100
0000
0000
0000
0000
0000
0001
1000
0001
1000
0000
0000
,
0100
0000
0010
0000
0100
0000
1000
0010
,
0100
0001
0000
0010
0100
0000
1000
0001
,
1000
0000
0000
0001
1000
0000
0001
0000
,
0100
0000
0000
0100
0000
0000
0010
0000
0000
0010
0000
0000
1000
0000
0001
0000
,
1000
0000
0000
0000
;

//---------------dance-single - ----------------
#NOTES:
     dance-single:
     :
     Easy:
     6:
     0.262442,0.375924,0.093556,0.017010,0.000000,216.000000,205.000000,11.000000,2.000000,0.000000,0.000000,0.262442,0.375924,0.093556,0.017010,0.000000,216.000000,205.000000,11.000000,2.000000,0.000000,0.000000:
0000
0000
0000
0000
,
0000
0000
0000
0000
,
0000
0000
0000
0000
,
0000
0000
0000
0000
,
0000
0000
0000
0000
,
0000
0000
0000
0000
,
1000
0100
0000
0100
,
0010
0001
0000
0001
,
0100
0010
0100
0010
,
1000
1000
0001
0002
,
0000
0003
0000
0000
,
1000
0001
1000
0000
,
0001
1000
0001
0000
,
1000
0100
0010
0001
,
0100
0010
0000
0000
,
1000
1000
0001
0001
,
0010
0100
1000
0000
,
0010
0010
0100
0001
,
1000
0001
0000
0000
0000
0000
0000
0000
,
1000
0100
0010
0100
,
1000
0010
0100
0001
,
0010
0100
1000
0010
,
0100
0001
0010
0001
,
1001
0000
0000
0000
,
1001
0000
0110
0000
,
1001
0000
0000
0000
1000
0000
0000
0020
,
0000
0000
0000
0030
,
1000
1000
0010
1000
,
0100
0100
0010
0001
,
0100
0100
0001
0010
,
0001
0001
0100
0010
,
1000
1000
0010
0100
,
0010
0010
0100
0001
,
1000
1000
0001
0010
,
0001
0001
1000
1000
,
0001
0010
0100
0010
,
0001
0100
0010
1000
,
0100
0010
0001
1000
,
0001
0100
0010
0100
,
0001
0010
0100
1000
,
0010
0100
0001
1000
,
0001
0010
0100
1000
,
1001
0000
0000
0000
1001
0000
0000
1000
,
0000
0001
0000
0001
0000
1000
0001
0000
,
1000
1000
0010
0010
,
0100
0001
0010
0001
,
0100
0100
0010
0010
,
1000
0000
0001
1000
,
0001
0001
0100
0100
,
0010
1000
0100
0010
,
0001
0000
1001
0000
,
1000
0001
0000
0000
0000
0000
0000
0000
,
1000
0000
0000
0000
,
0001
0000
0000
0000
,
1000
0000
0000
0000
,
0001
0000
0000
0000
,
1000
0100
0010
0100
,
1000
0010
0100
0001
,
0010
0100
1000
0001
,
1001
1001
1001
1001
,
1000
0010
0100
0001
,
0010
0100
0010
0001
,
0100
0010
1000
0100
,
0010
0000
0000
0000
0001
1000
0001
0000
,
1000
0001
0010
0100
,
0010
0001
1000
0010
,
0100
0000
0010
0000
,
1000
0000
0000
0001
0000
0000
1000
0000
,
0001
0000
0000
0000
;

//---------------dance-single - ----------------
#NOTES:
     dance-single:
     :
     Beginner:
     3:
     0.120286,0.202421,0.000000,0.008505,0.000000,99.000000,99.000000,0.000000,1.000000,0.000000,0.000000,0.120286,0.202421,0.000000,0.008505,0.000000,99.000000,99.000000,0.000000,1.000000,0.000000,0.000000:
0000
0000
0000
0000
,
0000
0000
0000
0000
,
0000
0000
0000
0000
,
0000
0000
0000
0000
,
0000
0000
0000
0000
,
0000
0000
0000
0000
,
1000
0000
0000
0000
,
0000
0000
0000
0000
,
0001
0000
0000
0000
,
2000
0000
0000
0000
,
3000
0000
0000
0000
,
0001
0000
0001
0000
,
1000
0000
1000
0000
,
0010
0000
0010
0000
,
0100
0000
0000
0000
,
0001
0000
0001
0000
,
1000
0000
1000
0000
,
0100
0000
0100
0000
,
0010
0000
0000
0000
,
0001
0000
0100
0000
,
0001
0000
0000
0000
,
1000
0000
0100
0000
,
1000
0000
0000
0000
,
0001
0000
0010
0000
,
0001
0000
0000
0000
,
1000
0000
0010
0000
,
1000
0000
0000
0000
,
0001
0000
0001
0000
,
0010
0000
0010
0000
,
0100
0000
0100
0000
,
1000
0000
1000
0000
,
0001
0000
0001
0000
,
0100
0000
0100
0000
,
0010
0000
0010
0000
,
1000
0000
1000
0000
,
0000
0000
0000
0000
,
0001
0000
0001
0000
,
1000
0000
1000
0000
,
0100
0000
0100
0000
,
0010
0000
0010
0000
,
0001
0000
0001
0000
,
1000
0000
1000
0000
,
0010
0000
0010
0000
,
0000
0000
0000
0000
,
1000
0000
0100
0000
,
1000
0000
0000
0000
,
0001
0000
0100
0000
,
0001
0000
0000
0000
,
1000
0000
0010
0000
,
1000
0000
0000
0000
,
0001
0000
0010
0000
,
0001
0000
0000
0000
,
1000
0000
0000
0000
,
0000
0000
0000
0000
,
0001
0000
0000
0000
,
0000
0000
0000
0000
,
1000
0000
1000
0000
,
0001
0000
0001
0000
,
1000
0000
1000
0000
,
0001
0001
0001
0001
,
1000
0000
1000
0000
,
0001
0000
0001
0000
,
0010
0000
0010
0000
,
0100
0000
0000
0000
,
1000
0000
1000
0000
,
0001
0000
0001
0000
,
0100
0000
0100
0000
,
0010
0000
0010
0000
,
1000
0000
0000
0000
;
