#TITLE:licca;
#SUBTITLE:;
#ARTIST:Qrispy Joybox;
#TITLETRANSLIT:;
#SUBTITLETRANSLIT:;
#ARTISTTRANSLIT:;
#GENRE:FOLKCORE;
#CREDIT:;
#BANNER:licca.png;
#BACKGROUND:licca-bg.png;
#LYRICSPATH:;
#CDTITLE:cdtitle.png;
#MUSIC:licca.ogg;
#OFFSET:-0.200000;
#SAMPLESTART:58.650333;
#SAMPLELENGTH:19.496826;
#SELECTABLE:YES;
#BPMS:0.000000=195.949997
,155.500000=97.974998
,172.000000=195.949997
;
#STOPS:155.500000=0.459000,
172.000000=0.306000,
203.000000=0.306000,
266.000000=0.306000
;
#BGCHANGES:;
#KEYSOUNDS:;
#ATTACKS:;

//---------------dance-single - ----------------
#NOTES:
     dance-single:
     :
     Hard:
     14:
     0.687729,0.717891,0.333284,0.259221,0.231447,520.000000,484.000000,36.000000,28.000000,0.000000,0.000000,0.687729,0.717891,0.333284,0.259221,0.231447,520.000000,484.000000,36.000000,28.000000,0.000000,0.000000:
0000
0000
0000
0000
,
0000
0000
0000
0000
,
0000
0000
0000
0000
,
0000
0000
0000
0001
,
1001
0000
1000
0000
0001
0010
0100
1000
,
0000
0000
0000
1010
0000
0000
0000
0000
0000
0010
0000
0000
1000
0000
0100
0000
0010
0000
0001
0000
0010
0000
0100
0000
,
1000
0000
0001
0000
1000
0010
0100
0001
,
0000
1001
0000
1000
0100
0010
0100
0000
,
2200
0000
0000
3300
,
0202
0000
0000
0303
,
0022
0000
0000
0033
,
2020
0000
0000
0000
3030
0000
0000
0000
0001
0000
0000
1000
0000
0000
0001
0000
,
2002
0000
0000
3003
,
0220
0000
0000
0330
,
2020
0000
0000
3030
,
0202
0000
0000
0303
0000
0000
0001
0010
0100
1000
0100
0010
,
0001
0000
1001
0000
1000
0010
0000
0110
,
0000
0000
0000
0000
0000
0000
1000
0000
0000
0100
0000
0000
1000
0000
0000
0000
0000
0000
0001
0000
0000
0000
0000
0000
1000
0000
0000
0000
0010
0000
0000
0000
0100
0000
0000
0000
0001
0000
0000
0000
0100
0000
0000
0000
0010
0000
0000
0000
,
1000
0000
1001
0000
0001
0010
0000
0110
,
0000
0000
0001
0100
0001
0000
1000
0000
0200
0000
0000
0000
0000
0000
0000
0000
,
1300
0000
1010
0000
0001
1000
0000
1001
,
0000
0000
0000
0000
0000
0000
0001
0000
0000
0100
0000
0000
0001
0000
0000
0000
0000
0000
0010
0000
0000
0000
0000
0000
0001
0000
0000
0000
0100
0000
0000
0000
0010
0000
0000
0000
1000
0000
0000
0000
0010
0000
0000
0000
0100
0000
0000
0000
,
0001
0000
0011
0000
1000
0001
0000
1001
,
0000
0000
0000
2000
0000
0000
0000
0000
0000
0000
0000
0000
3001
0000
0100
0000
0001
0000
1000
0000
0100
0000
1000
0000
,
0001
0010
1000
0010
0001
0000
1000
0010
,
0100
0000
0010
0000
1000
0000
0100
0000
0010
0000
0001
0000
0100
0000
0001
1000
,
0001
0010
1000
0010
0100
0000
0010
0001
,
0100
0000
0000
0010
0000
0000
1000
0000
0000
0100
0000
0000
0020
0000
0000
0000
0000
0000
0031
0000
1000
0000
0001
0000
,
1000
0010
0001
0010
1000
0000
0001
0010
,
0100
0000
0010
0000
0001
0000
0100
0000
0010
0000
1000
0000
0100
0000
1000
0001
,
1000
0010
0001
0010
0100
0000
0001
0010
,
0100
1000
0010
0100
0002
0000
0000
0000
,
1003
0000
1001
0000
0001
0010
0000
0110
,
0000
0000
0000
0000
0000
0000
0001
0000
0000
0100
0000
0000
0001
0000
0000
0000
0000
0000
1000
0000
0000
0000
0000
0000
0001
0000
0000
0000
0010
0000
0000
0000
0100
0000
0000
0000
1000
0000
0000
0000
0100
0000
0000
0000
0010
0000
0000
0000
,
0001
0000
1001
0000
1000
0010
0000
0110
,
0000
0000
1000
0100
1000
0000
0001
0000
0200
0000
0000
0000
0000
0000
0000
0000
,
0301
0000
0011
0000
1000
0001
0000
1001
,
0000
0000
0000
0000
0000
0000
1000
0000
0000
0100
0000
0000
1000
0000
0000
0000
0000
0000
0010
0000
0000
0000
0000
0000
1000
0000
0000
0000
0100
0000
0000
0000
0010
0000
0000
0000
0001
0000
0000
0000
0010
0000
0000
0000
0100
0000
0000
0000
,
1000
0000
1010
0000
0001
1000
0000
1001
,
1000
1010
0000
0010
,
0000
1000
0000
0100
,
0000
0010
0001
0100
,
0010
1000
0000
0002
,
0003
0000
1000
0100
0010
0100
1000
0010
,
0100
0001
0010
0100
0010
0001
1000
0000
,
0001
1000
0001
0100
0010
0100
0001
0010
,
0100
1000
0010
0100
0010
1000
0001
0000
,
1000
0001
1000
0100
0001
0100
1000
0010
,
0100
0001
0010
1000
0010
0001
1000
0100
,
0010
0001
0000
0100
0010
0010
1000
1000
,
0001
0001
1000
0100
0001
0100
1000
0000
,
0001
0100
0010
0100
0001
0010
0100
1000
,
0010
0100
0010
1000
0001
0000
1000
0001
,
1000
0100
0010
0100
1000
0010
0100
0001
,
0010
0100
0010
0001
1000
0000
0001
1000
,
0001
0100
1000
0100
0001
0010
0100
1000
,
0010
0001
0010
1000
0001
0100
0010
1000
,
0000
0100
0010
0010
0001
0001
1000
1000
,
0001
0100
1000
0100
0001
0000
2000
0000
,
3001
0010
0100
0001
0100
1000
0010
0100
,
0002
0000
0010
0000
0103
0000
1000
0001
,
1000
0010
0100
1000
0100
0001
0010
0100
,
2000
0000
0010
0000
3100
0000
0001
1000
,
0001
0010
1000
0010
0001
0100
0010
1000
,
0001
0010
0100
1000
0001
0100
1000
0100
,
0001
1000
1000
0100
0100
0010
0010
0001
,
1000
0010
0001
0010
1000
0000
0001
0100
,
0010
1000
0100
0010
1000
0010
0001
0100
,
0010
0100
0001
0000
1000
0001
1000
0100
,
0010
0001
0100
0010
0001
0010
1000
0100
,
0010
0100
2000
0000
0010
0000
3001
0100
,
0010
1000
0100
0010
0001
0100
0001
0010
,
1000
0010
0001
0100
1000
0100
0000
0010
,
1000
1000
0100
0100
0010
0010
0001
0100
,
1000
0100
0002
0000
0000
0000
1003
0000
,
1001
0000
0000
0000
0001
0000
0100
0000
0000
0000
0110
0000
0000
0000
0001
0010
,
0001
0000
0000
1000
0000
0000
0001
0000
0100
0000
0010
0000
1000
0000
0010
0000
0100
0000
0001
0000
0000
0000
0000
0000
,
1001
0000
0000
0000
1000
0000
0100
0000
0000
0000
0110
0000
0000
0000
1000
0010
,
1000
0001
0020
0000
0000
0000
0031
0000
,
0101
0000
0000
0000
1000
0000
0001
0000
0000
0000
1001
0000
0000
0000
1000
0010
,
1000
0000
0000
0100
0000
0000
1000
0000
0010
0000
0100
0000
0001
0000
0100
0000
0010
0000
1000
0000
0000
0000
0000
0000
,
1100
0000
0001
1000
0000
1001
0000
0000
;

//---------------dance-single - ----------------
#NOTES:
     dance-single:
     :
     Medium:
     11:
     0.501248,0.566756,0.222189,0.268479,0.004629,379.000000,355.000000,24.000000,29.000000,0.000000,0.000000,0.501248,0.566756,0.222189,0.268479,0.004629,379.000000,355.000000,24.000000,29.000000,0.000000,0.000000:
0000
0000
0000
0000
,
0000
0000
0000
0000
,
0000
0000
0000
0000
,
0000
0000
0000
0001
,
1001
0000
1000
0100
0010
0000
0100
1000
,
0000
1001
0000
0000
0001
0100
0001
0100
,
0001
0000
1000
0001
0010
0000
0001
1000
,
0000
1001
0000
0000
0001
0100
0001
0000
,
2200
0000
0000
3300
,
0022
0000
0000
0033
,
0202
0000
0000
0303
,
2020
0000
0000
0000
3030
0000
0000
0000
1000
0000
0000
0001
0000
0000
1000
0000
,
2002
0000
0000
3003
,
0220
0000
0000
0330
,
2020
0000
0000
3030
,
0202
0303
0002
2003
,
3001
0000
0001
0000
1000
0010
0000
1001
,
0000
0000
1000
0001
,
1000
0000
1000
0000
0001
0010
0000
1001
,
0000
0000
0002
0000
,
1003
0000
1000
0000
0010
0100
0000
0110
,
0000
0000
0001
1000
,
0001
0000
0001
0000
0010
0100
0000
0110
,
0000
0000
0001
1000
,
0001
0100
0010
0100
0001
0000
1000
0100
,
0010
0100
1000
0000
0001
1000
0001
0000
,
1000
0010
0100
0010
1000
0000
0001
0010
,
0100
0010
0001
0000
2000
0000
3000
0000
,
0001
1000
0010
1000
0001
0000
1000
0001
,
0010
0001
1000
0000
0010
0100
0010
0000
,
1000
0001
0100
0001
1000
0000
0001
1000
,
0100
1000
0001
0000
0200
0000
0300
0000
,
0001
0000
0001
0000
1000
0100
0000
1001
,
0000
0000
1000
0001
,
1000
0000
1000
0000
0001
0100
0000
1001
,
0000
0000
0002
0000
,
1003
0000
1000
0000
0100
0010
0000
0110
,
0000
0000
0001
1000
,
0001
0000
0001
0000
0100
0010
0000
0110
,
0000
1001
0000
1000
,
0000
0001
0000
0010
,
0000
0100
1000
0010
,
1000
0001
0000
0200
,
0300
0000
0001
0000
1000
0010
1000
0000
,
0001
0010
0100
0010
0001
0000
1000
0000
,
0001
1000
0001
0000
1000
0100
0010
0000
,
0001
0100
0010
0100
0001
0000
1000
0000
,
0100
0010
0100
0000
1000
0001
0100
0000
,
0001
1000
0100
1000
0001
0000
0010
0100
,
0010
0100
0000
1000
0010
1000
0001
0010
,
0001
1000
0000
0001
0010
0100
1000
0000
,
0001
0000
1000
0100
1000
0000
0001
1000
,
0010
1000
0001
0000
0010
0000
0001
1000
,
0001
0000
1000
0010
0100
0000
0001
0010
,
0100
0010
0001
0000
1000
0000
0010
0100
,
0010
0000
1000
0001
0010
0000
0001
1000
,
0010
1000
0001
0000
1000
0010
1000
0010
,
0000
1000
0100
1000
0001
0100
0001
1000
,
0000
0001
0100
0010
1000
0000
0002
0000
,
1003
0000
0001
0010
0100
0000
1000
0010
,
0200
0000
0000
0000
0300
0000
0001
0010
,
0001
0000
1000
0010
1000
0000
0001
0010
,
0200
0000
0000
0000
0300
0000
1000
0010
,
1000
0000
0001
1000
0001
0000
1000
0100
,
1000
0000
0001
0100
0001
0100
0001
0010
,
0000
0001
1000
0001
1000
0100
0010
0001
,
0000
0100
0010
0100
0010
0000
1000
0000
,
0001
0010
0001
0000
1000
0010
0100
0010
,
1000
0000
0001
0000
1000
0001
1000
0000
,
0001
0100
0010
0000
1000
0100
0010
0100
,
1000
0002
0000
0103
,
0001
1000
0100
0000
1000
0001
0100
0001
,
1000
0000
0010
0100
0010
0100
0000
0001
,
0010
0001
1000
0010
1000
0001
0000
1000
,
0010
0100
0002
0000
0000
0000
1003
0000
,
1000
0000
0001
0010
0000
0110
0000
0000
,
0000
0001
1000
0001
,
0001
0000
1000
0010
0000
0110
0000
0000
,
0000
0002
0000
1003
,
1000
0000
0100
0010
0000
1001
0000
0000
,
0000
0001
1000
0001
,
0001
0000
0100
0010
0000
1001
0000
0000
;

//---------------dance-single - ----------------
#NOTES:
     dance-single:
     :
     Easy:
     7:
     0.338574,0.415621,0.018516,0.120353,0.000000,256.000000,254.000000,2.000000,13.000000,0.000000,0.000000,0.338574,0.415621,0.018516,0.120353,0.000000,256.000000,254.000000,2.000000,13.000000,0.000000,0.000000:
0000
0000
0000
0000
,
0000
0000
0000
0000
,
0000
0000
0000
0000
,
0000
0000
0000
0001
,
1000
0000
0100
0000
0010
0000
0001
1000
,
0000
1001
0000
0000
0002
0000
2003
0000
,
3001
0000
0100
0000
0010
0000
1000
0001
,
0000
1001
0000
0000
1000
0000
0001
0000
,
2000
0000
0000
0000
,
3200
0000
0000
0000
,
0320
0000
0000
0000
,
0032
0000
1003
0001
,
2000
0000
0000
0000
,
3020
0000
0000
0000
,
0230
0000
0000
0000
,
0302
0000
1003
0001
,
1000
0000
1000
0000
0001
1000
0000
0001
,
0000
0000
1000
0000
,
0100
0000
0100
0000
0010
0100
0000
0010
,
0000
0000
0001
0000
,
1000
0000
1000
0000
0001
1000
0000
0001
,
0000
0000
1000
0000
,
0010
0000
0010
0000
0100
0010
0000
0100
,
0000
0000
0000
0000
,
0001
0010
0001
0100
,
0010
1000
0100
0010
,
0001
0100
0001
0010
,
0100
1000
0020
0030
,
1000
0100
1000
0010
,
0100
0001
0010
0100
,
1000
0010
1000
0100
,
0010
0001
0200
0300
,
0001
0000
0001
0000
1000
0001
0000
1000
,
0000
0000
0001
0000
,
0010
0000
0010
0000
0100
0010
0000
0100
,
0000
0000
1000
0000
,
0001
0000
0001
0000
1000
0001
0000
1000
,
0000
0000
0001
0000
,
0100
0000
0100
0000
0010
0100
0000
0010
,
0000
1000
0000
0100
,
0000
0010
0000
0001
,
0000
1000
0001
0100
,
0010
1000
0000
0002
,
0003
1000
1000
0001
,
0001
0010
0100
1000
,
0000
0001
0001
1000
,
1000
0010
0100
0001
,
0000
1000
1000
0001
,
0001
0010
0100
0010
,
0001
1000
0010
0100
,
0010
1000
0001
1000
,
0001
0001
1000
1000
,
0100
0010
0001
0000
,
1000
1000
0001
0001
,
0100
0010
1000
0000
,
0001
0001
1000
1000
,
0001
0010
0100
0010
,
0001
1000
0010
0100
,
0010
1000
0001
0000
,
1000
0100
0010
0100
,
1000
0010
0100
0000
,
0001
0010
0100
0010
,
0001
0100
0010
0000
,
1000
1000
0001
0001
,
0010
0100
1000
0010
,
0100
0001
0010
0001
,
1000
0010
1000
0001
,
0001
1000
1000
0010
,
0100
0001
0000
1000
,
1000
0001
0001
0010
,
0100
1000
0000
0001
,
0001
1000
1000
0010
,
0100
0010
1000
0001
,
0010
0100
0010
0001
,
1000
0001
0000
1000
,
1000
0000
0001
1000
0000
0001
0000
0000
,
0000
1000
0000
0010
,
0010
0000
0100
0010
0000
0100
0000
0000
,
0000
0001
0000
1000
,
1000
0000
0001
1000
0000
0001
0000
0000
,
0000
1000
0000
0100
,
0100
0000
0010
0100
0000
0010
0000
0000
;

//---------------dance-single - ----------------
#NOTES:
     dance-single:
     :
     Beginner:
     4:
     0.166642,0.263271,0.000000,0.000000,0.000000,126.000000,126.000000,0.000000,0.000000,0.000000,0.000000,0.166642,0.263271,0.000000,0.000000,0.000000,126.000000,126.000000,0.000000,0.000000,0.000000,0.000000:
// measure 0
0000
0000
0000
0000
,  // measure 1
0000
0000
0000
0000
,  // measure 2
0000
0000
0000
0000
,  // measure 3
0000
0000
0000
0000
,  // measure 4
1000
0000
0000
0000
,  // measure 5
0001
0000
0000
0000
,  // measure 6
1000
0000
0000
0000
,  // measure 7
0001
0000
0000
0000
,  // measure 8
1000
0000
0000
0000
,  // measure 9
0100
0000
0000
0000
,  // measure 10
0010
0000
0000
0000
,  // measure 11
0001
0000
0000
0000
,  // measure 12
1000
0000
0000
0000
,  // measure 13
0010
0000
0000
0000
,  // measure 14
0100
0000
0000
0000
,  // measure 15
0001
0000
0000
0000
,  // measure 16
1000
0000
0001
0000
,  // measure 17
0000
0000
1000
0000
,  // measure 18
0001
0000
1000
0000
,  // measure 19
0000
0000
0001
0000
,  // measure 20
1000
0000
0001
0000
,  // measure 21
0000
0000
1000
0000
,  // measure 22
0001
0000
1000
0000
,  // measure 23
0000
0000
0000
0000
,  // measure 24
0001
0000
0001
0000
,  // measure 25
0100
0000
0100
0000
,  // measure 26
0001
0000
0001
0000
,  // measure 27
0100
0000
0100
0000
,  // measure 28
0010
0000
0010
0000
,  // measure 29
1000
0000
1000
0000
,  // measure 30
0010
0000
0010
0000
,  // measure 31
1000
0000
1000
0000
,  // measure 32
0001
0000
1000
0000
,  // measure 33
0000
0000
0001
0000
,  // measure 34
1000
0000
0001
0000
,  // measure 35
0000
0000
1000
0000
,  // measure 36
0001
0000
1000
0000
,  // measure 37
0000
0000
0001
0000
,  // measure 38
1000
0000
0001
0000
,  // measure 39
0000
1000
0000
0001
,  // measure 40
0000
1000
0000
0001
,  // measure 41
0000
0010
0100
0010
,  // measure 42
0100
0010
0000
0000
,  // measure 43
0000
0001
0000
0001
,  // measure 44
0000
1000
0000
1000
,  // measure 45
0000
0001
0000
0001
,  // measure 46
0000
1000
0000
1000
,  // measure 47
0000
0010
0000
0010
,  // measure 48
0000
0100
0000
0100
,  // measure 49
0000
0010
0000
0010
,  // measure 50
0000
0100
0000
0100
,  // measure 51
0001
0000
0001
0000
,  // measure 52
1000
0000
1000
0000
,  // measure 53
0001
0000
0001
0000
,  // measure 54
1000
0000
1000
0000
,  // measure 55
0100
0000
0100
0000
,  // measure 56
0010
0000
0010
0000
,  // measure 57
0100
0000
0000
0000
,  // measure 58
0000
0000
0000
0000
,  // measure 59
1000
0000
0001
0000
,  // measure 60
1000
0000
0000
0000
,  // measure 61
0001
0000
1000
0000
,  // measure 62
0001
0000
0000
0000
,  // measure 63
0100
0000
0100
0000
,  // measure 64
0010
0000
0010
0000
,  // measure 65
0100
0000
0100
0000
,  // measure 66
0010
0000
0010
1000
,  // measure 67
0000
1000
0000
0001
,  // measure 68
0000
0001
0000
1000
,  // measure 69
0000
1000
0000
0001
,  // measure 70
0000
0001
0000
0010
,  // measure 71
0000
0010
0000
0100
,  // measure 72
0000
0100
0000
0010
,  // measure 73
0000
0000
0000
0000
,  // measure 74
0000
0000
0000
0001
,  // measure 75
0000
1000
0000
0000
,  // measure 76
0000
0001
0000
1000
,  // measure 77
0000
0001
0000
0000
,  // measure 78
0000
1000
0000
0001
,  // measure 79
0000
1000
0000
0000
,  // measure 80
0000
0001
0000
1000
,  // measure 81
0000
0001
0000
0000
;
