#VERSION:0.83;
#TITLE:chaplet;
#SUBTITLE:;
#ARTIST:DJ TOTTO;
#TITLETRANSLIT:;
#SUBTITLETRANSLIT:;
#ARTISTTRANSLIT:;
#GENRE:ARTCORE;
#ORIGIN:;
#CREDIT:;
#BANNER:chaplet.png;
#BACKGROUND:chaplet-bg.png;
#PREVIEWVID:;
#JACKET:chaplet-jacket.png;
#CDIMAGE:;
#DISCIMAGE:;
#LYRICSPATH:;
#CDTITLE:cdtitle.png;
#MUSIC:chaplet.ogg;
#OFFSET:-0.460000;
#SAMPLESTART:22.040001;
#SAMPLELENGTH:9.660000;
#SELECTABLE:YES;
#BPMS:0.000=200.000,
200.000=100.000,
232.000=200.000;
#STOPS:;
#DELAYS:;
#WARPS:;
#TIMESIGNATURES:0.000=4=4;
#TICKCOUNTS:0.000=4;
#COMBOS:0.000=1;
#SPEEDS:0.000=1.000=0.000=0;
#SCROLLS:0.000=1.000;
#FAKES:;
#LABELS:0.000=Song Start;
#BGCHANGES:;
#KEYSOUNDS:;
#ATTACKS:
;

//---------------dance-single - ----------------
#NOTEDATA:;
#CHARTNAME:;
#STEPSTYPE:dance-single;
#DESCRIPTION:;
#CHARTSTYLE:;
#DIFFICULTY:Hard;
#METER:14;
#RADARVALUES:0.569364,0.836880,0.194623,0.253857,0.918114,471.000000,448.000000,23.000000,30.000000,0.000000,0.000000,0.000000,0.000000,0.000000,0.569364,0.836880,0.194623,0.253857,0.918114,471.000000,448.000000,23.000000,30.000000,0.000000,0.000000,0.000000,0.000000,0.000000;
#CREDIT:;
#NOTES:
0000
0000
0000
0000
,
2000
0000
0000
0000
,
0000
0000
0000
0000
,
3002
0000
0000
0000
,
0000
0000
0000
0000
,
0203
0000
0000
0000
,
0000
0000
0000
0000
,
0320
0000
0000
0000
,
0030
0000
2000
0000
,
3001
0000
0010
0000
,
0000
0010
0100
0000
,
1000
0000
0010
0000
,
1000
0010
0100
0000
,
0001
0000
1000
0000
,
0010
1000
0100
0000
,
0010
0000
0001
0000
,
1000
0001
0100
0010
,
2002
0000
0000
3003
,
1000
0000
1000
0010
0000
0010
0100
0000
0100
0001
0000
0001
,
1000
0000
1000
0010
0100
0010
1000
0001
1000
0010
0100
0010
,
1000
0000
1000
0001
0000
0001
0010
0000
0010
0100
0000
0100
,
1000
0000
1001
0000
,
0010
0000
0010
0100
0000
0100
0001
0000
0001
1000
0000
0000
,
0100
0000
1000
0010
0000
0010
0100
0000
0001
0010
0000
0001
,
1000
0000
0000
1000
0001
1000
0001
0000
0000
0001
1000
0001
,
1000
0000
1000
0010
0000
0010
0100
0000
0100
0001
0000
0001
,
0010
0000
0010
0100
0000
0100
1000
0000
1000
0001
0000
0001
,
0100
0000
0100
0001
1000
0001
0100
0010
0100
0001
1000
0001
,
0010
0000
0010
0001
0000
0001
0100
0000
0100
0010
0000
0010
,
1000
0000
1100
0000
1100
0000
0001
0000
0101
0000
0101
0000
,
1001
0000
0000
1000
0010
0100
0001
0000
0000
1000
0000
0000
,
1010
0000
0000
0001
0010
0100
1000
0000
0000
0001
0000
0000
,
0101
0000
0000
0001
1000
0001
1000
0000
0000
0001
0100
0001
,
1000
0010
1000
0001
0100
0001
1000
0100
0010
0001
0010
0100
,
2000
0000
0000
0000
3010
0100
0020
0000
0000
0000
0130
0001
,
0100
0000
0010
1000
0000
1000
0100
0000
0001
0000
0100
0000
,
0020
0000
0000
0000
0031
1000
0002
0000
0000
0000
1003
0010
,
1000
0000
0100
0000
0001
0000
1000
0000
0010
0000
0001
0000
,
0200
0000
0000
0000
0000
0000
0000
0000
0000
0301
0010
0100
,
1000
0100
0010
0001
1000
0001
1000
0000
0010
0000
0001
0000
,
0020
0000
0000
0000
0000
0000
1000
0000
0000
1030
0000
0001
,
0100
0001
0000
1000
0100
0010
0001
0000
1000
0001
0100
0010
,
2000
0000
0000
0000
3001
0010
0002
0000
0000
0000
1003
0010
,
1000
0000
1000
0001
0000
0001
0010
0000
1000
0000
0010
0000
,
0002
0000
0000
0000
0103
0010
0200
0000
0000
0000
0310
1000
,
0010
0000
1000
0010
1000
0001
0100
0000
0110
0000
0110
0000
,
2002
0000
0000
0000
0000
0000
3003
0000
0000
0000
1000
0001
,
1000
0000
1000
0010
0000
0010
0100
0000
0100
0001
0010
0001
,
2000
0000
0000
0000
0000
0000
3001
0010
0001
0010
0001
0010
,
0002
0000
0000
0000
,
1003
0000
0010
0000
,
0100
0000
0001
1000
,
0010
0000
0100
0000
,
0001
0000
1000
0020
,
0230
0001
0000
1000
,
0001
0010
0000
0302
,
0023
0001
1000
0230
,
2300
0000
3010
0000
2002
0000
0000
3003
,
1000
0000
1000
0100
0000
0100
0010
0000
0010
0001
0000
0001
,
0100
0000
0100
0001
1000
0001
0100
0010
0100
0001
1000
0001
,
0100
0000
0010
1000
0000
1000
0001
0000
0100
0010
0000
0010
,
1000
0000
1001
0000
,
0001
0000
0001
1000
0000
1000
0010
0000
0010
0100
0000
0000
,
0001
0000
1000
0010
0000
0100
0001
0000
0001
1000
0000
0100
,
1000
0000
0000
0000
,
0000
0000
0000
0000
0000
0000
0000
0000
0000
1000
0001
1000
,
0001
0000
0001
0100
0000
0100
0010
0000
0010
1000
0000
1000
,
0001
0000
0001
0100
0010
0100
0001
1000
0001
0100
0010
0100
,
0001
0000
0001
0010
0000
0010
0100
0000
0100
1000
0000
1000
,
0001
0000
0011
0000
0011
0000
1000
0000
1010
0000
1010
0000
,
1000
0000
0001
0100
0010
0100
0001
0000
0000
1000
0000
0000
,
0110
0000
0000
0000
1000
0001
1000
0000
0000
0001
0000
0000
,
0010
0000
0000
0100
1000
0100
1000
0000
0000
0001
0100
0010
,
1000
0100
1000
0001
1000
0001
0100
0010
0100
0001
0010
0001
,
1000
0000
1010
0000
,
0101
0000
0001
1000
0000
1000
0010
0000
0010
0100
0000
0100
,
0001
0000
0011
0000
,
1100
0000
1000
0001
0000
0001
0100
0000
0100
0010
0000
0010
,
1000
0001
1000
0001
1000
0000
0001
1000
0001
1000
0001
0000
,
1000
0000
1000
0010
0000
0010
0100
0000
0100
0001
0010
0001
,
1000
0010
0100
0001
0000
1000
0001
0010
0100
1000
0000
0001
,
1000
0100
1000
0001
0100
0001
1000
0010
1000
0001
0010
0001
,
2000
0000
0000
0000
,
0000
0000
0000
0000
,
0000
0000
0000
0000
,
0000
0000
0000
0000
,
3000
0000
0000
0000
;

//---------------dance-single - ----------------
#NOTEDATA:;
#CHARTNAME:;
#STEPSTYPE:dance-single;
#DESCRIPTION:;
#CHARTSTYLE:;
#DIFFICULTY:Challenge;
#METER:16;
#RADARVALUES:0.680577,0.909653,0.211547,0.262318,1.243897,563.000000,538.000000,25.000000,31.000000,0.000000,0.000000,0.000000,0.000000,0.000000,0.680577,0.909653,0.211547,0.262318,1.243897,563.000000,538.000000,25.000000,31.000000,0.000000,0.000000,0.000000,0.000000,0.000000;
#CREDIT:;
#NOTES:
0000
0000
0000
0000
,
0002
0000
0000
0000
,
0000
0000
0000
0000
,
2003
0000
0000
0000
,
0000
0000
0000
0000
,
3200
0000
0000
0000
,
0000
0000
0000
0000
,
0320
0000
0000
0000
,
0001
0000
0230
0000
,
2300
0000
0010
0000
,
0000
0100
0001
0000
,
0010
0000
0001
0000
,
0100
0001
3200
0000
,
0320
0000
0100
0000
,
0032
1000
0100
0000
,
2003
0000
0010
0000
,
3020
0001
0100
0000
,
1030
0000
0000
0000
0000
0000
0001
0010
0100
1000
0100
0010
,
0001
0100
0010
1000
0000
1000
0100
0000
0100
0010
0000
0010
,
0001
0000
0001
1000
0010
1000
0100
1000
0001
0100
0010
0100
,
0001
0010
0001
1000
0100
1000
0010
0100
0001
0010
0100
1000
,
0001
0000
1001
0000
,
1000
0100
0010
0001
0000
1000
0001
0100
0010
1000
0000
0001
,
0100
0010
0100
0001
0010
0001
1000
0100
1000
0001
0100
0010
,
0100
0000
0000
0001
0100
0001
0100
0000
0000
0010
1000
0010
,
1000
0100
0010
0100
1000
0001
0100
0010
0100
0001
1000
0001
,
0010
0100
0010
0001
0000
0001
0100
0000
0100
0010
0000
0010
,
1000
0000
1000
0001
0100
0010
0100
0001
0010
0100
0010
0001
,
1000
0010
0100
0010
1000
0001
0100
0010
0100
0001
1000
0100
,
1000
0000
1010
0000
1010
0000
0001
0000
0011
0000
0011
0000
,
1000
0000
0000
0010
1000
0010
1000
0000
0000
0001
0000
0000
,
0011
0000
0000
1000
0010
1000
0001
0000
0000
0100
0000
0000
,
0110
0000
0000
0001
0010
0001
1000
0000
0000
0001
1000
0001
,
1000
0100
0010
1000
0010
0001
1000
0010
0100
1000
0100
0001
,
2000
0000
0000
0000
3100
0010
0200
0000
0000
0000
0310
0001
,
0010
0000
0001
0010
0100
1000
0001
0000
1001
0000
1001
0000
,
2000
0000
0000
0000
3010
0100
0020
0000
0000
0000
0130
0001
,
0100
0000
0010
1000
0010
0100
0001
0000
1001
0000
1001
0000
,
2000
0000
0000
0000
0000
0000
0000
0000
0000
3001
0100
0001
,
1000
0100
0010
0100
1000
0010
1000
0000
1001
0000
1001
0000
,
0002
0000
0000
0000
0000
0000
0000
0000
0003
1000
0000
0010
,
0100
0010
0000
1000
0010
0100
0001
0000
1000
0001
0010
0100
,
2000
0000
0000
0000
3001
0100
0002
0000
0000
0000
1003
0010
,
0100
0000
0001
1000
0100
0010
0001
0000
0101
0000
0101
0000
,
0200
0000
0000
0000
0310
1000
0020
0000
0000
0000
1030
0001
,
1000
0000
0001
0100
0010
0100
0001
0000
1100
0000
1100
0000
,
2000
0000
0000
0000
0000
0000
0000
0000
0000
3000
0001
1000
,
0001
0100
0001
1000
0010
1000
0100
0010
0100
0010
0001
0010
,
0200
0000
0000
0000
0000
0000
1300
0001
1000
0001
1000
0001
,
0020
0000
0000
0030
,
1001
0000
1000
0000
,
0010
0000
0100
0001
,
1000
0000
0100
0000
,
0010
0000
0001
2000
,
3020
0100
0000
1000
,
0100
0001
0100
2030
,
3002
0010
0100
0023
,
0230
0000
0000
0000
0000
0000
1000
0000
0000
0000
0000
0000
0301
0000
0000
0000
0000
0000
1000
0100
0010
0001
0010
0100
,
1000
0010
0100
0001
0000
0001
0010
0000
0010
0100
0000
0100
,
1000
0000
1000
0001
0010
0001
1000
0010
1000
0100
0010
0100
,
1000
0010
0100
0010
1000
0001
0010
0100
0010
0001
1000
0001
,
0100
0000
0110
0000
,
0001
0010
0100
1000
0000
0001
1000
0010
0100
0001
0000
1000
,
0001
0100
0001
0010
0100
1000
0100
1000
0010
0100
0001
1000
,
0100
0000
0000
0000
,
1000
0001
1000
0100
0000
0010
0001
0010
0000
0001
0100
0010
,
1000
0100
0010
0001
0000
0001
0100
0000
0100
0010
0000
0010
,
1000
0000
1000
0001
0100
0010
0100
0001
0010
0100
0010
0001
,
1000
0010
0100
0010
1000
0010
0100
0001
0010
0100
1000
0010
,
1000
0000
1100
0000
1100
0000
0001
0000
0101
0000
0101
0000
,
1000
0000
0000
0010
0100
0001
0100
0000
0000
0010
0000
0000
,
1010
0000
0000
1000
0001
0100
0001
0000
0000
0100
0000
0000
,
0101
0000
0000
0001
1000
0001
1000
0000
0000
0010
0100
0001
,
1000
0100
0010
0100
1000
0001
0100
0010
0100
0001
1000
0001
,
1000
0100
0010
0100
1000
0000
0001
0100
0010
0100
0001
0000
,
1000
0100
1000
0001
0100
0001
0100
0000
0010
1000
0001
1000
,
0001
0010
0100
0010
0001
0000
1000
0010
0100
0010
1000
0000
,
0001
1000
0100
1000
0010
0100
0001
0010
0001
1000
0010
0100
,
0001
1000
0100
1000
0001
0000
1000
0001
0100
0001
1000
0000
,
0001
0100
0010
1000
0100
1000
0001
0100
0001
1000
0010
1000
,
0001
0010
0100
1000
0000
0001
1000
0010
0100
0001
0000
1000
,
0001
0010
0100
0001
0100
1000
0001
0100
0010
0001
0010
1000
,
0002
0000
0000
0000
,
0000
0000
0000
0000
,
0000
0000
0000
0000
,
0000
0000
0000
0000
,
0003
0000
0000
0000
;

//---------------dance-single - ----------------
#NOTEDATA:;
#CHARTNAME:;
#STEPSTYPE:dance-single;
#DESCRIPTION:;
#CHARTSTYLE:;
#DIFFICULTY:Medium;
#METER:11;
#RADARVALUES:0.425512,0.618564,0.093081,0.059233,0.397709,352.000000,341.000000,11.000000,7.000000,0.000000,0.000000,0.000000,0.000000,0.000000,0.425512,0.618564,0.093081,0.059233,0.397709,352.000000,341.000000,11.000000,7.000000,0.000000,0.000000,0.000000,0.000000,0.000000;
#CREDIT:;
#NOTES:
// measure 0
0000
0000
0000
0000
,  // measure 1
0002
0000
0000
0000
,  // measure 2
0000
0000
0000
0000
,  // measure 3
2003
0000
0000
0000
,  // measure 4
0000
0000
0000
0000
,  // measure 5
3200
0000
0000
0000
,  // measure 6
0000
0000
0000
0000
,  // measure 7
0320
0000
0000
0000
,  // measure 8
0000
0000
0000
0000
,  // measure 9
0031
0000
1001
0000
,  // measure 10
0000
1000
0010
0000
,  // measure 11
0100
0000
0110
0000
,  // measure 12
0000
0010
1000
0000
,  // measure 13
0001
0000
0011
0000
,  // measure 14
0000
1000
0100
0000
,  // measure 15
1000
0000
0001
0000
,  // measure 16
1000
0001
0010
0100
,  // measure 17
2000
0000
0000
0000
,  // measure 18
3001
0000
0001
1000
0000
0000
0010
0000
0000
1000
0000
0000
,  // measure 19
0100
0000
0100
0010
0000
0000
0001
0000
0000
1000
0000
0000
,  // measure 20
0001
0000
0001
1000
0000
1000
0010
0000
0010
0100
0000
0100
,  // measure 21
0001
0000
0011
0000
,  // measure 22
1000
0000
1000
0010
0000
0000
0100
0000
0100
0001
0000
0000
,  // measure 23
0001
0000
0001
1000
0000
0000
0010
0000
0010
0100
0000
0000
,  // measure 24
0001
0000
0000
1000
0000
1000
0001
0000
0000
0001
0000
0001
,  // measure 25
0100
0000
0000
0010
0000
0000
1000
0000
1000
0100
0000
0100
,  // measure 26
0010
0000
0010
0001
0000
0000
1000
0000
0000
0010
0000
0000
,  // measure 27
0100
0000
0100
0001
0000
0000
0010
0000
0000
0100
0000
0000
,  // measure 28
1000
0000
1000
0010
0000
0010
0100
0000
0100
0001
0000
0001
,  // measure 29
0010
0000
0010
0000
0010
0000
0100
0000
0100
0000
0100
0000
,  // measure 30
0010
0000
0000
0001
0000
0001
1000
0000
0000
0010
0000
0000
,  // measure 31
0100
0000
0000
0010
0000
0010
1000
0000
0000
0100
0000
0000
,  // measure 32
0010
0000
0000
0001
0000
1000
0001
0000
0000
0100
0000
0010
,  // measure 33
1000
0000
1000
0001
0000
0001
0010
0000
0010
0100
0000
0100
,  // measure 34
1000
0100
0010
0001
,  // measure 35
0010
0000
0000
0100
0000
0000
1000
0000
1000
0000
1000
0000
,  // measure 36
0001
0010
0100
1000
,  // measure 37
0100
0000
0000
0010
0000
0000
0001
0000
0001
0000
0001
0000
,  // measure 38
1000
0000
0000
0010
0000
0000
0100
0000
0000
0001
0000
0001
,  // measure 39
1000
0000
1000
0010
0000
0010
0100
0000
0001
0000
0100
0000
,  // measure 40
0001
0000
0000
1000
0000
0000
0010
0000
0000
0100
0000
0010
,  // measure 41
1000
0010
0000
0100
0000
0001
0100
0000
0000
0010
0000
0010
,  // measure 42
1000
0010
0100
0001
,  // measure 43
0100
0000
0000
0010
0000
0000
1000
0000
1000
0000
1000
0000
,  // measure 44
0001
0100
0010
1000
,  // measure 45
0010
0000
0000
0100
0000
0000
0001
0000
0001
0000
0001
0000
,  // measure 46
1000
0000
0000
0100
0000
0000
0010
0000
0000
0001
0000
0001
,  // measure 47
1000
0000
1000
0010
0000
0010
0100
0000
0100
0001
0000
0001
,  // measure 48
0010
0000
0000
0100
0000
0000
1000
0000
0000
0001
1000
0001
,  // measure 49
2000
0000
0000
0000
,  // measure 50
3001
0000
1000
0000
,  // measure 51
0010
0000
0100
0001
,  // measure 52
1000
0000
0100
0000
,  // measure 53
0010
0000
0001
1000
,  // measure 54
0010
0000
0100
0000
0000
0001
0010
0000
,  // measure 55
0001
0000
1000
0000
0000
0100
1000
0000
,  // measure 56
0010
0000
0100
0000
0000
0001
0010
0000
,  // measure 57
0001
0010
0100
0000
,  // measure 58
1001
0001
0100
0100
,  // measure 59
0010
1000
0100
0010
,  // measure 60
0001
0000
0001
1000
0000
1000
0010
0000
0010
0100
0000
0100
,  // measure 61
0001
0000
1001
0000
,  // measure 62
1000
0000
0000
0001
0000
0000
0100
0000
0010
0100
0000
0000
,  // measure 63
0001
0000
0000
0010
0000
0000
0100
0000
0100
1000
0000
1000
,  // measure 64
0001
0000
0100
0000
,  // measure 65
0010
0000
0000
0000
0000
0000
0000
0000
0000
1000
0001
1000
,  // measure 66
0001
0000
0001
0100
0000
0000
0010
0000
0000
1000
0000
0000
,  // measure 67
0100
0000
0100
0010
0000
0000
0001
0000
0000
1000
0000
0000
,  // measure 68
0010
0000
0010
0100
0000
0100
0001
0000
0001
1000
0000
1000
,  // measure 69
0100
0000
0100
0000
0100
0000
0010
0000
0010
0000
0010
0000
,  // measure 70
0001
0000
0000
1000
0000
0100
0010
0000
0000
0001
0000
0000
,  // measure 71
0100
0000
0000
0010
0000
1000
0001
0000
0000
0010
0000
0000
,  // measure 72
0100
0000
0000
1000
0000
1000
0001
0000
0000
0100
0000
0100
,  // measure 73
0010
0000
0010
1000
0000
1000
0100
0000
0100
0010
0000
0010
,  // measure 74
0001
0000
1001
0000
,  // measure 75
1010
0000
0000
1000
0000
0000
0001
0000
0000
0100
0000
0100
,  // measure 76
0010
0000
0110
0000
,  // measure 77
1010
0000
0000
0010
0000
0000
0100
0000
0000
0001
0000
0001
,  // measure 78
0010
0000
0011
0000
,  // measure 79
0010
0000
0000
0100
0000
0000
1000
0000
0000
0001
0000
1000
,  // measure 80
0010
0000
0010
0100
0000
0100
0001
0000
0001
1000
0000
1000
,  // measure 81
0001
0000
0010
0100
0000
1000
0010
0000
0100
0001
0000
1000
,  // measure 82
0002
0000
0000
0000
,  // measure 83
0000
0000
0000
0000
,  // measure 84
0000
0000
0000
0000
,  // measure 85
0000
0000
0000
0000
,  // measure 86
0003
0000
0000
0000
;

//---------------dance-single - ----------------
#NOTEDATA:;
#CHARTNAME:;
#STEPSTYPE:dance-single;
#DESCRIPTION:;
#CHARTSTYLE:;
#DIFFICULTY:Easy;
#METER:7;
#RADARVALUES:0.239350,0.327475,0.067695,0.313090,0.000000,198.000000,190.000000,8.000000,37.000000,0.000000,0.000000,0.000000,0.000000,0.000000,0.239350,0.327475,0.067695,0.313090,0.000000,198.000000,190.000000,8.000000,37.000000,0.000000,0.000000,0.000000,0.000000,0.000000;
#CREDIT:;
#NOTES:
0000
0000
0000
0000
,
2000
0000
0000
0000
,
0000
0000
0000
0000
,
3002
0000
0000
0000
,
0000
0000
0000
0000
,
0023
0000
0000
0000
,
0000
0000
0000
0000
,
0230
0000
0000
0000
,
0000
0000
0000
0000
,
2300
0000
0000
0000
,
0000
0000
0000
0000
,
0001
0000
0000
0000
,
0000
0000
0000
0000
,
3020
0000
0000
0000
,
0230
0000
0000
0000
,
0302
0000
0000
0000
,
1003
0000
0000
0000
,
1001
0000
0000
0000
,
1000
1000
0100
0100
,
0010
0010
0001
0100
,
0010
1000
0001
0010
,
0100
0000
1001
0000
,
1000
1000
0010
0010
,
0100
0001
0010
0100
,
1000
0000
0001
0000
,
1000
0100
0010
0001
,
1000
1000
0001
0001
,
0010
0010
0100
1000
,
0010
0100
0001
0010
,
0200
0000
2300
0000
,
3010
0100
0001
1000
,
0100
0010
0001
1000
,
0001
0000
1000
0000
,
0001
0010
0100
1000
,
0020
0000
0230
0000
,
0302
0000
2003
0000
,
3200
0000
0320
0000
,
0032
0000
1003
0010
,
0200
0000
0000
0301
,
1000
0010
0100
0001
,
0020
0000
0000
0000
,
0230
0000
0000
0000
,
2300
0000
3020
0000
,
0230
0000
0302
0000
,
0023
0000
0230
0000
,
2300
0000
3200
0000
,
0320
0000
0000
0031
,
1000
0010
0100
0010
,
2000
0000
0000
0000
,
3002
0000
0000
0000
,
1003
0000
0100
0000
,
1000
0000
0010
0100
,
0001
0000
0010
0000
,
0100
0000
1000
0001
,
0200
0000
0000
0000
,
0000
0000
0000
0301
,
2000
0000
0000
3001
,
0020
0000
0130
0000
,
1000
1000
0010
0010
,
0100
0100
0001
0010
,
0100
1000
0010
0100
,
0001
0000
1001
0000
,
1000
1000
0010
0010
,
1000
0100
0010
0001
,
0100
0000
0000
0000
,
0000
0000
0000
0000
,
0001
0001
1000
1000
,
0010
0010
0100
0001
,
0010
0100
1000
0010
,
0200
0000
0320
0000
,
1030
0000
1001
0000
,
0001
0000
1001
0000
,
1000
0000
0010
0000
,
0100
0001
0010
0100
,
1000
0000
1010
0000
,
0001
0010
0100
1000
,
0001
0000
0011
0000
,
1000
0010
0100
0001
,
0100
0000
0110
0000
,
1000
0001
1000
0010
,
1000
0100
0010
0001
,
0100
0010
1000
0001
,
2000
0000
0000
0000
,
0000
0000
0000
0000
,
0000
0000
0000
0000
,
0000
0000
0000
0000
,
3000
0000
0000
0000
;

//---------------dance-single - ----------------
#NOTEDATA:;
#CHARTNAME:;
#STEPSTYPE:dance-single;
#DESCRIPTION:;
#CHARTSTYLE:;
#DIFFICULTY:Beginner;
#METER:4;
#RADARVALUES:0.120884,0.218317,0.025386,0.008462,0.000000,100.000000,97.000000,3.000000,1.000000,0.000000,0.000000,0.000000,0.000000,0.000000,0.120884,0.218317,0.025386,0.008462,0.000000,100.000000,97.000000,3.000000,1.000000,0.000000,0.000000,0.000000,0.000000,0.000000;
#CREDIT:;
#NOTES:
0000
0000
0000
0000
,
0000
0000
0000
0000
,
0000
0000
0000
0000
,
0000
0000
0000
0000
,
0000
0000
0000
0000
,
0000
0000
0000
0000
,
0000
0000
0000
0000
,
0000
0000
0000
0000
,
0000
0000
0000
0000
,
1000
0000
0000
0000
,
0000
0000
0000
0000
,
0001
0000
0000
0000
,
0000
0000
0000
0000
,
0100
0000
0000
0000
,
0010
0000
0000
0000
,
1000
0000
0000
0000
,
0001
0000
0000
0000
,
0010
0000
0000
0000
,
0001
0000
0001
0000
,
1000
0000
1000
0000
,
0010
0000
0010
0000
,
0100
0000
0100
0000
,
0001
0000
0001
0000
,
1000
0000
1000
0000
,
0100
0000
0100
0000
,
0010
0000
0010
0000
,
0001
0000
0001
0000
,
1000
0000
1000
0000
,
0100
0000
0100
0000
,
0010
0000
0000
0000
,
0001
0000
0000
0000
,
0001
0000
0000
0000
,
1000
0000
1000
0000
,
0010
0000
0010
0000
,
1000
0000
0000
0000
,
0001
0000
0000
0000
,
1000
0000
0000
0000
,
0010
0000
0000
0000
,
0100
0000
0000
0000
,
0001
0000
0000
0000
,
0010
0000
0000
0000
,
0100
0000
0000
0000
,
1000
0000
0000
0000
,
0010
0000
0000
0000
,
0100
0000
0000
0000
,
0001
0000
0000
0000
,
0010
0000
0000
0000
,
0100
0000
0000
0000
,
0010
0000
0000
0000
,
0001
0000
0000
0000
,
1000
0000
1000
0000
,
0010
0000
0010
0000
,
0100
0000
0100
0000
,
0001
0000
0001
0000
,
1000
0000
0000
0000
,
0000
0000
0000
0001
,
0100
0000
0000
0010
,
1000
0000
0001
0000
,
1000
0000
0000
0000
,
0000
0000
0000
0000
,
0001
0000
0000
0000
,
0000
0000
0000
0000
,
0100
0000
0000
0000
,
0000
0000
0000
0000
,
0010
0000
0000
0000
,
0000
0000
0000
0000
,
1000
0000
1000
0000
,
0010
0000
0010
0000
,
0100
0000
0100
0000
,
0001
0000
0000
0000
,
1000
0000
0000
0000
,
0100
0000
0000
0000
,
0010
0000
0010
0000
,
0001
0000
0001
0000
,
1001
0000
0000
0000
,
1000
0000
0010
0000
,
0110
0000
0000
0000
,
0001
0000
0010
0000
,
1001
0000
0000
0000
,
1000
0000
0010
0000
,
1000
0000
1000
0000
,
0001
0000
0001
0000
,
2000
0000
0000
0000
,
0000
0000
0000
0000
,
0000
0000
0000
0000
,
0000
0000
0000
0000
,
3000
0000
0000
0000
;
