#VERSION:0.83;
#TITLE:優勢オーバードーズ;
#SUBTITLE:;
#ARTIST:PON;
#TITLETRANSLIT:Yuusei overdose;
#SUBTITLETRANSLIT:;
#ARTISTTRANSLIT:;
#GENRE:J-ROCK;
#ORIGIN:;
#CREDIT:;
#BANNER:Yuusei overdose.png;
#BACKGROUND:Yuusei overdose-bg.png;
#PREVIEWVID:;
#JACKET:Yuusei overdose-jacket.png;
#CDIMAGE:;
#DISCIMAGE:;
#LYRICSPATH:;
#CDTITLE:cdtitle.png;
#MUSIC:Yuusei overdose.ogg;
#OFFSET:-0.360000;
#SAMPLESTART:61.768276;
#SAMPLELENGTH:12.339520;
#SELECTABLE:YES;
#BPMS:0.000=166.000;
#STOPS:;
#DELAYS:;
#WARPS:;
#TIMESIGNATURES:0.000=4=4;
#TICKCOUNTS:0.000=4;
#COMBOS:0.000=1;
#SPEEDS:0.000=1.000=0.000=0;
#SCROLLS:0.000=1.000;
#FAKES:;
#LABELS:0.000=Song Start;
#BGCHANGES:;
#KEYSOUNDS:;
#ATTACKS:
;

//---------------dance-single - ----------------
#NOTEDATA:;
#CHARTNAME:;
#STEPSTYPE:dance-single;
#DESCRIPTION:;
#CHARTSTYLE:;
#DIFFICULTY:Hard;
#METER:12;
#RADARVALUES:0.597606,0.649565,0.371844,0.046480,0.260291,450.000000,410.000000,40.000000,5.000000,0.000000,0.000000,0.000000,0.000000,0.000000,0.597606,0.649565,0.371844,0.046480,0.260291,450.000000,410.000000,40.000000,5.000000,0.000000,0.000000,0.000000,0.000000,0.000000;
#CREDIT:;
#NOTES:
// measure 0
0000
0000
0000
0000
,  // measure 1
1000
1100
0001
0101
,  // measure 2
1000
0100
0010
0001
0000
0000
0100
0010
,  // measure 3
0100
0000
0001
0000
0010
0100
1000
0001
,  // measure 4
1000
0010
0000
0110
0000
0100
0001
0000
,  // measure 5
1000
1010
0001
0011
,  // measure 6
1000
0010
0100
0001
0000
0000
0010
0100
,  // measure 7
0010
0000
0001
0000
0100
0010
1000
0100
,  // measure 8
0000
1000
0001
1000
0010
1000
0001
0000
,  // measure 9
1000
0000
1001
0000
0001
0100
0000
0110
,  // measure 10
0000
1010
1001
0110
,  // measure 11
1000
0100
0010
0000
0010
0001
0100
0000
,  // measure 12
0001
0010
0100
0000
0100
1000
0010
0000
,  // measure 13
1000
0010
0100
0000
0100
0001
0010
0000
,  // measure 14
0001
0100
0010
1000
0000
1000
0001
1000
,  // measure 15
0001
0010
0100
0000
0100
1000
0010
0000
,  // measure 16
1000
0100
0010
0000
0010
0001
0100
0010
,  // measure 17
0100
0000
0000
0001
1000
0000
0100
0000
0010
0000
0100
0000
1000
0000
0001
1000
,  // measure 18
0001
0100
0010
1000
0100
1000
0001
0000
,  // measure 19
1001
0000
0000
1000
0100
0000
1000
0000
0010
0000
0100
0000
0002
0000
0000
0000
,  // measure 20
0000
0000
0000
1003
,  // measure 21
2001
0000
3001
1000
,  // measure 22
0001
0010
0000
0000
1001
0000
1000
0000
,  // measure 23
1200
0000
0310
0001
,  // measure 24
1000
0010
1000
0010
1000
0100
0010
0001
,  // measure 25
0100
0010
0000
0010
1000
0000
0001
0000
,  // measure 26
0010
0100
0000
0100
0010
0000
0001
0000
,  // measure 27
1000
0000
0010
0100
0010
0100
0001
0000
1000
0100
1000
0100
,  // measure 28
0010
0011
0100
1100
,  // measure 29
1000
0100
0010
0100
1000
0010
0100
0001
,  // measure 30
0000
0010
0100
0010
0001
1000
0001
0000
,  // measure 31
1000
0000
0100
0000
1000
0000
0001
0010
0001
0000
1000
0000
0001
0000
1000
0000
,  // measure 32
0001
0000
0100
0000
0001
0000
1000
0010
1000
0000
0001
0000
1000
0000
0001
0000
,  // measure 33
1000
0000
0010
0000
1000
0000
0001
0100
0001
0000
1000
0000
0001
0000
1000
0000
,  // measure 34
0001
0000
0010
0000
0001
0000
1000
0100
1000
0000
0001
0000
1000
0000
1001
0000
,  // measure 35
0000
0001
0010
0011
0000
1000
0010
1010
,  // measure 36
0000
0001
0100
0101
0000
1000
0100
0010
,  // measure 37
0000
0000
0001
0000
1000
0000
0000
1000
0010
0000
0100
0000
0001
0000
0000
0000
,  // measure 38
1000
0000
0000
0000
0010
0000
0000
0010
0100
0000
0001
0000
0010
0000
0001
0000
,  // measure 39
0000
0000
1000
0000
0001
0000
0000
0001
0100
0000
0010
0000
1000
0000
0100
0000
,  // measure 40
0000
0000
1000
0000
0010
0000
0100
0000
0001
1000
0001
1000
0001
0000
0000
0000
,  // measure 41
1000
0000
1000
0000
0001
0010
0000
1001
,  // measure 42
0000
0001
0100
0010
1000
0000
0001
0000
,  // measure 43
1000
1100
0001
0101
,  // measure 44
1000
0100
0010
0001
0000
0000
0100
0010
,  // measure 45
0100
0000
0001
0000
0010
0100
1000
0010
,  // measure 46
0100
0001
0000
1001
0000
1000
0100
0000
,  // measure 47
1000
1010
0001
0011
,  // measure 48
1000
0010
0100
0001
0000
0000
0010
0100
,  // measure 49
0010
0000
0001
0000
1000
0010
0100
0001
,  // measure 50
0000
0010
0100
0010
0001
1000
0010
1000
,  // measure 51
0001
0101
1000
1100
,  // measure 52
0001
0000
1000
0001
0000
0000
1000
0000
,  // measure 53
0001
0100
0001
0000
1000
0100
1000
0000
,  // measure 54
0001
0000
0010
0000
0001
0000
1000
0000
0000
0000
0001
1000
0001
1000
0001
0000
,  // measure 55
1000
1100
0001
0101
,  // measure 56
1000
0000
0001
1000
0000
0000
0010
0100
,  // measure 57
0010
0000
1000
0000
0100
0010
0001
0100
,  // measure 58
0000
0001
0010
0100
0010
0001
0100
0010
,  // measure 59
1000
0000
0100
0000
1000
0000
1100
0000
0100
0000
0010
0000
,  // measure 60
0100
0000
1000
0000
0001
0000
1001
0000
1000
0000
0010
0000
,  // measure 61
0100
0000
0001
0000
0010
0000
0011
0000
0001
0000
0100
0000
,  // measure 62
0001
0010
0001
1000
0000
0001
1000
0010
1000
0001
0000
1000
,  // measure 63
0001
0000
0100
0000
0010
0000
0110
0000
0100
0000
0001
0000
,  // measure 64
0010
0000
0100
0000
1000
0000
1100
0000
0100
0000
0010
0000
,  // measure 65
0001
0000
0100
0000
0010
0000
0110
0000
0100
0000
0001
0000
,  // measure 66
0010
0100
0010
0100
1000
0001
1000
0000
0010
0000
0100
0000
,  // measure 67
1001
0000
1001
0000
0010
0100
0000
0101
,  // measure 68
0000
0001
0010
0100
1000
0000
0001
2002
,  // measure 69
0000
0000
0000
0000
0000
0000
0000
3003
;

//---------------dance-single - ----------------
#NOTEDATA:;
#CHARTNAME:;
#STEPSTYPE:dance-single;
#DESCRIPTION:;
#CHARTSTYLE:;
#DIFFICULTY:Medium;
#METER:9;
#RADARVALUES:0.424965,0.454695,0.074369,0.055777,0.037184,320.000000,312.000000,8.000000,6.000000,0.000000,0.000000,0.000000,0.000000,0.000000,0.424965,0.454695,0.074369,0.055777,0.037184,320.000000,312.000000,8.000000,6.000000,0.000000,0.000000,0.000000,0.000000,0.000000;
#CREDIT:;
#NOTES:
0000
0000
0000
0000
,
1000
1000
0001
0001
,
1000
0000
1000
0001
0000
0000
0100
0010
,
0100
0000
0001
0000
0010
0000
0001
1000
,
0001
1000
0000
1100
0000
0100
0010
0000
,
0001
0001
1000
1000
,
0001
0000
0001
1000
0000
0000
0100
0010
,
0100
0000
1000
0000
0010
0000
1000
0001
,
0000
1000
0100
1000
0010
1000
0001
0000
,
0010
0000
0010
0000
0100
1000
0000
1001
,
0000
0001
0100
0010
,
1000
0100
1000
0000
0001
1000
0001
0000
,
1000
0010
1000
0000
0001
0010
0001
0000
,
1000
0001
1000
0000
0001
0100
0001
0000
,
1000
0100
1000
0100
0000
0000
1000
0000
,
0001
0010
0001
0000
1000
0001
1000
0000
,
0001
0100
0001
0000
1000
0100
1000
0000
,
0002
0000
1003
0200
,
0000
0000
1300
0000
0001
1000
0001
0000
,
1001
0000
0000
1000
0100
0000
0020
0000
,
0000
0100
0000
0031
,
2000
0000
3010
0100
,
0001
0010
0000
0000
0001
0000
1000
0000
,
0002
0000
0013
0100
,
1000
1001
0001
1001
,
1000
0000
0000
0000
0010
0100
0000
0100
,
0001
0000
0000
0000
1000
0100
0000
0100
,
0010
0000
0001
1000
0001
0000
1000
0010
,
1000
0100
0010
0001
,
1000
0010
1000
0000
0001
0010
0001
1000
,
0000
0001
0100
0010
1000
0000
0100
0000
,
1000
0000
1000
0000
0001
1000
0000
1000
,
0010
0000
0010
0000
0100
0010
0000
0010
,
1000
0000
1000
0000
0001
1000
0000
1000
,
0100
0000
0100
0000
0010
0100
0000
0110
,
0000
0001
1000
0100
0000
1000
0001
0100
,
0000
0001
0010
0100
0000
1000
0010
0100
,
0000
0001
0010
0000
0001
1000
0001
0000
,
1000
0000
0100
0000
1000
0010
1000
0001
,
0000
0010
0100
0000
1000
0001
1000
0010
,
0000
0100
0001
0000
1000
0001
1000
0000
,
0001
0000
0001
0000
1000
0001
0000
1001
,
0000
0100
0010
1000
,
0001
0001
1000
1000
,
0001
0000
0001
1000
0000
0000
0100
0010
,
0100
0000
1000
0000
0010
0000
1000
0001
,
1000
0001
0000
0101
0000
0100
0010
0000
,
1000
1000
0001
0001
,
1000
0000
1000
0001
0000
0000
0100
0010
,
0100
0000
0001
0000
0010
0000
0001
1000
,
0000
0001
0100
0001
0010
0001
1000
0000
,
0001
0001
1000
1000
,
0001
0000
1000
0001
0000
0000
1000
0000
,
0010
1000
0010
0000
0100
0001
0100
0000
,
0001
0010
0001
1000
0000
0000
0001
0000
,
1000
1000
0001
0001
,
1000
0000
1000
0001
0000
0000
0100
0010
,
0100
0000
0001
0000
0010
0000
0100
1000
,
0000
1000
0010
0000
0100
0000
0001
0000
,
1000
0000
0100
0000
,
0010
0000
0001
0000
,
0100
0000
0010
0000
,
1000
0000
1000
0000
1000
0000
0001
0000
0001
0000
0001
0000
,
1000
0000
0100
0000
,
0010
0000
0001
0000
,
0100
0000
0010
0000
,
1000
0000
1000
0000
1000
0000
0001
0000
0100
0000
0001
0000
,
1000
0000
1000
0000
0001
1000
0000
1000
,
0000
0001
1000
0001
1000
0000
0001
2000
,
0000
0000
0000
0000
0000
0000
0000
3000
;

//---------------dance-single - ----------------
#NOTEDATA:;
#CHARTNAME:;
#STEPSTYPE:dance-single;
#DESCRIPTION:;
#CHARTSTYLE:;
#DIFFICULTY:Easy;
#METER:7;
#RADARVALUES:0.306771,0.389739,0.065073,0.046480,0.000000,231.000000,224.000000,7.000000,5.000000,0.000000,0.000000,0.000000,0.000000,0.000000,0.306771,0.389739,0.065073,0.046480,0.000000,231.000000,224.000000,7.000000,5.000000,0.000000,0.000000,0.000000,0.000000,0.000000;
#CREDIT:;
#NOTES:
0000
0000
0000
0000
,
1000
1000
0001
0001
,
1000
0000
0000
0001
0000
0000
1000
0000
,
0100
0000
1000
0000
,
0010
0000
0000
1000
0000
0000
0001
0000
,
1000
1000
0001
0001
,
1000
0000
0000
0001
0000
0000
1000
0000
,
0010
0000
0100
0000
,
0001
0000
1000
0010
,
1000
0000
1000
0000
0001
0000
0000
1001
,
0000
0001
0010
0100
,
1000
0010
0000
0100
,
0000
0010
0100
0010
,
1000
0100
0000
0010
,
0001
0000
0000
1000
0000
0001
1000
0000
,
0100
0010
0000
0100
,
0000
0010
0100
0010
,
0001
0000
1000
1100
,
0000
0000
0000
0000
0001
0100
0001
0000
,
1001
0000
1000
1020
,
0000
0000
0000
0130
,
0002
0000
1003
0000
,
0001
0100
0000
0000
0001
0000
0000
0000
,
2000
0000
3001
0000
,
1000
1010
0110
0101
,
0001
0010
0100
0010
,
0001
1000
0010
0100
,
0001
0000
1000
0001
1000
0000
0001
0010
,
0001
1000
0100
0010
,
0001
0000
0100
0000
0001
0000
0000
1000
,
0000
0100
1000
0001
,
1000
1000
0010
0010
,
0100
0100
0001
0001
,
0010
0010
0100
0100
,
1000
0000
1000
0000
0010
0000
0010
0100
,
0000
0001
1000
0001
0000
1000
0001
1000
,
0000
0001
1000
0001
0000
0000
0000
1000
,
0000
0100
0000
0010
0000
0001
0000
0100
,
0000
0010
0000
0000
0000
0000
0000
1000
,
0000
0010
0000
0100
0000
0001
0000
0020
,
0000
0000
0000
0031
0000
0000
0000
0000
,
1000
0000
1000
0000
0001
1000
0000
0001
,
0000
1000
0100
0010
,
0001
0001
1000
1000
,
0001
0000
0000
1000
0000
0000
0001
0000
,
0100
0000
0001
0000
,
0010
0000
0000
0001
0000
0000
1000
0000
,
0001
0001
1000
1000
,
0001
0000
0000
1000
0000
0000
0001
0000
,
0010
0000
0100
0000
,
1000
0000
0001
0010
,
0001
0001
1000
1000
,
0001
0000
0000
1000
0000
0000
0001
0000
,
1000
0100
0010
0001
,
0100
0010
1000
0001
,
1000
1000
0001
0001
,
1000
0000
0000
0001
0000
0000
1000
0000
,
0100
0000
0000
0000
1000
0000
0000
0001
,
0000
0100
0010
1000
,
0001
0000
0100
0000
,
0010
0000
1000
0000
,
0100
0000
0010
0000
,
0001
0001
1000
1000
,
0001
0000
0010
0000
,
0100
0000
1000
0000
,
0010
0000
0100
0000
,
0001
0001
1000
1000
,
0001
0000
0001
0000
1000
0001
0000
1000
,
0000
0001
1000
0000
0001
0000
1000
0002
,
0000
0000
0000
0000
0000
0000
0000
0003
;

//---------------dance-single - ----------------
#NOTEDATA:;
#CHARTNAME:;
#STEPSTYPE:dance-single;
#DESCRIPTION:;
#CHARTSTYLE:;
#DIFFICULTY:Beginner;
#METER:4;
#RADARVALUES:0.151394,0.192081,0.000000,0.000000,0.000000,114.000000,114.000000,0.000000,0.000000,0.000000,0.000000,0.000000,0.000000,0.000000,0.151394,0.192081,0.000000,0.000000,0.000000,114.000000,114.000000,0.000000,0.000000,0.000000,0.000000,0.000000,0.000000,0.000000;
#CREDIT:;
#NOTES:
0000
0000
0000
0000
,
1000
0000
1000
0000
,
0001
0000
0000
0000
,
0001
0000
0001
0000
,
1000
0000
0000
0000
,
0010
0000
0010
0000
,
0100
0000
0000
0000
,
0100
0000
0100
0000
,
0010
0000
0010
0000
,
1000
0000
0001
0000
,
0000
1000
0001
1000
,
0001
0000
0001
0000
,
1000
0000
1000
0000
,
0100
0000
0100
0000
,
0010
0000
0000
0010
,
0001
0000
0001
0000
,
1000
0000
1000
0000
,
0010
0000
0000
0010
,
0000
0000
0000
1000
,
0001
0000
0000
0001
,
0000
0000
0000
0000
,
1000
0000
1000
0000
,
0010
0000
0100
0000
,
0001
0000
0001
0000
,
0010
0000
0100
0000
,
1000
0000
1000
0000
,
0001
0000
0001
0000
,
0100
0000
0100
0000
,
0010
0000
0010
0000
,
1000
0000
1000
0000
,
0000
0001
0000
0001
,
1000
0000
0000
0000
,
0100
0000
0000
0000
,
0010
0000
0000
0000
,
0001
0000
0000
0000
0000
0000
0000
1000
,
0000
0000
0000
0001
0000
0000
0000
1000
,
0000
0000
0000
0001
0000
0000
0000
1000
,
0000
0001
0000
0001
,
0000
0100
0000
0100
,
0000
0010
0000
0010
,
0000
1000
0000
1000
,
0001
0000
1000
0000
,
0000
0001
0000
0001
,
1000
0000
1000
0000
,
0001
0000
0000
0000
,
0001
0000
0001
0000
,
1000
0000
0000
0000
,
0010
0000
0010
0000
,
0100
0000
0000
0000
,
0100
0000
0100
0000
,
0010
0000
0010
0000
,
1000
0000
1000
0000
,
0001
0000
0000
0000
,
0001
0000
0100
0000
,
0001
0000
0000
0000
,
1000
0000
1000
0000
,
0001
0000
0000
0000
,
0100
0000
0100
0000
,
0000
0010
0000
0000
,
1000
0000
0000
0000
,
0001
0000
0000
0000
,
1000
0000
0000
0000
,
0001
0000
0001
0000
,
0100
0000
0000
0000
,
0010
0000
0000
0000
,
0100
0000
0000
0000
,
0010
0000
0010
0000
,
1000
0000
0000
0000
0000
0000
0000
0001
,
0000
0000
0000
0000
0000
0000
0000
1000
;
