#VERSION:0.83;
#TITLE:Yog-Sothoth;
#SUBTITLE:;
#ARTIST:nato;
#TITLETRANSLIT:;
#SUBTITLETRANSLIT:;
#ARTISTTRANSLIT:;
#GENRE:ARTCORE;
#ORIGIN:;
#CREDIT:;
#BANNER:Yog-Sothoth.png;
#BACKGROUND:Yog-Sothoth-bg.png;
#PREVIEWVID:;
#JACKET:Yog-Sothoth-jacket.png;
#CDIMAGE:;
#DISCIMAGE:;
#LYRICSPATH:;
#CDTITLE:cdtitle.png;
#MUSIC:Yog-Sothoth.ogg;
#OFFSET:-0.100000;
#SAMPLESTART:46.900002;
#SAMPLELENGTH:9.860000;
#SELECTABLE:YES;
#BPMS:0.000=100.000,
42.000=200.000,
178.000=100.000,
194.000=200.000;
#STOPS:;
#DELAYS:;
#WARPS:;
#TIMESIGNATURES:0.000=4=4;
#TICKCOUNTS:0.000=4;
#COMBOS:0.000=1;
#SPEEDS:0.000=1.000=0.000=0;
#SCROLLS:0.000=1.000;
#FAKES:;
#LABELS:0.000=Song Start;
#BGCHANGES:;
#KEYSOUNDS:;
#ATTACKS:
;

//---------------dance-single - ----------------
#NOTEDATA:;
#CHARTNAME:;
#STEPSTYPE:dance-single;
#DESCRIPTION:;
#CHARTSTYLE:;
#DIFFICULTY:Challenge;
#METER:17;
#RADARVALUES:0.890457,1.101529,0.247349,0.107185,0.857477,756.000000,726.000000,30.000000,13.000000,0.000000,0.000000,0.000000,0.000000,0.000000,0.890457,1.101529,0.247349,0.107185,0.857477,756.000000,726.000000,30.000000,13.000000,0.000000,0.000000,0.000000,0.000000,0.000000;
#CREDIT:;
#NOTES:
0000
0000
0000
0000
,
0000
0000
0000
0000
0000
0000
0000
0000
0001
0000
0000
0000
1000
0000
0001
0100
,
0010
0000
0100
0000
0110
0000
0000
0000
1000
0000
0000
0000
0001
0000
1000
0100
,
0010
0000
0100
0000
0110
0000
0010
0000
0010
0000
0000
0000
0001
0000
1000
0010
,
0100
0000
0001
0000
0101
0000
0000
0000
0010
0000
0000
0000
1000
0000
0001
0010
,
0100
0000
0000
0000
0010
0001
0000
0001
1000
0000
0000
0000
0100
0000
1000
0001
,
0010
0000
0100
0000
0110
0000
0000
0000
0001
0000
0000
0000
0100
0000
0001
1000
,
0010
0000
0100
0000
0110
0000
0010
0000
0010
0000
0000
0000
0100
0000
0010
1000
,
0001
0000
1000
0000
1001
0000
0000
0000
0010
0000
0000
0000
0100
0000
0010
0001
,
1000
0000
0001
0000
1000
0001
0010
0100
2002
0000
0000
0000
0000
0000
3003
0000
,
0000
0000
0000
0000
1000
0100
0010
0100
,
1000
0001
0010
0000
0001
0100
0010
0100
,
0001
1000
0010
0000
1000
0001
0100
0001
,
0010
0100
1000
0000
0001
1000
0100
1000
,
0010
0100
0001
0000
1000
0100
0010
1000
,
0010
0001
0100
0000
0001
0100
0010
0001
,
0010
1000
0100
0000
1000
0001
0010
1000
,
0010
0001
0100
0000
0001
1000
0010
0001
,
0010
1000
0100
0000
0010
0001
0100
1000
,
0100
0001
1000
0000
0010
1000
0200
0300
,
0010
0001
0010
0000
0100
0000
0000
0000
1000
0000
0100
0000
0001
0000
1000
0000
,
0010
0001
0100
0000
0001
0100
1000
0001
,
0010
1000
0100
0000
0010
0001
0010
1000
,
0010
0100
1000
0000
0010
1000
0010
0001
,
0010
0100
0001
0000
1000
0100
1000
0010
,
0100
1000
0100
0000
0001
0100
0001
0010
,
0100
0001
0100
0000
0010
0001
0100
1000
,
0100
0010
1000
0000
0001
1000
0002
0003
,
0100
0010
0100
0000
0110
0000
0000
0000
1000
0000
0100
1000
0100
0000
1000
0001
,
1000
0000
0001
0100
0001
0000
0010
0100
0010
0000
0100
0000
1000
0000
0000
0000
,
0001
0010
0001
0010
0100
1000
0100
1000
0001
0000
0100
0010
0100
0000
0010
1000
,
0010
0000
1000
0100
1000
0000
0001
0010
0001
0000
1000
0000
0010
0000
0000
0000
,
1000
0010
1000
0010
0100
0001
0100
0001
0010
0000
0001
0100
0001
0000
1000
0100
,
1000
0000
0010
0100
0010
0000
0100
0010
0100
0000
0010
0000
1000
0000
0000
0000
,
0010
1000
0010
1000
0100
0010
0100
0010
0001
0000
0001
0000
1000
0000
1000
0000
,
0001
0010
0001
1000
0010
1000
0001
0100
0001
1000
0100
1000
,
0010
0000
0000
0110
0000
0000
0110
0000
0100
0000
0001
0100
0001
0000
1000
0100
,
1000
0000
0010
0100
0010
0000
1000
0010
1000
0000
0001
0000
0100
0000
0000
0000
,
0001
0100
0001
0100
0010
1000
0010
1000
0100
0000
0010
0001
0010
0000
0001
0100
,
0001
0000
1000
0010
1000
0000
0001
0010
0001
0000
1000
0000
0100
0000
0000
0000
,
1000
0100
1000
0100
0010
0001
0010
0001
0100
0000
0010
1000
0010
0000
1000
0100
,
1000
0000
0001
0100
0001
0000
0010
0001
0010
0000
0001
0000
1000
0000
0000
0000
,
0010
1000
0010
1000
0100
0010
0100
0010
0001
0000
0001
0000
0100
0000
0100
0000
,
0010
1000
0010
1000
0100
1000
0001
0100
0001
0100
0010
0100
,
0001
0000
0000
1001
0000
0000
1001
0000
2000
0000
0010
0000
0000
0000
3100
0000
,
0002
0010
0000
0103
0020
1000
0000
0031
,
0200
0001
0000
1300
0020
1000
0000
0130
,
2000
0001
0000
3100
0011
1100
1010
0101
,
1000
0000
1000
0000
0100
0010
0100
0000
0010
0000
0001
0000
0101
0000
0000
0000
1000
0000
0000
0000
0000
0000
0000
0000
1010
0000
0000
0000
0000
0000
0000
0000
,
1001
0000
0000
0000
0000
0000
1000
0000
0010
0000
0100
0000
0001
0000
0000
0010
0000
0000
0100
0000
0000
0010
0000
0000
,
0001
0010
1000
0010
0001
0000
1001
0000
,
0010
0000
1000
0000
0010
0000
1000
0000
0100
0000
1000
0000
0001
0000
0000
0100
0000
0000
0010
0000
0000
1000
0000
0000
,
0100
0001
0100
1000
0100
0000
1010
0000
,
0101
0000
0000
0100
0000
0000
0010
0000
1000
0000
0100
0000
0010
0000
0000
0100
0000
0000
1000
0000
0000
0001
0000
0000
,
1000
0010
0100
0001
0100
0010
1000
0000
1001
0000
1001
0000
,
0001
0000
0010
0000
0100
0000
1000
0000
0100
0000
0010
0000
0001
0000
0000
0100
0000
0000
0010
0000
0000
1000
0000
0000
,
0001
0010
0001
0000
1001
0000
0000
0000
0220
0000
0000
0000
0000
0000
0000
0000
,
0000
0330
0000
0000
,
0000
0000
0000
0000
1000
0100
0010
0001
,
1000
0000
0001
0000
0100
0000
0000
0000
0001
0010
0001
0010
0001
0010
0100
1000
,
0001
0100
0001
0100
0001
0100
0010
1000
0100
0000
1000
0100
0000
1000
0010
0000
,
0100
0000
0001
0100
0000
0010
0100
0000
0001
0000
1000
0010
0000
1000
0100
0000
,
1000
0000
0010
0100
0000
0001
0100
0000
0010
0000
1000
0100
0000
1000
0001
0000
,
0100
0000
0001
0010
0000
0001
1000
0000
0100
0000
0000
0000
0010
0001
0010
0001
,
0010
0100
0010
0100
1000
0010
1000
0010
0100
0000
0001
0100
0000
0010
1000
0000
,
0100
0000
0010
0000
0001
0000
0100
0010
0100
0010
1000
0100
1000
0100
0010
0001
,
0010
0001
1000
0010
0000
1000
0010
1000
0001
0100
0001
0100
0010
1000
0010
1000
,
0001
0010
0001
0010
0100
1000
0100
1000
0001
1000
0001
1000
0100
0010
0100
0010
,
0001
0000
0000
1001
0000
0000
1001
0000
1000
0000
0001
0100
0000
0010
0100
0000
,
0001
1000
0100
1000
0100
0010
0001
0100
0010
0000
1000
0100
0000
1000
0001
0000
,
1000
0010
1000
0010
0100
0001
0100
0001
0010
0000
0001
0010
0000
0100
1000
0000
,
0010
0100
0010
1000
0100
1000
0100
0010
0001
0000
1000
0100
1000
0100
1000
0010
,
1000
0010
0100
0001
0100
0001
0010
0001
0010
0000
0000
0000
0000
0000
0000
0000
,
0001
0100
0001
0100
0010
0100
0010
0100
0010
1000
0010
1000
0001
1000
0001
1000
,
0100
0010
0100
0010
0001
1000
0001
1000
0100
0000
0000
0000
1000
0000
1010
0000
,
0000
0001
0010
0100
1000
0010
0100
0001
,
1000
0100
0010
0001
0100
0000
0010
0110
,
0000
0000
0001
0000
1000
0000
0001
0000
0100
0010
0100
0000
0001
0000
0010
0000
,
0100
0000
1000
0100
1000
0001
1000
0010
1000
0000
0000
0000
0100
0000
1000
0100
,
0001
0100
1000
0000
0010
0000
1000
0000
0001
0100
0001
0100
0010
1000
0010
1000
,
0001
0010
0001
0010
0100
1000
0100
1000
0010
0000
1000
0000
0001
0000
1000
0100
,
0010
0000
0000
0100
0000
0000
0010
0000
0000
0000
0000
0000
0001
0000
0000
0000
0100
0000
0000
0000
0010
0000
0000
0000
2000
0000
0000
0000
0000
0000
0000
0000
0000
0000
0000
0000
0000
0000
0000
0000
0000
0000
0000
0000
0000
0000
0000
0000
,
0000
0000
0000
0000
,
0000
0000
3000
0000
;

//---------------dance-single - ----------------
#NOTEDATA:;
#CHARTNAME:;
#STEPSTYPE:dance-single;
#DESCRIPTION:;
#CHARTSTYLE:;
#DIFFICULTY:Hard;
#METER:15;
#RADARVALUES:0.720846,0.791724,0.156655,0.074205,0.531801,612.000000,593.000000,19.000000,9.000000,0.000000,0.000000,0.000000,0.000000,0.000000,0.720846,0.791724,0.156655,0.074205,0.531801,612.000000,593.000000,19.000000,9.000000,0.000000,0.000000,0.000000,0.000000,0.000000;
#CREDIT:;
#NOTES:
0000
0000
0000
0000
,
0000
0000
0000
0000
0000
0000
0000
0000
1000
0000
0000
0000
0001
0000
0000
1000
,
0010
0000
0100
0000
0010
0000
0000
0000
0100
0000
0000
0000
0001
0000
0000
0010
,
0100
0000
1000
0000
0010
0000
0100
0000
0010
0000
0000
0000
1000
0000
0000
0001
,
0100
0000
0010
0000
0100
0000
0000
0000
0001
0000
0000
0000
1000
0000
0000
0100
,
0010
0000
0000
0000
0001
1000
0000
1000
0010
0000
0000
0000
1000
0000
0000
1000
,
0001
0000
0100
0000
0010
0000
0000
0000
0100
0000
0000
0000
0001
0000
0000
0001
,
0010
0000
0100
0000
1000
0000
0010
0000
0100
0000
0000
0000
0010
0000
0000
0010
,
1000
0000
0100
0000
0010
0000
0000
0000
0100
0000
0000
0000
1000
0000
0000
1000
,
0001
0000
0100
0000
0000
0001
0010
0001
2000
0000
0000
0000
0000
0000
3000
0000
,
0000
0000
0000
0000
1000
0010
1000
0100
,
0000
0100
0010
0000
0001
0010
0001
0100
,
0000
0100
0010
0000
1000
0100
0010
0001
,
0000
0001
0100
0000
0001
0100
0010
1000
,
0000
1000
0100
0100
0010
0001
1000
0010
,
0000
0010
0100
0000
0010
1000
0001
0010
,
0000
0010
0100
0100
1000
0010
0001
0010
,
0000
0010
1000
0000
0001
0010
1000
0010
,
0000
0010
0001
0001
1000
0100
0001
1000
,
0000
1000
0010
0000
0001
1000
0200
0300
,
0010
0001
0010
0000
0001
0000
1000
0000
0001
0000
0100
0000
0010
0000
0001
0000
,
0000
0001
0010
0000
1000
0100
0010
1000
,
0000
1000
0010
0010
0001
0100
0010
1000
,
0000
1000
0100
0000
1000
0100
0010
0001
,
0000
0001
0100
0100
0010
1000
0100
0010
,
0000
0010
0001
0000
0010
0001
0100
0010
,
0000
0010
1000
1000
0001
0010
0100
1000
,
0000
1000
0010
0000
1000
0001
0200
0300
,
0010
0100
0010
0000
0110
0000
0000
0000
1000
0000
0001
0010
0000
0000
0010
0100
,
0000
0000
0100
1000
0000
0000
1000
0001
0000
0000
1000
0000
0100
0000
0000
0000
,
0010
0001
0010
0000
0001
1000
0001
0000
1000
0000
0010
0100
0000
0000
0100
0001
,
0000
0000
0001
0010
0000
0000
0010
0100
0000
0000
1000
0000
0010
0000
0000
0000
,
1000
0100
1000
0100
0010
0001
0010
0000
0001
0000
0100
0010
0000
0000
0010
1000
,
0000
0000
1000
0100
0000
0000
0100
0010
0000
0000
0001
0000
1000
0000
0000
0000
,
0001
0010
0001
0000
1000
0010
1000
0000
0001
0000
1000
0000
0001
0000
1000
0000
,
0001
0010
0100
1000
0100
0010
0001
0100
0010
1000
0010
0100
,
0001
0000
0000
0001
0000
0000
0001
0000
1000
0000
0100
0010
0000
0000
0010
0001
,
0000
0000
0001
0100
0000
0000
0100
0010
0000
0000
1000
0000
0100
0000
0000
0000
,
1000
0100
1000
0000
0001
0100
0001
0000
0010
0000
0100
1000
0000
0000
1000
0010
,
0000
0000
0010
0100
0000
0000
0100
1000
0000
0000
0100
0000
0001
0000
0000
0000
,
0010
0001
0010
0001
1000
0100
1000
0000
0010
0000
0100
0001
0000
0000
0001
1000
,
0000
0000
1000
0010
0000
0000
0010
0100
0000
0000
0001
0000
0010
0000
0000
0000
,
0001
0100
0001
0000
1000
0100
1000
0000
0001
0000
1000
0000
0001
0000
1000
0000
,
0001
0100
0010
1000
0010
0100
0001
0010
0100
1000
0100
0010
,
0001
0000
0000
0100
0000
0000
0010
0000
2000
0000
0100
0000
0000
0000
0010
0000
,
0000
0001
0000
3100
0020
1000
0000
0100
,
0000
0001
0000
1030
0200
0001
0000
1000
,
0000
0010
0000
0301
0010
0011
1001
1100
,
1000
0100
1000
0100
0010
0001
0100
0000
0001
0000
0000
0000
0101
0000
0000
0000
,
0110
0000
0000
0000
0000
0000
1000
0000
0001
0000
1000
0000
0001
0000
0000
0000
0000
0000
1000
0000
0000
0100
0000
0000
,
0001
0100
1000
0000
1010
0000
0101
0000
,
0001
0000
0010
0000
0100
0000
1000
0000
0100
0000
0010
0000
0001
0000
0000
0000
0000
0000
1000
0000
0000
0010
0000
0000
,
0001
0010
1000
0000
0101
0000
0011
0000
,
1001
0000
0000
0000
0000
0000
0001
0000
1000
0000
0001
0000
1000
0000
0000
0000
0000
0000
1000
0000
0000
0100
0000
0000
,
0010
0001
0010
0100
0010
0001
1000
0000
1001
0000
1001
0000
,
0001
0000
0100
0000
0010
0000
1000
0000
0010
0000
0100
0000
0001
0000
0000
0000
0000
0000
1000
0000
0000
0010
0000
0000
,
1000
0001
1000
0000
1001
0000
0000
0000
0220
0000
0000
0000
0000
0000
0000
0000
,
0000
0330
0000
0000
,
0000
0000
0000
0000
1000
0001
1000
0010
,
0000
0010
0100
0000
0001
0010
0100
1000
,
0001
0000
0100
0000
0010
0000
1000
0000
0100
0000
0010
0001
0000
1000
0001
0000
,
0100
0000
0010
1000
0000
0100
1000
0000
0001
0000
0010
0001
0000
1000
0001
0000
,
0100
0000
0010
1000
0000
0100
1000
0000
0001
0000
1000
0100
0000
1000
0010
0000
,
1000
0000
0100
1000
0000
0001
0100
0000
0010
0000
0000
0000
1000
0000
0100
0000
,
0010
0000
0001
0000
1000
0010
1000
0010
0100
0000
0001
0010
0000
0001
1000
0000
,
0100
0000
0010
0001
0000
1000
0001
0000
1000
0000
0100
0000
0001
0000
0100
0000
,
1000
0001
0010
0100
0001
0100
1000
0010
,
0100
1000
0100
0001
0010
1000
0010
0001
,
1000
0000
0000
1100
0000
0000
0011
0000
1000
0000
0001
0100
0000
0001
0010
0000
,
0001
0000
0100
0000
1000
0000
0100
0000
0010
0000
1000
0010
0000
1000
0100
0000
,
1000
0000
0010
0000
0001
0000
0010
0000
0100
0000
0010
1000
0000
0100
1000
0000
,
0001
0010
0100
0001
0100
1000
0010
0100
,
1000
0100
0001
0010
0001
0000
0000
0000
,
1000
0100
0010
0001
1000
0010
0100
0001
,
0010
0100
0010
0001
1000
0000
0010
0110
,
0000
0100
0001
0010
0001
0100
1000
0100
,
0001
1000
0100
0010
0001
0000
1000
1010
,
0000
0000
1000
0000
0001
0000
0010
0000
0100
0010
0100
0000
0010
0000
0001
0000
,
1000
0000
0100
1000
0100
0010
0100
0010
0001
0000
0000
0000
1000
0000
0010
0100
,
0010
0100
0010
0000
1000
0000
0001
0000
0100
0000
0000
0000
0001
0000
0100
0010
,
0100
0010
0100
0000
0010
0000
1000
0000
0100
0000
0010
0000
0001
0000
1000
0010
,
1000
0000
0000
0001
0000
0000
0100
0000
0000
0000
0000
0000
0001
0000
0000
0000
0010
0000
0000
0000
0100
0000
0000
0000
2000
0000
0000
0000
0000
0000
0000
0000
0000
0000
0000
0000
0000
0000
0000
0000
0000
0000
0000
0000
0000
0000
0000
0000
,
0000
0000
0000
0000
,
0000
0000
3000
0000
;

//---------------dance-single - ----------------
#NOTEDATA:;
#CHARTNAME:;
#STEPSTYPE:dance-single;
#DESCRIPTION:;
#CHARTSTYLE:;
#DIFFICULTY:Medium;
#METER:12;
#RADARVALUES:0.563014,0.585187,0.082450,0.090695,0.169022,478.000000,468.000000,10.000000,11.000000,0.000000,0.000000,0.000000,0.000000,0.000000,0.563014,0.585187,0.082450,0.090695,0.169022,478.000000,468.000000,10.000000,11.000000,0.000000,0.000000,0.000000,0.000000,0.000000;
#CREDIT:;
#NOTES:
0000
0000
0000
0000
,
0000
0000
0000
0000
0000
0000
0000
0000
1000
0000
0000
0000
0001
0000
0000
1000
,
0010
0000
0100
0000
0010
0000
0000
0000
1000
0000
0000
0000
0010
0000
0000
0100
,
0001
0000
0010
0000
0100
0000
1000
0000
0100
0000
0000
0000
1000
0000
0000
0001
,
0100
0000
0010
0000
0100
0000
0000
0000
0001
0000
0000
0000
1000
0000
0000
0100
,
0010
0000
0000
0000
0001
0100
0000
0100
0010
0000
0000
0000
1000
0000
0000
0100
,
1000
0000
0001
0000
0100
0000
0000
0000
0010
0000
0000
0000
1000
0000
0000
0100
,
0010
0000
0001
0000
0100
0000
0010
0000
0100
0000
0000
0000
0001
0000
0000
1000
,
0010
0000
0100
0000
0010
0000
0000
0000
1000
0000
0000
0000
0100
0000
0000
0010
,
0001
0000
1000
0000
0000
0001
0010
0100
2000
0000
0000
0000
0000
0000
3000
0000
,
0000
0000
0000
0000
1000
1000
0001
0100
,
0000
0100
0010
0000
1000
1000
0100
0010
,
0000
0010
0001
0000
0100
0000
0010
0100
,
0000
0100
0001
0000
1000
0000
0001
0100
,
0000
0100
0010
0000
1000
0000
0100
0010
,
0000
0010
0001
0000
1000
0000
0001
0010
,
0000
0010
0100
1000
0001
0000
0100
0010
,
0000
0010
1000
0000
0100
0000
1000
0001
,
0000
0001
0010
0000
0001
0000
1000
0100
,
0000
0100
0010
0000
0001
0000
2002
3003
,
0000
1000
0010
1000
0100
0000
0010
0001
,
0000
0001
0100
0000
0010
0000
1000
0100
,
0000
0100
0010
0000
0001
0000
1000
0010
,
0000
0010
0100
0000
0010
0000
1000
0100
,
0000
0100
0010
0001
0100
0000
0010
1000
,
0000
1000
0001
0000
0100
0000
0010
0100
,
0000
0100
0001
0000
1000
0000
0100
0010
,
0000
0010
0001
0000
0100
0000
2002
3003
,
0000
1000
0001
0000
1000
0100
0010
0100
,
1000
0100
0010
0100
1000
0000
0001
0000
,
0100
0001
0100
0000
0001
0100
0010
0100
,
0001
0100
0010
0100
0001
0000
1000
0000
,
0010
0100
0010
1000
1000
0010
0100
0010
,
1000
0010
0100
0010
1000
0000
0001
0000
,
0100
0010
0100
0000
0001
1000
0001
1000
,
0001
0000
0001
0100
0000
0100
0010
0000
0010
1000
0000
1000
,
0100
0000
0000
0010
0000
0000
0001
0000
1000
0000
0001
0000
0010
0000
0001
0000
,
1000
0001
0010
0001
1000
0000
0010
0000
,
0100
0001
0100
0000
0001
1000
0010
1000
,
0001
1000
0010
1000
0001
0000
0100
0000
,
0010
1000
0010
0000
1000
0001
0100
0001
,
1000
0001
0100
0001
1000
0000
0010
0000
,
0100
0010
0100
0000
0001
1000
0001
1000
,
0001
0000
0001
0010
0000
0010
0100
0000
0100
1000
0000
1000
,
0010
0000
0000
0100
0000
0000
0010
0000
2000
0000
0000
0000
0000
0000
0000
0000
,
0000
0000
3020
0000
,
0000
0000
0230
0000
,
0000
0000
0000
0000
0301
0001
1000
1000
,
0001
0000
0100
0000
0010
1000
0010
0000
1000
0000
0000
0000
1100
0000
0000
0000
,
1001
0000
0001
0100
0001
0000
1000
0010
,
1000
0010
0100
0000
0001
0000
0011
0000
,
1001
0000
0010
0100
0010
0000
1000
0010
,
0100
0010
0100
0000
0010
0000
1010
0000
,
1100
0000
1000
0100
0010
0000
0001
0100
,
0010
0000
0000
1000
0000
0000
0010
0000
0000
1000
0000
0000
0100
0000
0000
0000
0010
0000
0000
0000
0001
0000
0000
0000
,
0010
0000
0000
0000
0100
0000
0000
0000
1000
0000
0000
0000
0010
0000
0000
0100
0000
0000
0010
0000
0000
0100
0000
0000
,
0001
0010
0100
0000
2002
0000
0000
0000
,
0000
3003
0000
0000
,
0000
0000
0000
0000
1000
1000
0001
0100
,
0000
0100
0010
0000
1000
0100
1000
0100
,
0010
0000
0001
0000
0010
0000
0001
0000
1000
0000
0000
0001
0000
0000
0010
0000
,
0100
0000
0000
1000
0000
0000
0010
0000
0100
0000
0000
0001
0000
0000
1000
0000
,
0010
0000
0000
0100
0000
0000
0010
0000
1000
0000
0000
0100
0000
0000
0010
0000
,
0001
0000
0000
0010
0000
0000
0100
0000
0010
0000
0000
0000
0001
0000
0010
0000
,
0001
0000
0010
0000
0100
0000
1000
0000
0100
0000
0000
1000
0000
0000
0100
0000
,
0010
0000
0000
0001
0000
0000
1000
0000
0010
0000
1000
0000
0010
0000
1000
0000
,
0010
0100
0000
0001
0100
0010
0100
0010
,
1000
0100
1000
0100
0010
0001
0100
0010
,
0100
0000
0000
0110
0000
0000
0010
0000
1000
0000
0000
0001
0000
0000
1000
0000
,
0010
0000
0100
0000
0010
0000
0100
0000
0001
0000
0000
1000
0000
0000
0010
0000
,
0100
0000
0010
0000
0100
0000
0001
0000
1000
0000
0000
0010
0000
0000
1000
0000
,
0000
0001
0100
0000
0001
0100
0001
0100
,
0010
1000
0010
1000
0100
0000
0000
0000
,
1000
0000
0001
0000
1000
0000
0010
0100
,
0000
0100
0001
0000
1000
0000
0001
0010
,
0000
0010
0100
1000
0001
0100
0001
0100
,
0010
1000
0010
1000
0100
0000
0010
0001
,
0000
1000
0000
0001
0100
0001
1000
0100
,
0010
0001
0010
0100
1000
0000
0001
1000
,
0001
1000
0100
0010
0001
0000
1000
0001
,
1000
0001
0100
0010
1000
0000
0001
1000
,
0001
0000
0000
1000
0000
0000
0001
0000
1000
0000
0001
0000
2000
0000
0000
0000
0000
0000
0000
0000
0000
0000
0000
0000
,
0000
0000
0000
0000
,
0000
0000
3000
0000
;

//---------------dance-single - ----------------
#NOTEDATA:;
#CHARTNAME:;
#STEPSTYPE:dance-single;
#DESCRIPTION:;
#CHARTSTYLE:;
#DIFFICULTY:Easy;
#METER:8;
#RADARVALUES:0.383980,0.550764,0.065960,0.074205,0.028857,326.000000,318.000000,8.000000,9.000000,0.000000,0.000000,0.000000,0.000000,0.000000,0.383980,0.550764,0.065960,0.074205,0.028857,326.000000,318.000000,8.000000,9.000000,0.000000,0.000000,0.000000,0.000000,0.000000;
#CREDIT:;
#NOTES:
0000
0000
0000
0000
,
0000
0000
1000
1000
,
0001
0001
0100
0100
,
0010
0010
1000
1000
,
0100
0100
0010
0010
,
0001
0001
1000
0100
,
0010
0001
1000
0010
,
0100
0001
0010
0100
,
1000
0001
0100
0010
,
2000
0000
3000
0000
0220
0000
0000
0330
,
0000
0000
1000
0001
,
0000
0100
0010
1000
,
0000
0001
1000
0100
,
0000
1000
0001
0100
,
0000
0010
1000
0001
,
0000
0000
0100
0000
0010
0000
0010
1000
,
0000
1000
0000
0000
0001
0000
0100
0000
,
0000
0010
1000
0100
,
0000
1000
0001
0010
,
0000
0001
1000
1001
,
1000
0010
1000
0100
,
0000
0010
0001
0100
,
0000
0010
1000
0010
,
0000
0000
0100
0000
0001
0000
0001
1000
,
0000
1000
0000
0000
0010
0000
1000
0000
,
0000
0100
1000
0010
,
0000
0100
0001
0100
,
0000
0010
0100
0110
,
0010
1000
0001
0100
,
0010
1000
0100
0010
,
0001
1000
0001
0000
1000
0000
0100
0000
,
0010
0001
0100
0010
,
1000
0001
1000
0000
0001
0000
0100
0000
,
0001
0100
0010
1000
,
0100
0010
0100
0000
0010
0000
0001
0000
,
1000
1000
0010
0010
,
1000
0000
0000
0001
0000
0000
1000
0000
0001
0000
0000
0000
0010
0000
0000
0000
,
0100
0010
0001
0010
,
0100
1000
0010
0000
1000
0000
0100
0000
,
0010
0100
1000
0100
,
0010
0001
0100
0000
0001
0000
0100
0000
,
0010
0100
0001
0100
,
0010
1000
0010
0000
1000
0000
0001
0000
,
0100
0100
0010
0010
,
1000
0000
0000
0001
0000
0000
1000
0000
0002
0000
0000
0000
0000
0000
0000
0000
,
0000
0000
2003
0000
,
0000
0000
3020
0000
,
0000
0000
0000
0000
1030
1000
0001
0001
,
1000
0100
0010
0001
1000
0000
1000
0000
,
1000
0001
0101
0100
,
0010
1000
0001
0001
,
0001
1000
1010
0010
,
1000
0001
0010
0010
,
0010
0100
1100
1000
,
0001
0000
0000
1000
0000
0000
0001
0000
1000
0000
0001
0000
,
1000
0000
0001
0000
1000
0000
0001
0000
0000
1000
0000
0000
,
0110
0010
2002
0000
,
0000
3003
0000
0000
,
0000
0000
1000
0001
,
0000
0100
0001
0010
,
0100
1000
0001
0001
,
0100
0100
0010
0010
,
1000
1000
0100
0010
,
0001
1000
0010
1000
,
0100
1000
0001
0001
,
0010
0010
0100
1000
,
0010
0100
0001
1000
,
0100
0010
0001
0100
,
0001
0000
0000
1000
0000
0000
0001
0000
1000
0000
0000
0000
0010
0000
0000
0000
,
0100
0010
0100
0000
0001
0000
1000
0000
,
0010
1000
0010
0000
1000
0000
0100
0000
,
0010
0001
0010
0000
0001
0000
0100
0000
,
0010
1000
0100
0000
,
1000
0100
0010
0001
,
0010
0000
0100
0000
1000
0000
0001
1000
,
0000
0001
1000
0000
0001
0000
0100
0000
,
0010
0000
1000
0000
0100
0000
0010
0001
,
0000
0010
0000
0001
1000
0010
1000
0000
,
0001
0100
0001
0100
0010
0000
1000
0100
,
1000
0100
1000
0001
1000
0000
0010
0100
,
0010
0100
0010
1000
0010
1000
0001
1000
,
0001
0001
1000
1000
0020
0000
0000
0000
,
0000
0000
0000
0000
,
0000
0000
0030
0000
;

//---------------dance-single - ----------------
#NOTEDATA:;
#CHARTNAME:;
#STEPSTYPE:dance-single;
#DESCRIPTION:;
#CHARTSTYLE:;
#DIFFICULTY:Beginner;
#METER:6;
#RADARVALUES:0.262661,0.447496,0.016490,0.032980,0.000000,223.000000,221.000000,2.000000,4.000000,0.000000,0.000000,0.000000,0.000000,0.000000,0.262661,0.447496,0.016490,0.032980,0.000000,223.000000,221.000000,2.000000,4.000000,0.000000,0.000000,0.000000,0.000000,0.000000;
#CREDIT:;
#NOTES:
// measure 0
0000
0000
0000
0000
,  // measure 1
0000
0000
0001
0001
,  // measure 2
1000
1000
0100
0100
,  // measure 3
0010
0001
0010
0010
,  // measure 4
0001
0001
1000
1000
,  // measure 5
0010
0100
0010
0010
,  // measure 6
1000
1000
0001
0001
,  // measure 7
1000
0100
1000
1000
,  // measure 8
0010
0010
0100
0100
,  // measure 9
0001
0000
0000
0000
2002
0000
0000
3003
,  // measure 10
0000
0000
1000
0000
,  // measure 11
0000
0000
0010
0000
,  // measure 12
0000
0000
1000
0001
,  // measure 13
0000
0100
0000
0010
,  // measure 14
0000
1000
0000
0100
,  // measure 15
0000
0010
0000
0001
,  // measure 16
0000
1000
0010
1000
,  // measure 17
0000
0001
0000
0100
,  // measure 18
0000
0010
0000
1000
,  // measure 19
0000
0100
0000
0010
,  // measure 20
0000
0001
1000
0001
,  // measure 21
0000
0100
0000
0010
,  // measure 22
0000
1000
0000
0100
,  // measure 23
0000
0010
0000
0001
,  // measure 24
0000
0100
0010
1000
,  // measure 25
0000
0100
0000
1000
,  // measure 26
0000
0010
0000
0100
,  // measure 27
0000
0001
0000
0010
,  // measure 28
0000
0001
1000
1000
,  // measure 29
0001
0001
1000
0000
,  // measure 30
0010
0000
1000
1000
,  // measure 31
0001
0001
1000
0000
,  // measure 32
0100
0000
1000
1000
,  // measure 33
0001
0001
1000
0000
,  // measure 34
0010
0000
0100
0000
,  // measure 35
0010
0000
1000
0100
,  // measure 36
0010
0000
0001
0001
,  // measure 37
1000
1000
0001
0000
,  // measure 38
0100
0000
0001
0001
,  // measure 39
1000
1000
0001
0000
,  // measure 40
0010
0000
0001
0001
,  // measure 41
1000
1000
0001
0000
,  // measure 42
0100
0000
0001
0000
,  // measure 43
0010
0000
0100
1000
,  // measure 44
0010
0000
0000
0000
1000
0100
0000
0100
,  // measure 45
0000
0100
0000
0100
0010
0001
0000
0001
,  // measure 46
0000
0001
0000
0001
0100
0010
0000
0010
,  // measure 47
0000
0010
0000
0010
1000
0001
0000
0001
,  // measure 48
1000
1000
0010
0100
0001
0000
0000
0000
,  // measure 49
1000
0000
0001
0000
,  // measure 50
0100
0000
0010
0000
,  // measure 51
1000
0000
0100
0000
,  // measure 52
0010
0000
0001
0000
,  // measure 53
1000
0000
0010
0000
,  // measure 54
0100
0000
0001
0000
,  // measure 55
0001
0000
1001
0000
,  // measure 56
0100
0010
2000
0000
,  // measure 57
0000
3000
0000
0000
,  // measure 58
0000
0000
0001
0000
,  // measure 59
0000
0000
1000
0000
,  // measure 60
0000
0000
0001
1000
,  // measure 61
0000
0001
1000
0010
,  // measure 62
0000
0100
0001
0010
,  // measure 63
0000
0001
1000
0000
,  // measure 64
0001
0000
1000
0100
,  // measure 65
0000
1000
0010
1000
,  // measure 66
0000
0100
1000
0001
,  // measure 67
0000
1000
0001
0010
,  // measure 68
0001
0000
1000
0010
,  // measure 69
0000
1000
0001
1000
,  // measure 70
0000
0001
0100
0001
,  // measure 71
0000
0010
0001
0000
,  // measure 72
1000
0000
0010
0100
,  // measure 73
0000
0010
1000
0010
,  // measure 74
0000
1000
0100
1000
,  // measure 75
0000
0001
1000
0001
,  // measure 76
0100
0001
0010
0000
,  // measure 77
0000
0001
1000
0100
,  // measure 78
0010
0100
1000
0000
,  // measure 79
0010
0000
0100
0000
,  // measure 80
0001
1000
0001
1000
,  // measure 81
0100
0010
0002
0000
,  // measure 82
0000
0000
0000
0000
,  // measure 83
0000
0000
0003
0000
;
