#TITLE:YELLOW SPLASH!!;
#SUBTITLE:;
#ARTIST:P*Light;
#TITLETRANSLIT:;
#SUBTITLETRANSLIT:;
#ARTISTTRANSLIT:;
#GENRE:HAPPY HARDCORE;
#CREDIT:;
#BANNER:YELLOW SPLASH!!.png;
#BACKGROUND:YELLOW SPLASH!!-bg.png;
#LYRICSPATH:;
#CDTITLE:cdtitle.png;
#MUSIC:YELLOW SPLASH!!.ogg;
#OFFSET:0.040000;
#SAMPLESTART:21.983000;
#SAMPLELENGTH:10.439000;
#SELECTABLE:YES;
#BPMS:0.000000=185.000000
;
#STOPS:
;
#BGCHANGES:;
#KEYSOUNDS:;
#ATTACKS:;

//---------------dance-single - ----------------
#NOTES:
     dance-single:
     :
     Challenge:
     14:
     0.785818,1.071945,0.287620,0.044941,0.417947,612.000000,580.000000,32.000000,5.000000,0.000000,0.000000,0.785818,1.071945,0.287620,0.044941,0.417947,612.000000,580.000000,32.000000,5.000000,0.000000,0.000000:
0000
0000
0000
0000
,
0000
0000
0000
0000
,
0000
0000
0000
0000
,
0000
0000
0000
0000
,
0000
0000
0000
0000
,
1001
0000
0000
0000
,
0110
0000
1100
1000
,
1001
0000
1000
0001
0000
1000
0010
0000
0100
0000
0001
0100
0000
0001
0010
0000
,
0100
1000
0100
1000
0010
0100
0010
0100
0001
0000
1000
0000
0100
0000
0010
0000
,
0100
0000
1100
0000
0011
0000
1000
0010
,
0000
0100
1000
0100
0001
0010
0001
1000
,
0100
0000
0010
0001
0010
0000
0001
0000
0100
0000
0010
0000
1000
0000
0001
0000
,
0100
0000
0010
1000
0010
0000
1000
0001
1000
0000
0001
0000
0010
0000
0010
0000
,
0100
0000
0110
0000
0011
0000
1000
0100
,
0000
0010
1000
0010
0001
0100
0010
1000
,
0001
0000
0010
0001
0010
0000
0001
0000
1000
0000
0100
0000
1000
0000
0010
0000
,
0100
0000
0001
0100
0001
0000
1000
0001
1000
0000
0000
0000
1001
0000
0000
0000
,
0010
0000
0110
0000
1010
0000
1000
0100
,
0000
0010
0001
0100
1000
0100
0001
1000
,
0001
0000
0100
0010
0100
0000
0001
0000
1000
0000
0100
0000
0010
0000
0001
0000
,
0100
0000
0001
1000
0001
0000
1000
0100
1000
0000
0010
0000
0100
0000
0001
0000
,
0010
0000
0011
0000
1001
0001
0000
1010
,
0000
1100
0000
1000
0001
0100
0010
0000
,
1000
0000
0001
0010
0001
0000
1000
0000
0100
0010
0100
0010
0001
0100
0001
0100
,
0010
0000
1000
0010
1000
0000
0001
0100
0001
0000
0000
0000
0000
0000
0000
0000
,
1100
0000
0000
0000
0101
0000
0000
0000
0011
0000
0001
1000
0001
0000
0000
0000
,
1000
0000
0010
0100
0010
0000
1000
0000
0001
0010
0001
0010
0001
0000
0000
0000
,
1000
0000
0100
0010
0100
0000
0001
0000
0100
0000
1000
0000
0010
0000
0100
0000
,
0001
0000
0010
0100
0010
0000
0100
1000
0100
0000
0000
0000
0010
0001
0010
0001
,
0010
0000
0101
0000
1100
1000
0001
0000
,
0010
0000
0100
1000
0100
0000
1000
0000
0010
0000
0100
0000
0001
0000
0000
0000
,
0010
0000
0001
1000
0001
0000
0100
0000
0010
0000
1000
0000
0001
0000
0010
0000
,
0100
0000
0000
0020
0000
0031
1000
0000
,
1001
0000
0001
0000
1000
0010
0100
0001
,
0010
0100
1000
0010
0100
0001
0001
0001
,
1000
0100
0010
0100
0001
0100
0010
0100
,
1000
0001
0010
0001
1000
0100
0010
0001
,
1000
0000
0010
1000
0100
0000
1000
0010
,
0100
1000
0100
0010
0100
0001
0001
0001
,
1000
0010
0100
0010
0001
0010
0100
0010
,
1000
0000
1000
0000
0001
0000
0100
0010
0100
0000
0001
0000
0010
0000
0001
1000
,
0001
0000
0100
0000
0010
1000
0010
1000
,
0100
0010
0001
0100
0001
0000
0010
0001
,
1000
0100
0001
0100
0010
0100
1000
0010
,
0100
0001
0010
0001
0100
0010
1000
0100
,
0010
0100
1000
0001
0100
0010
0100
0001
,
0010
0100
0010
0001
1000
0010
0100
0001
,
1000
0000
0010
0000
1000
0000
0001
0000
0100
0000
0001
0000
0010
0001
0010
0001
,
0020
0000
0000
0030
,
0100
0000
0100
0000
1000
0000
0000
0001
0100
0000
0010
0000
0100
0001
0000
0001
,
1000
0000
1000
0000
0010
0000
0000
0100
0001
0000
1000
0000
0001
0010
0001
0010
,
0100
0000
0100
0000
1000
0000
0000
0010
0100
0000
0001
0000
1000
0010
0000
0010
,
0100
0000
0100
0000
0001
0000
0000
0010
0001
0000
1000
0000
0100
1000
0100
1000
,
0001
0000
0001
0000
0010
0000
0000
0001
1000
0000
0100
0000
0010
0001
0000
0001
,
0100
0000
0100
0000
0010
0000
0000
1000
0100
0000
1000
0000
0001
0100
0001
0100
,
0010
0000
0010
0000
1000
0000
0000
0100
0010
0000
0001
0000
1000
0001
1000
0001
,
1000
0000
0000
0000
,
1000
0100
0001
0100
1000
0100
0001
0100
,
1000
0010
0001
0010
1000
0010
0001
0010
,
1000
0000
0001
0010
0001
0000
1000
0010
1000
0000
0001
0100
0001
0000
1000
0100
,
1000
0010
1000
0010
0100
0001
0100
0001
0010
0100
0010
0100
1000
0001
1000
0001
,
0020
0000
0000
0000
,
0000
0000
0000
0000
,
0031
0000
1000
0001
0000
1000
0100
0000
0010
0000
0001
0100
0000
0010
1000
0000
,
0100
0000
0100
0000
0100
0000
0100
0000
0010
0000
0001
1000
0001
0000
0000
0000
,
1000
0000
0001
0000
0100
0000
0010
1000
,
0000
0001
1000
0100
0010
0000
0101
0000
,
1000
0000
0010
1000
0010
0000
0100
0000
0001
0000
0010
0000
0100
0000
1000
0000
,
0010
0000
0100
0001
0100
0000
0010
0100
0010
0000
1000
0000
0100
0000
0010
0000
,
0100
0000
1100
0000
1001
0000
0100
0010
,
0000
1000
0100
0001
0100
1000
0010
0100
,
0001
0000
0010
0001
0010
0000
0100
0000
1000
0000
0010
0000
0100
0000
0001
0000
,
0010
0000
0001
0100
0001
0000
1000
0010
1000
0000
0000
0000
1001
0000
0000
0000
,
0001
0000
0110
0000
1010
0000
1000
0010
,
0000
0100
1000
0100
0001
0010
0001
1000
,
0100
0000
0010
0100
0010
0000
0001
0000
1000
0000
0010
0000
0100
0000
0001
0000
,
0010
0000
0100
1000
0100
0000
1000
0001
1000
0000
0010
0000
0100
0000
0010
0000
,
1000
0000
1010
0000
0101
0001
0000
0011
,
0000
1001
0000
1000
0100
0010
0001
0000
,
1000
0000
0001
0100
0001
0000
0010
0000
0100
1000
0100
1000
0001
1000
0001
1000
,
0010
0000
1000
0100
1000
0000
0001
0100
0001
0000
0010
0000
0100
0000
0000
0000
,
2002
0000
0000
0000
,
0000
3003
0000
0000
;

//---------------dance-single - ----------------
#NOTES:
     dance-single:
     :
     Hard:
     12:
     0.662553,0.776236,0.287620,0.071905,0.130328,516.000000,484.000000,32.000000,8.000000,0.000000,0.000000,0.662553,0.776236,0.287620,0.071905,0.130328,516.000000,484.000000,32.000000,8.000000,0.000000,0.000000:
0000
0000
0000
0000
,
0000
0000
0000
0000
,
0000
0000
0000
0000
,
0000
0000
0000
0000
,
0000
0000
0000
0000
,
1001
0000
0000
0000
,
0110
0000
1010
1000
,
1001
0000
1000
0010
0000
1000
0010
0000
0100
0000
0001
0010
0000
0001
0010
0000
,
0100
1000
0010
0100
0001
0010
0001
1000
,
0100
0000
0110
0000
0011
0000
1000
0010
,
0000
0100
1000
0100
0001
0010
0100
1000
,
0010
0100
0001
1000
0010
0001
0010
1000
,
0001
0100
0001
0100
0010
1000
0010
0000
,
1000
0000
1100
0000
1001
0000
0001
0100
,
0000
0010
0001
0010
1000
0100
0010
0001
,
1000
0010
1000
0001
0100
1000
0100
0001
,
0010
0010
0100
0100
1000
0000
1001
0000
,
0001
0000
0110
0000
1000
0010
0100
0001
,
0000
0010
0001
0100
0010
1000
0100
0010
,
0100
1000
0001
1000
0010
0001
0010
1000
,
0001
0010
0001
0010
0100
1000
0100
0000
,
0010
0000
0011
0000
0001
1000
0000
1010
,
0000
1001
0000
1000
0100
0010
0001
0000
,
1000
0010
0100
0001
0010
1000
0010
0001
,
1000
1000
0100
0100
0010
0000
0000
0000
,
0011
0000
1100
0000
1000
0010
0001
0000
,
0010
1000
0100
1000
0001
0010
0001
0000
,
1000
0100
0001
0100
0010
0100
1000
0001
,
1000
0010
1000
0001
0010
0000
0000
0000
,
0011
1100
1001
0000
,
1000
0100
1000
0001
0100
0000
0000
0000
,
0001
0010
0100
1000
0010
0001
0010
1000
,
0001
0000
0000
1000
0000
0100
0010
0000
,
1001
0000
0001
0100
0010
0000
1000
0100
,
0010
0100
1000
0010
0000
1000
1000
1000
,
0001
0100
0010
0100
1000
0100
0000
0101
,
0000
0002
0000
2003
0000
3100
0010
0000
,
0101
0000
0001
0010
0100
0000
1000
0010
,
0100
0010
1000
0100
0000
0010
0010
0010
,
0001
0100
1000
0100
0010
0100
0001
0010
,
0001
0000
0001
0000
1000
0000
0010
1000
0010
1000
0100
0000
0010
0000
0000
0000
,
1001
0000
1000
0100
0010
0000
0100
1000
,
0010
0100
0001
0010
0000
0001
0001
0001
,
1000
0010
0100
0010
0001
0010
0000
1001
,
0000
2000
0000
3020
0000
0130
0001
0000
,
0011
0000
0001
1000
0100
0000
1000
0010
,
0100
0001
0010
0001
0100
0010
1000
0001
,
1000
0100
0010
0001
1000
0010
0100
0001
,
0020
0000
0000
0031
,
1000
0000
1000
0000
0010
0000
0000
0100
0001
0000
0010
0000
0100
0000
0010
0000
,
0001
0000
0001
0000
0010
0000
0000
0100
1000
0000
0010
0000
0100
0010
0100
0010
,
1000
0000
1000
0000
0100
0000
0000
0010
0001
0000
0100
0000
0010
0000
0100
0000
,
0001
0000
0001
0000
0100
0000
0000
0010
1000
0000
0100
0000
0010
0100
0010
0100
,
1000
0000
1000
0000
0001
0000
0000
0010
0100
0000
1000
0000
0010
0000
0100
0000
,
0001
0000
0001
0000
1000
0000
0000
0010
0100
0000
0001
0000
0010
0100
0010
0100
,
1000
0000
1000
0000
0001
0000
0000
0100
0010
0000
1000
0000
0100
0010
0100
0010
,
0001
0000
0000
0000
,
1000
0100
0000
0100
0000
0100
0000
0100
,
1000
0010
0000
0010
0000
0010
0000
0010
,
1000
0000
0000
1000
0100
0000
0000
0100
0010
0000
0000
0010
0001
0000
0000
0001
,
1000
0100
0001
0100
1000
0010
0001
0010
,
2000
0000
0000
0000
,
0000
0000
0000
0000
,
3001
0000
1000
0010
0000
1000
0010
0000
0100
0000
0001
0010
0000
0001
0010
0000
,
0100
0100
0100
0100
0100
1000
0001
0000
,
1000
0000
0100
0000
0010
0000
0001
0100
,
0000
0001
0010
0100
1000
0000
0000
0000
,
1000
0100
1000
0001
0010
1000
0010
0001
,
1000
0100
1000
0100
0010
0001
0100
0000
,
0001
0000
0011
0000
1001
0000
1000
0010
,
0000
0100
1000
0100
0010
1000
0001
0100
,
0001
0010
0001
1000
0100
0001
0100
1000
,
0001
0001
0010
0010
0100
0000
0000
0000
,
1000
0000
1001
0000
0001
0100
0010
1000
,
0000
0100
0010
0100
0001
0100
1000
0010
,
1000
0001
1000
0001
0010
1000
0010
0001
,
0100
0010
0100
0010
1000
0100
0010
0000
,
0001
0000
0101
0000
1000
0010
0000
1100
,
0000
0011
0000
0001
0010
0100
1000
0000
,
0001
0010
0001
1000
0100
0001
0100
1000
,
0001
0001
0100
0100
0010
0000
0110
0000
,
2002
0000
0000
0000
,
0000
3003
0000
0000
;

//---------------dance-single - ----------------
#NOTES:
     dance-single:
     :
     Medium:
     8:
     0.440418,0.480527,0.071905,0.152798,0.000000,343.000000,335.000000,8.000000,17.000000,0.000000,0.000000,0.440418,0.480527,0.071905,0.152798,0.000000,343.000000,335.000000,8.000000,17.000000,0.000000,0.000000:
0000
0000
0000
0000
,
0000
0000
0000
0000
,
0000
0000
0000
0000
,
0000
0000
0000
0000
,
0000
0000
0000
0000
,
1001
0000
0000
0000
,
0110
0000
1100
1000
,
1001
0000
0000
0000
,
0001
0010
0100
1000
0100
0000
0000
0000
,
1000
0000
0010
0000
0100
0000
0001
0010
,
0000
0001
0100
0010
1000
0000
0100
0000
,
1000
0000
1000
0000
0010
0100
0001
0000
,
0010
0010
0100
0100
,
1000
0000
0001
0000
0010
0000
0001
0100
,
0000
0010
1000
0100
0010
0000
0100
0000
,
1000
0000
1000
0000
0001
0100
0010
0000
,
0100
0100
0001
0000
,
1000
0000
0001
0000
0100
0000
0010
1000
,
0000
0001
0010
0100
1000
0000
0001
0000
,
0010
0000
0010
0000
0001
1000
0001
0000
,
1000
1000
0100
0100
,
0010
0000
0001
0000
1000
0001
0000
0100
,
0000
0010
0000
1000
0100
0010
0001
0000
,
1000
0000
0010
0000
0100
0000
0001
0010
,
0001
0101
1100
0000
,
1000
1000
0001
0100
,
0001
1000
0001
0010
0001
0000
0100
0000
,
0001
0000
0001
0000
0100
0010
1000
0100
,
1000
1000
0010
0000
,
1000
0001
0010
0000
,
0100
1000
0100
1000
0010
0000
0000
0000
,
0100
0000
0100
0000
0001
1000
0010
1000
,
0100
0000
0000
0000
0000
0010
0001
0000
,
1001
0000
1000
0020
0000
0000
0000
0130
,
0001
0010
0100
2000
0000
0000
3000
0001
,
0010
0000
0010
0000
0100
1000
0000
0010
,
0000
0100
0000
0001
0000
0010
0001
0000
,
1000
0000
0010
0200
0000
0000
0000
0301
,
0010
0100
1000
0020
0000
0000
0030
1000
,
0100
0000
0100
0000
0010
0001
1000
0002
,
0000
0000
0000
0000
1003
0100
0010
0100
,
1000
0000
0001
0020
0000
0000
0000
0130
,
1000
0001
1000
0200
0000
0000
0300
0010
,
0001
0000
0001
0000
0100
0010
0000
1000
,
0000
0001
0000
0010
0000
0100
1000
0000
,
0001
0000
0100
0002
0000
0000
0000
1003
,
0010
0100
0010
2000
0000
0000
3001
0200
,
0000
0000
0000
0000
0310
1000
0010
1000
,
0001
0000
0000
0000
,
1000
1000
0010
0000
0100
0001
0100
0000
,
0001
0001
0010
0000
0100
1000
0002
0000
,
0013
0010
0001
0000
0100
0010
1000
0000
,
0100
0100
1000
0000
0001
0100
0020
0000
,
1030
1000
0010
0000
0100
0001
0100
0000
,
0010
0010
1000
0000
0001
0010
0200
0000
,
0310
0010
0001
0000
1000
0010
2000
0000
,
3100
0000
0000
0000
,
1000
0010
0000
0010
0000
0010
0000
0010
,
1000
0100
0000
0100
0000
0100
0000
0100
,
0010
0001
0010
0100
,
1000
0001
1000
0010
1000
0100
0010
0001
,
0200
0000
0000
0000
,
0000
0000
0000
0000
,
0301
0000
0000
0000
,
1000
0001
1000
0001
1000
0000
0000
0000
,
0001
0000
0010
0000
0100
0000
1000
0010
,
0000
1000
0100
0010
0001
0000
0000
0000
,
1000
0000
1000
0000
0001
0000
0100
0001
,
0100
0100
0010
0010
,
1000
0000
0100
0000
0010
0000
0001
0100
,
0000
0001
0010
0001
1000
0000
0010
0000
,
0100
0100
0001
0010
,
0100
0100
1000
0000
,
0001
0000
0100
0000
0010
0000
1000
0100
,
0000
0010
0001
1000
0100
0000
1000
0000
,
0001
0000
0001
0000
0010
0100
0010
0000
,
0100
0100
1000
1000
,
0001
0000
0100
0000
0010
0100
0000
0001
,
0000
1000
0000
0100
0010
0001
1000
0000
,
0010
0010
0100
0001
,
1000
1000
0010
0100
,
0220
0000
0000
0000
,
0000
0330
0000
0000
;

//---------------dance-single - ----------------
#NOTES:
     dance-single:
     :
     Easy:
     6:
     0.310732,0.369636,0.080893,0.026964,0.000000,242.000000,233.000000,9.000000,3.000000,0.000000,0.000000,0.310732,0.369636,0.080893,0.026964,0.000000,242.000000,233.000000,9.000000,3.000000,0.000000,0.000000:
0000
0000
0000
0000
,
0000
0000
0000
0000
,
0000
0000
0000
0000
,
0000
0000
0000
0000
,
0000
0000
0000
0000
,
1000
0000
0000
0000
,
0001
0000
1000
0001
,
1000
0000
0000
0000
,
0001
0001
0010
0000
,
0100
0010
0001
1000
,
0100
0010
0100
1000
,
0010
0010
0100
0001
,
0010
0010
0001
0001
,
1000
0010
0100
0001
,
0010
0100
1000
0010
,
0100
0100
0001
0010
,
0100
0100
1000
0000
,
0001
0100
0010
1000
,
0100
0010
0001
0100
,
0010
0010
1000
0100
,
0010
0010
0001
0001
,
0100
0000
0010
0000
1000
0000
0000
0001
,
0000
1000
0000
0001
0000
0000
1001
0000
,
1000
0100
0010
0001
,
0100
0100
0010
0000
,
1000
0100
0010
0000
,
0001
0010
0100
0000
,
1000
0010
0100
0001
,
0010
0100
1000
0000
,
0001
0100
0010
0000
,
1000
0010
0100
0000
,
0001
0010
0100
1000
,
0010
0000
0000
0000
,
1000
0000
0001
0000
,
0010
0100
1000
0000
,
0001
0001
1000
0100
,
0010
0001
0100
0010
,
1000
0000
0010
0000
,
0100
0001
0010
0000
,
0001
0001
1000
0010
,
0100
0000
0001
0000
,
1000
0000
0100
0000
,
0010
0001
0100
0000
,
0001
0001
0100
0010
,
1000
0100
0010
0001
,
0110
0000
0100
0000
,
0110
0000
0010
0000
,
1000
0010
0100
0001
,
1001
0000
0000
0000
,
1000
0000
0100
0000
,
0010
0001
0100
0001
,
0010
0000
0100
0000
,
1000
0001
0100
0001
,
0010
0000
0001
0000
,
1000
0010
1000
0100
,
1000
0000
0010
0000
,
0100
0000
0000
0000
,
1001
0000
0000
0000
,
1001
0000
0000
0000
,
1000
0010
1000
0010
,
0100
0001
0100
0001
,
0020
0000
0000
0000
,
0000
0000
0000
0000
,
0130
0000
0000
0000
,
1000
1000
1000
0000
,
0110
0000
0000
0000
,
0001
1000
0001
0000
,
1000
1000
0001
0010
,
0100
0100
0010
0010
,
0001
0100
0001
1000
,
0100
1000
0010
0100
,
0001
0001
0100
0010
,
1000
1000
0100
0000
,
0010
0001
0100
0010
,
1000
0100
1000
0001
,
0010
0010
0100
1000
,
0001
0001
0100
0100
,
0010
0000
1000
0000
0100
0000
0000
0010
,
0000
0001
0000
1000
0000
0000
1001
0000
,
0001
0001
0010
0100
,
1000
1000
0010
0000
,
2002
0000
0000
0000
,
0000
3003
0000
0000
;

//---------------dance-single - ----------------
#NOTES:
     dance-single:
     :
     Beginner:
     3:
     0.170774,0.258745,0.000000,0.017976,0.000000,133.000000,133.000000,0.000000,2.000000,0.000000,0.000000,0.170774,0.258745,0.000000,0.017976,0.000000,133.000000,133.000000,0.000000,2.000000,0.000000,0.000000:
// measure 0
0000
0000
0000
0000
,  // measure 1
0000
0000
0000
0000
,  // measure 2
0000
0000
0000
0000
,  // measure 3
0000
0000
0000
0000
,  // measure 4
0000
0000
0000
0000
,  // measure 5
1000
0000
0000
0000
,  // measure 6
0001
0000
1000
0000
,  // measure 7
0001
0000
0000
0000
,  // measure 8
1000
1000
1000
0000
,  // measure 9
0001
0000
0001
0000
,  // measure 10
0100
0000
0100
0000
,  // measure 11
0010
0000
0010
0000
,  // measure 12
1000
0000
1000
0000
,  // measure 13
0100
0000
0100
0000
,  // measure 14
0010
0000
0010
0000
,  // measure 15
0001
0000
0001
0000
,  // measure 16
0100
0000
0100
0000
,  // measure 17
0010
0000
0010
0000
,  // measure 18
1000
0000
1000
0000
,  // measure 19
0100
0000
0100
0000
,  // measure 20
1000
0000
1000
0000
,  // measure 21
0010
0000
0010
0000
,  // measure 22
0100
0000
0100
0000
,  // measure 23
0001
0000
0001
0000
,  // measure 24
1000
0001
1000
0000
,  // measure 25
0001
0000
0010
0000
,  // measure 26
0001
0000
0100
0000
,  // measure 27
0010
0000
0010
0000
,  // measure 28
1000
0000
0100
0000
,  // measure 29
1000
0000
0001
0000
,  // measure 30
0100
0000
0100
0000
,  // measure 31
0010
0000
0010
0000
,  // measure 32
0100
0000
0000
0000
,  // measure 33
0001
0000
0000
0000
,  // measure 34
1000
0000
0000
0000
,  // measure 35
0001
0000
0000
0000
,  // measure 36
0100
0000
0000
0000
,  // measure 37
0010
0000
0000
0000
,  // measure 38
1000
0000
0000
0000
,  // measure 39
0100
0000
0000
0000
,  // measure 40
0010
0000
0000
0000
,  // measure 41
0001
0000
0000
0000
,  // measure 42
0010
0000
0000
0000
,  // measure 43
0100
0000
0000
0000
,  // measure 44
1000
0000
0000
0000
,  // measure 45
0001
0000
0001
0000
,  // measure 46
1000
0000
1000
0000
,  // measure 47
0010
0000
0010
0000
,  // measure 48
0100
0000
0000
0000
,  // measure 49
0001
0000
1000
0000
,  // measure 50
0001
0000
0100
0000
,  // measure 51
0010
0000
1000
0000
,  // measure 52
0100
0000
0010
0000
,  // measure 53
0001
0000
1000
0000
,  // measure 54
0010
0000
1000
0000
,  // measure 55
0001
0000
0100
0000
,  // measure 56
0001
0000
0000
0000
,  // measure 57
1000
0000
0000
0000
,  // measure 58
0001
0000
0000
0000
,  // measure 59
1000
0000
0001
0000
,  // measure 60
1000
0001
1000
0001
,  // measure 61
2000
0000
0000
0000
,  // measure 62
0000
0000
0000
0000
,  // measure 63
3000
0000
0000
0000
,  // measure 64
0001
0001
0001
0000
,  // measure 65
1000
0000
0000
0000
,  // measure 66
0000
0000
0001
0000
,  // measure 67
1000
0000
0010
0000
,  // measure 68
1000
0000
0100
0000
,  // measure 69
0010
0000
0001
0000
,  // measure 70
0100
0000
0010
0000
,  // measure 71
1000
0000
0001
0000
,  // measure 72
0010
0000
0100
0000
,  // measure 73
1000
0000
0010
0000
,  // measure 74
0100
0000
0001
0000
,  // measure 75
0010
0000
0100
0000
,  // measure 76
1000
0000
0001
0000
,  // measure 77
0100
0000
0100
0000
,  // measure 78
0010
0000
0010
0000
,  // measure 79
1000
0000
0001
0000
,  // measure 80
1000
0010
1000
0000
,  // measure 81
0002
0000
0000
0000
,  // measure 82
0000
0003
0000
0000
;
