#TITLE:Winter;
#SUBTITLE:;
#ARTIST:3R2;
#TITLETRANSLIT:;
#SUBTITLETRANSLIT:;
#ARTISTTRANSLIT:;
#GENRE:2STEP;
#CREDIT:;
#BANNER:Winter.png;
#BACKGROUND:Winter-bg.png;
#LYRICSPATH:;
#CDTITLE:cdtitle.png;
#MUSIC:Winter.ogg;
#OFFSET:-0.037000;
#SAMPLESTART:71.129852;
#SAMPLELENGTH:14.313335;
#SELECTABLE:YES;
#BPMS:0.000000=135.000000
;
#STOPS:
;
#BGCHANGES:;
#KEYSOUNDS:;
#ATTACKS:;

//---------------dance-single - ----------------
#NOTES:
     dance-single:
     :
     Hard:
     9:
     0.374791,0.485687,0.008302,0.091326,0.240768,316.000000,315.000000,1.000000,11.000000,0.000000,0.000000,0.374791,0.485687,0.008302,0.091326,0.240768,316.000000,315.000000,1.000000,11.000000,0.000000,0.000000:
// measure 0
0000
0000
0000
0000
,  // measure 1
0000
0000
0000
0000
,  // measure 2
0000
0000
0000
0000
,  // measure 3
0000
0000
0000
0000
,  // measure 4
1000
0100
0000
0100
0000
0100
0000
0100
,  // measure 5
0010
0001
0000
0001
1000
0001
0000
0001
,  // measure 6
0100
0010
0000
0010
0000
0010
0000
0010
,  // measure 7
1000
0000
0000
0000
0000
0000
0000
0000
0000
0000
0000
0000
0001
0010
0000
0000
0000
0100
0000
0000
0010
0001
0000
0000
,  // measure 8
1000
0000
0000
0001
0000
0000
0100
0000
0000
1000
0000
0000
0000
0000
0000
0100
0000
0000
0000
0000
0000
0001
0000
1000
,  // measure 9
0001
0010
0100
1000
0000
0010
0100
0010
,  // measure 10
0000
0000
0000
1000
0000
0000
0100
0000
0000
0001
0000
0000
0000
0000
0000
0100
0000
0000
0000
0000
0000
1000
0000
0001
,  // measure 11
1000
0010
0100
0001
0000
0010
0100
0010
,  // measure 12
0001
0000
0000
1000
0000
0000
0010
0000
0000
0001
0000
0000
0000
0000
0000
0010
0000
0000
0000
0000
0000
1000
0000
0001
,  // measure 13
1000
0100
0010
0001
0000
0100
0010
0100
,  // measure 14
0000
0000
0000
0001
0000
0000
0010
0000
0000
1000
0000
0000
0000
0000
0000
0010
0000
0000
0000
0000
0000
0001
0000
1000
,  // measure 15
0001
0100
0010
1000
0000
0100
0010
0100
,  // measure 16
1000
0001
1000
0000
0010
0000
0100
0000
,  // measure 17
0001
0010
0100
0010
0000
0001
0000
0001
,  // measure 18
0000
1000
0001
0000
0100
0000
0010
0000
,  // measure 19
1000
0100
0010
0100
0000
0000
1000
0001
,  // measure 20
1000
0000
0000
0001
0100
0000
0000
0010
,  // measure 21
1000
0000
0100
0010
0000
0000
0000
0100
,  // measure 22
1000
0010
0100
0001
,  // measure 23
0020
0000
0000
0000
0000
0000
0000
0000
0000
0130
0000
0000
1000
0000
0001
0000
1000
0000
0001
0000
0000
0100
0000
0000
,  // measure 24
0002
0000
2003
0000
,  // measure 25
3200
0000
0320
0000
,  // measure 26
0032
0000
0203
0000
,  // measure 27
0320
0000
1030
0001
,  // measure 28
0010
0100
0010
0000
0001
1000
0001
0000
,  // measure 29
0100
0010
0100
0000
0001
1000
0001
0000
,  // measure 30
1000
0100
1000
0000
0001
0100
0001
0000
,  // measure 31
1000
0000
0000
0100
0000
0000
0010
0000
0000
0001
0000
0000
1000
0000
0000
0000
0000
0000
0001
0000
0000
0100
0000
0001
,  // measure 32
0100
0100
0010
0010
,  // measure 33
1000
0100
0010
0001
,  // measure 34
0100
0100
0010
0010
,  // measure 35
1000
0000
0100
0000
1000
0010
0001
0010
,  // measure 36
1000
1000
0001
0001
,  // measure 37
0010
0100
1000
0010
,  // measure 38
1000
0000
0000
0000
0000
0000
1000
0000
0000
0000
0000
1000
0001
0000
0000
0000
0000
0000
0001
0000
0000
0000
0000
0000
,  // measure 39
0100
0010
1000
0002
,  // measure 40
1003
0000
0000
0000
0000
0000
0000
0000
0000
0001
0000
0000
1000
0000
0100
0000
0000
0010
0000
0000
0001
0000
0000
0100
,  // measure 41
0000
0000
0000
0000
0000
0000
0000
0000
0000
0001
0000
0000
0010
0000
0100
0000
0000
1000
0000
0000
0001
0000
0000
0000
,  // measure 42
0000
0000
0000
1000
0000
0000
0010
0000
0000
1000
0000
0000
0001
0000
0010
0000
0000
0100
0000
0000
1000
0010
0000
1000
,  // measure 43
0001
0000
1000
0000
0000
0000
0001
1000
,  // measure 44
0001
0000
0000
0000
0000
0000
0000
0000
0000
1000
0000
0000
0001
0000
0100
0000
0000
0010
0000
0000
1000
0000
0000
0100
,  // measure 45
0000
0000
0000
0000
0000
0000
0000
0000
0000
1000
0000
0000
0010
0000
0100
0000
0000
0001
0000
0000
1000
0000
0000
0000
,  // measure 46
0000
0000
0000
0001
0000
0000
0010
0000
0000
0001
0000
0000
1000
0000
0010
0000
0000
0100
0000
0000
0001
0010
0000
0001
,  // measure 47
1000
0000
0000
0000
0000
0001
0000
0000
0000
1000
0000
0000
0000
0000
0000
0001
0000
0000
1000
0000
0010
1000
0000
0100
,  // measure 48
1000
0000
0000
0000
0000
0000
0000
0000
0000
0001
0000
0000
1000
0000
0010
0000
0000
0100
0000
0000
0001
0000
0000
0010
,  // measure 49
0000
0000
0000
0000
0000
0000
0000
0000
0000
0001
0000
0000
0100
0000
0010
0000
0000
1000
0000
0000
0001
0000
0000
0000
,  // measure 50
0000
0000
0000
1000
0000
0000
0100
0000
0000
1000
0000
0000
0001
0000
0100
0000
0000
0010
0000
0000
1000
0100
0000
1000
,  // measure 51
0001
0000
1000
0000
0000
0000
0001
1000
,  // measure 52
0001
0000
0000
0000
0000
0000
0000
0000
0000
1000
0000
0000
0001
0000
0010
0000
0000
0100
0000
0000
1000
0000
0000
0010
,  // measure 53
0000
0000
0000
0000
0000
0000
0000
0000
0000
1000
0000
0000
0100
0000
0010
0000
0000
0001
0000
0000
1000
0000
0000
0000
,  // measure 54
0000
0001
0100
0001
1000
0100
0010
0100
,  // measure 55
1000
0000
0000
0010
0000
0000
0100
0000
0000
0001
0000
0000
0010
0000
0100
0000
0000
1000
0000
0000
0010
0100
0000
0010
,  // measure 56
1000
0001
0000
0010
,  // measure 57
0000
0001
0000
0100
,  // measure 58
0000
0010
0000
1000
,  // measure 59
0000
0100
0010
0001
,  // measure 60
1000
0010
0000
0100
,  // measure 61
0000
0010
0000
1000
,  // measure 62
0000
0001
0000
0010
,  // measure 63
0000
0100
1000
0001
,  // measure 64
2002
0000
0000
0000
,  // measure 65
3003
0000
0000
0000
;

//---------------dance-single - ----------------
#NOTES:
     dance-single:
     :
     Medium:
     6:
     0.228907,0.323791,0.000000,0.149442,0.000000,193.000000,193.000000,0.000000,18.000000,0.000000,0.000000,0.228907,0.323791,0.000000,0.149442,0.000000,193.000000,193.000000,0.000000,18.000000,0.000000,0.000000:
0000
0000
0000
0000
,
0000
0000
0000
0000
,
0000
0000
0000
0000
,
0000
0000
0000
0000
,
1000
0001
0000
0001
,
0000
0001
0000
0001
,
0010
0100
0000
0100
,
1000
0000
0010
0000
,
1000
0000
0001
1000
0000
1000
0000
0100
,
0010
0001
0000
0000
,
0000
0000
1000
0001
0000
0001
0000
0100
,
0010
0000
1000
0000
0000
0001
1000
0001
,
0000
0000
1000
0100
0000
0100
0000
0010
,
0001
0100
0000
0000
,
0000
0000
0001
0010
0000
0010
0000
0100
,
1000
0000
0010
0000
0000
1000
0001
1000
,
0001
0010
0100
0000
0100
0000
0010
0000
,
0001
0000
0100
0010
0000
1000
0000
0100
,
0000
1000
1000
0010
,
0100
0000
0001
0010
0000
0000
0100
1000
,
0001
0000
1000
0000
,
0010
0000
1000
0000
,
0100
0010
0001
0100
,
0010
0000
0000
1000
0001
0000
0000
0000
,
2000
0000
3020
0000
,
0230
0000
0302
0000
,
2003
0000
3200
0000
,
0320
0000
0032
0000
,
0203
0000
0320
0000
,
2030
0000
3002
0000
,
0023
0000
0230
0000
,
2300
0000
3002
0000
,
1003
1000
0010
0010
,
0100
0100
0001
0001
,
1000
0100
0010
0001
,
0010
0100
1000
0001
,
1000
1000
0010
0010
,
0100
0100
0001
0001
,
1000
0100
0010
0001
,
0010
0100
1000
0002
,
1003
0000
0010
0100
,
0001
0000
0010
0100
,
0000
1000
0001
0100
,
0001
0000
0000
0000
,
1000
0000
0100
1000
,
0010
0000
0100
0001
,
0000
0010
0001
1000
,
0001
0000
0000
1000
0000
0000
0010
0100
,
0010
0000
1000
0100
,
0010
0000
0100
1000
,
0000
0010
0100
0001
,
0010
0000
0000
0000
,
0100
0000
1000
0010
,
1000
0000
0001
0010
,
0000
0001
1000
0100
,
0010
0000
0001
0000
1000
0010
0100
0010
,
1000
0100
0000
0100
,
1000
0010
0000
0010
,
1000
0001
0000
0001
,
1000
0100
0010
0001
,
1000
0010
0000
0010
,
1000
0100
0000
0100
,
1000
0001
0000
0001
,
1000
0010
0100
0001
,
0020
0000
0000
0000
,
0030
0000
0000
0000
;

//---------------dance-single - ----------------
#NOTES:
     dance-single:
     :
     Easy:
     3:
     0.129279,0.239107,0.000000,0.132837,0.000000,109.000000,109.000000,0.000000,16.000000,0.000000,0.000000,0.129279,0.239107,0.000000,0.132837,0.000000,109.000000,109.000000,0.000000,16.000000,0.000000,0.000000:
0000
0000
0000
0000
,
0000
0000
0000
0000
,
0000
0000
0000
0000
,
0000
0000
0000
0000
,
1000
0001
0000
0001
,
0000
0001
0000
0001
,
0010
0100
0000
0100
,
1000
0000
0000
0000
,
0001
0000
0000
0000
,
0100
0000
0000
0000
,
0010
0000
0000
0000
,
1000
0000
0000
0000
,
0001
0000
0000
0000
,
0010
0000
0000
0000
,
0100
0000
0000
0000
,
1000
0000
0000
0000
,
0001
0000
0010
0000
,
0001
0000
1000
0000
,
0010
0000
1000
0000
,
0001
0000
1000
0000
,
0001
0000
0100
0000
,
0001
0000
1000
0000
,
0100
0000
1000
0000
,
0001
0000
0000
0000
,
2000
0000
0000
0000
,
3020
0000
0000
0000
,
0230
0000
0000
0000
,
0302
0000
0000
0000
,
2003
0000
0000
0000
,
3200
0000
0000
0000
,
0320
0000
0000
0000
,
0032
0000
0000
0000
,
1003
0000
0010
0000
,
1000
0000
0100
0000
,
1000
0000
0001
0000
,
0010
0000
0100
0000
,
1000
0000
0010
0000
,
0100
0000
0001
0000
,
1000
0000
0010
0000
,
1000
0000
0100
0000
,
1000
0000
0001
0100
,
0001
0000
1000
0001
,
1000
0000
0100
0000
,
1000
0000
0000
0000
,
0001
0000
1000
0100
,
1000
0000
0001
1000
,
0001
1000
0100
0010
,
0001
0000
0000
1000
,
0001
0000
1000
0010
,
1000
0000
0001
1000
,
0001
0000
0010
0000
,
0001
0000
0000
0000
,
1000
0000
0001
0010
,
0001
0000
1000
0001
,
1000
0010
0100
0001
,
1000
1000
0100
0010
,
0002
0000
0000
0000
,
2003
0000
0000
0000
,
3020
0000
0000
0000
,
0230
0000
0000
0000
,
0302
0000
0000
0000
,
2003
0000
0000
0000
,
3200
0000
0000
0000
,
0320
0000
0000
0000
,
0031
0000
0000
0000
;

//---------------dance-single - ----------------
#NOTES:
     dance-single:
     :
     Beginner:
     1:
     0.062861,0.079702,0.000000,0.066419,0.000000,53.000000,53.000000,0.000000,8.000000,0.000000,0.000000,0.062861,0.079702,0.000000,0.066419,0.000000,53.000000,53.000000,0.000000,8.000000,0.000000,0.000000:
0000
0000
0000
0000
,
0000
0000
0000
0000
,
0000
0000
0000
0000
,
0000
0000
0000
0000
,
0000
0001
0000
0000
,
0000
1000
0000
0000
,
0000
0001
0000
0000
,
1000
0000
0000
0000
,
0001
0000
0000
0000
,
1000
0000
0000
0000
,
0001
0000
0000
0000
,
1000
0000
0000
0000
,
0010
0000
0000
0000
,
0100
0000
0000
0000
,
0010
0000
0000
0000
,
0100
0000
0000
0000
,
0001
0000
0000
0000
,
1000
0000
0000
0000
,
0001
0000
0000
0000
,
1000
0000
0000
0000
,
0100
0000
0000
0000
,
0010
0000
0000
0000
,
0100
0000
0000
0000
,
0010
0000
0000
0000
,
0002
0000
0000
0000
,
0003
0000
0000
0000
,
2000
0000
0000
0000
,
3000
0000
0000
0000
,
0002
0000
0000
0000
,
0003
0000
0000
0000
,
2000
0000
0000
0000
,
3000
0000
0000
0000
,
0001
0000
0000
0000
,
1000
0000
0000
0000
,
0010
0000
0000
0000
,
0100
0000
0000
0000
,
0001
0000
0000
0000
,
1000
0000
0000
0000
,
0100
0000
0000
0000
,
0010
0000
0000
0000
,
0001
0000
0000
0000
,
1000
0000
0000
0000
,
0001
0000
0000
0000
,
1000
0000
0000
0000
,
0010
0000
0000
0000
,
0100
0000
0000
0000
,
0010
0000
0000
0000
,
0100
0000
0000
0000
,
0001
0000
0000
0000
,
1000
0000
0000
0000
,
0001
0000
0000
0000
,
1000
0000
0000
0000
,
0100
0000
0000
0000
,
0010
0000
0000
0000
,
0100
0000
0000
0000
,
0010
0000
0000
0000
,
0002
0000
0000
0000
,
0003
0000
0000
0000
,
2000
0000
0000
0000
,
3000
0000
0000
0000
,
0020
0000
0000
0000
,
0030
0000
0000
0000
,
0200
0000
0000
0000
,
0300
0000
0000
0000
,
0001
0000
0000
0000
;
