#VERSION:0.83;
#TITLE:Ultra Hardcore;
#SUBTITLE:;
#ARTIST:kors k;
#TITLETRANSLIT:;
#SUBTITLETRANSLIT:;
#ARTISTTRANSLIT:;
#GENRE:BIG ROOM HARDCORE;
#ORIGIN:;
#CREDIT:;
#BANNER:Ultra Hardcore.png;
#BACKGROUND:Ultra Hardcore-bg.png;
#PREVIEWVID:;
#JACKET:Ultra Hardcore-jacket.png;
#CDIMAGE:;
#DISCIMAGE:;
#LYRICSPATH:;
#CDTITLE:cdtitle.png;
#MUSIC:Ultra Hardcore.ogg;
#OFFSET:0.000000;
#SAMPLESTART:22.524000;
#SAMPLELENGTH:11.321999;
#SELECTABLE:YES;
#BPMS:0.000=170.000;
#STOPS:;
#DELAYS:;
#WARPS:;
#TIMESIGNATURES:0.000=4=4;
#TICKCOUNTS:0.000=4;
#COMBOS:0.000=1;
#SPEEDS:0.000=1.000=0.000=0;
#SCROLLS:0.000=1.000;
#FAKES:;
#LABELS:0.000=Song Start;
#BGCHANGES:;
#KEYSOUNDS:;
#ATTACKS:
;

//---------------dance-single - ----------------
#NOTEDATA:;
#CHARTNAME:;
#STEPSTYPE:dance-single;
#DESCRIPTION:;
#CHARTSTYLE:;
#DIFFICULTY:Challenge;
#METER:16;
#RADARVALUES:0.763742,1.045628,0.151785,0.092757,0.573409,634.000000,616.000000,18.000000,11.000000,0.000000,0.000000,0.000000,0.000000,0.000000,0.763742,1.045628,0.151785,0.092757,0.573409,634.000000,616.000000,18.000000,11.000000,0.000000,0.000000,0.000000,0.000000,0.000000;
#CREDIT:;
#OFFSET:0.000000;
#BPMS:0.000000=170.000000
;
#STOPS:;
#DELAYS:;
#WARPS:;
#TIMESIGNATURES:0.000000=4=4
;
#TICKCOUNTS:0.000000=4
;
#COMBOS:0.000000=1
;
#SPEEDS:0.000000=1.000000=0.000000=0
;
#SCROLLS:0.000000=1.000000
;
#FAKES:;
#LABELS:0.000000=Song Start
;
#NOTES:
// measure 0
0000
0000
0000
0000
,  // measure 1
0000
0000
0000
0000
,  // measure 2
0000
0000
0000
0000
,  // measure 3
0000
0000
0000
0000
,  // measure 4
1000
0000
1001
0000
0001
0010
0100
1000
,  // measure 5
0000
1000
0010
1000
0000
0100
0000
0010
,  // measure 6
0001
0000
1001
0000
1000
0010
0100
0001
,  // measure 7
0000
0001
0000
0001
1000
0010
1000
0100
,  // measure 8
0010
0000
1001
0000
,  // measure 9
0100
0000
1001
0000
,  // measure 10
0010
0000
1001
0000
,  // measure 11
0100
0000
1001
0000
,  // measure 12
1000
0100
1000
0100
0010
0001
0010
0001
,  // measure 13
1000
0010
1000
0010
0100
0001
1000
0100
,  // measure 14
0010
0000
0001
0000
0100
0000
0010
0000
1000
0000
0001
0010
0001
0010
0100
1000
,  // measure 15
0200
0000
0000
0000
1300
0001
1000
0000
,  // measure 16
0001
0000
1000
0010
1000
0000
0001
0000
0010
0000
0100
1000
0100
0000
1000
0000
,  // measure 17
0010
0000
0100
0001
0100
0000
0010
0000
1000
0000
0100
0000
0010
0000
0001
0000
,  // measure 18
1000
0000
0001
0010
0001
0000
1000
0000
0010
0000
0100
0001
0100
0000
0001
0000
,  // measure 19
0010
0000
0100
1000
0100
0000
0010
0000
0001
0000
0100
0000
0010
0000
0000
0000
,  // measure 20
1000
0000
0100
0010
0100
0000
1000
0000
0001
0000
0100
0010
0100
0000
0001
0000
,  // measure 21
0010
0000
0001
1000
0001
0000
1000
0000
0100
0000
0010
0000
0001
0000
0100
0000
,  // measure 22
0001
0000
0010
0100
0010
0000
0001
0000
1000
0000
0010
0100
0010
0000
1000
0000
,  // measure 23
0100
0000
0010
0001
0010
0000
0001
0000
0100
0000
0000
0000
1001
0000
0000
0000
,  // measure 24
0010
0000
1000
0100
1000
0000
0001
0000
0010
0000
0001
0100
0001
0000
1000
0000
,  // measure 25
0100
0000
1000
0010
1000
0000
0001
0000
0010
0000
0100
0000
1000
0000
0001
0000
,  // measure 26
1000
0000
0010
0100
0010
0000
0100
0000
0001
0000
0010
0100
0010
0000
0100
0000
,  // measure 27
1000
0000
1000
0000
1000
0000
0010
1000
0001
0000
0001
0000
0001
0000
0000
0000
,  // measure 28
1000
0000
0001
0100
0001
0000
0010
0000
0100
0000
1000
0100
1000
0000
0010
0000
,  // measure 29
0100
0000
0100
0000
0010
0100
0010
0000
1000
0000
0001
0000
1001
0000
0000
0000
,  // measure 30
1000
0100
0001
0000
0001
0100
1000
0000
,  // measure 31
1000
0010
0100
0000
0002
0000
2003
0000
,  // measure 32
3100
0000
0110
0000
0010
0001
1000
0010
,  // measure 33
0000
0010
0100
0001
0000
0001
0000
1000
,  // measure 34
0010
0000
1010
0000
1000
0100
0010
0001
,  // measure 35
0000
0001
0000
0001
0100
0010
1000
0001
,  // measure 36
0010
0000
0110
0000
0100
1000
0001
0100
,  // measure 37
0000
0100
0010
1000
0000
1000
0000
0001
,  // measure 38
0100
0000
0101
0000
0001
0010
0100
1000
,  // measure 39
0000
1000
0000
1000
0010
0100
0001
1000
,  // measure 40
0001
0010
0100
0010
0000
0001
0100
0010
,  // measure 41
0000
1000
0100
0001
0100
1000
0010
0100
,  // measure 42
0001
0000
0001
0010
1000
0000
1000
0010
,  // measure 43
0001
0100
0010
1000
0100
0010
0001
0000
,  // measure 44
1000
0010
0100
0010
0000
1000
0100
0010
,  // measure 45
0000
0001
0100
1000
0100
0001
0010
0100
,  // measure 46
1000
0000
0000
0000
1000
0000
0010
0000
0001
0000
0000
0001
0000
0000
0010
0000
,  // measure 47
1000
0100
0010
0001
0100
0010
1000
0000
,  // measure 48
0001
0000
1000
0000
0100
1000
0100
1000
0100
0000
0010
0000
0001
0000
1000
0001
,  // measure 49
1000
0000
0000
0000
0001
0100
0001
0000
0010
0000
0100
0000
1000
0000
0010
0000
,  // measure 50
0100
0000
0001
0000
0010
0001
0010
0001
0010
0000
0100
0000
1000
0000
0001
0100
,  // measure 51
0001
0000
0000
0000
1000
0010
1000
0000
0100
0000
0010
0000
0001
0000
0100
0000
,  // measure 52
0010
0000
1000
0000
0001
1000
0001
1000
0001
0000
0100
0000
0010
0000
1000
0100
,  // measure 53
1000
0000
0000
0000
0001
0100
0001
0000
0010
0000
0100
0000
0010
0000
0001
0000
,  // measure 54
1000
0000
0100
0000
0010
0001
0010
0001
0010
0000
0001
0000
0100
0000
0010
1000
,  // measure 55
0010
0000
0000
0000
1000
0100
1000
0000
0010
0000
0100
0000
0001
0000
0010
0000
,  // measure 56
0012
0100
1000
0103
,  // measure 57
2001
0010
0100
3010
,  // measure 58
0120
1000
0001
0130
,  // measure 59
0201
0010
1000
0310
,  // measure 60
0001
0100
0001
0100
0010
1000
0010
1000
,  // measure 61
0001
0010
0001
0010
0100
1000
0100
1000
,  // measure 62
0001
0010
0100
1000
0010
0100
0001
0010
,  // measure 63
0001
0100
0001
0100
0010
1000
0010
1000
0100
0010
0100
0010
0001
0000
0000
0000
,  // measure 64
1001
0000
0000
0000
1000
0100
1000
0000
0001
0010
0001
0010
0100
1000
0100
1000
,  // measure 65
0001
0100
0001
0100
0010
1000
0100
0010
0100
0010
0100
0010
0100
0010
0100
0010
,  // measure 66
0001
0100
0001
0000
1000
0100
1000
0000
0001
0010
0001
0000
1000
0010
1000
0000
,  // measure 67
0001
1000
0001
0000
1000
0001
1000
0000
0010
0100
0010
0000
0100
0000
0000
0000
,  // measure 68
1001
0000
0000
1000
0100
1000
0001
0010
0001
1000
0010
1000
,  // measure 69
0001
0100
0001
0100
0010
1000
0010
1000
0010
1000
0010
1000
,  // measure 70
0001
0100
0010
1000
0100
0010
0001
0010
0100
1000
0010
0100
,  // measure 71
0001
0000
0000
0000
0010
0000
0000
0000
0001
0000
0000
0000
1000
0000
0000
0000
0010
0000
0000
0000
1000
0000
0000
0000
0100
0000
0000
0000
0000
0000
0000
0000
0000
1000
0000
0000
0001
0000
0000
0000
0000
0000
1000
0000
0000
0000
0000
0000
,  // measure 72
0020
0000
0000
0000
1030
0100
1000
0000
0001
0010
0001
0010
0100
1000
0100
1000
,  // measure 73
0001
0100
0001
0100
0010
1000
0100
0010
0100
0010
0100
0010
0100
0010
0100
0010
,  // measure 74
0001
0100
0001
0000
1000
0100
1000
0000
0001
0010
0001
0000
1000
0010
1000
0000
,  // measure 75
0001
0100
0001
0000
1000
0001
1000
0000
0001
1000
0001
0000
1000
0000
0010
0000
,  // measure 76
0200
0000
0000
0301
0010
0001
1000
0100
1000
0001
0010
0001
,  // measure 77
1000
0100
1000
0100
0010
0001
0010
0001
0010
0001
0010
0001
,  // measure 78
1000
0100
1000
0001
0100
0001
1000
0010
1000
0001
0010
0001
,  // measure 79
1000
0010
0100
0001
0020
0000
0032
0000
,  // measure 80
1003
0000
0000
0000
;

//---------------dance-single - ----------------
#NOTEDATA:;
#CHARTNAME:;
#STEPSTYPE:dance-single;
#DESCRIPTION:;
#CHARTSTYLE:;
#DIFFICULTY:Hard;
#METER:13;
#RADARVALUES:0.639664,0.775789,0.109622,0.101190,0.257191,531.000000,518.000000,13.000000,12.000000,0.000000,0.000000,0.000000,0.000000,0.000000,0.639664,0.775789,0.109622,0.101190,0.257191,531.000000,518.000000,13.000000,12.000000,0.000000,0.000000,0.000000,0.000000,0.000000;
#CREDIT:;
#OFFSET:0.000000;
#BPMS:0.000000=170.000000
;
#STOPS:;
#DELAYS:;
#WARPS:;
#TIMESIGNATURES:0.000000=4=4
;
#TICKCOUNTS:0.000000=4
;
#COMBOS:0.000000=1
;
#SPEEDS:0.000000=1.000000=0.000000=0
;
#SCROLLS:0.000000=1.000000
;
#FAKES:;
#LABELS:0.000000=Song Start
;
#NOTES:
0000
0000
0000
0000
,
0000
0000
0000
0000
,
0000
0000
0000
0000
,
0000
0000
0000
0000
,
0001
0000
1001
0000
1000
0100
0010
0001
,
0000
0001
0100
0010
0000
1000
0000
1000
,
0010
0000
0110
0000
0100
0001
0010
0100
,
0000
0100
0000
0100
1000
0010
0100
0001
,
0010
0000
1001
0000
,
0100
0000
1001
0000
,
0010
0000
1001
0000
,
0100
0000
1001
0000
,
1000
0010
1000
0010
0100
0001
0100
0001
,
1000
0100
1000
0100
0010
0001
1000
0100
,
0001
0100
1000
0100
0001
0100
1000
0010
,
0100
0001
0010
0100
1000
0000
0000
0000
,
0001
0000
0000
0001
0100
0000
0010
0000
1000
0000
0000
1000
0100
0000
0010
0000
,
0001
0000
0000
0001
0010
0000
0100
0000
0010
0000
0001
0000
1000
0000
0010
0000
,
0100
0000
0000
0100
0001
0000
0010
0000
0100
0000
0000
0100
1000
0000
0001
0000
,
0010
0000
0000
0010
0001
0000
0100
0000
0010
0000
1000
0000
0100
0000
0000
0000
,
0010
0000
0000
0010
0001
0000
0100
0000
0010
0000
0000
0010
1000
0000
0001
0000
,
0100
0000
0000
0100
0010
0000
1000
0000
0001
0000
0010
0000
0100
0000
1000
0000
,
0001
0000
0000
0001
0100
0000
0010
0000
1000
0000
0000
1000
0100
0000
0010
0000
,
0001
0000
0000
0001
1000
0000
0100
0000
2000
0000
0000
0000
3002
0000
0000
0000
,
0013
0000
0000
0010
0100
0000
1000
0000
0001
0000
0000
0001
1000
0000
0100
0000
,
0010
0000
0000
0010
0001
0000
0100
0000
0001
0000
0010
0000
0100
0000
1000
0000
,
0001
0000
0000
0001
0100
0000
0010
0000
1000
0000
0000
1000
0100
0000
0010
0000
,
0001
0000
0001
0000
0001
0000
0100
0001
0100
0000
0100
0000
0100
0000
0000
0000
,
0010
0000
0000
0010
1000
0000
0100
0000
0010
0000
0000
0010
0001
0000
0100
0000
,
0001
0000
0001
0000
1000
0001
1000
0000
0010
0000
0100
0000
0110
0000
0000
0000
,
1000
0000
1000
0010
0001
0000
0001
0010
,
1000
0000
1000
0100
0020
0000
0032
0000
,
0103
0000
0110
0000
0010
1000
0001
0010
,
0000
0010
0001
0100
0000
0010
0000
0010
,
1000
0000
1001
0000
0001
0010
0100
1000
,
0000
1000
0000
1000
0010
0100
0001
0010
,
0100
0000
0110
0000
0010
0001
1000
0010
,
0000
0010
0100
0001
0000
1000
0000
1000
,
0100
0000
1001
0000
1000
0100
0010
0001
,
0000
0001
0000
0001
0100
0010
1000
0100
,
0010
0000
0010
0001
0000
0001
0100
0010
,
0000
1000
0100
0010
0001
0010
0100
1000
,
0001
0000
0001
0010
1000
0000
1000
0010
,
0001
0100
0010
1000
0000
1000
0001
0000
,
1000
0000
1000
0010
0000
0010
0100
0001
,
0000
1000
0010
0100
0001
0100
0010
1000
,
0001
0000
0000
0000
0001
0000
1000
0000
0100
0000
0000
0010
0000
0000
0001
0000
,
0100
0010
1000
0100
0001
0100
1000
0000
,
0001
0100
0010
0010
1000
0100
0010
0001
,
0100
0000
0010
1000
0100
0100
0010
0001
,
0100
0010
1000
1000
0001
0100
0010
0100
,
0001
0000
1000
0100
0010
0010
0100
1000
,
0001
0100
0010
0100
0001
0001
0010
0100
,
1000
0000
0010
0100
0010
0010
1000
0100
,
0010
0001
0100
0100
0001
0010
0100
1000
,
0010
0000
0100
0001
0010
0010
0001
1000
,
0200
0010
0010
0310
,
0020
0001
0001
0001
,
0032
1000
1000
1003
,
2000
0010
0010
3010
,
1000
0001
1000
0001
1000
0001
1000
0001
,
0010
0100
0010
0100
0010
0100
0010
0100
,
1000
0010
1000
0010
0100
0001
0100
0001
,
1000
0001
1000
0001
1000
0001
1000
0001
1000
0001
1000
0001
1000
0000
0000
0000
,
1001
0000
0001
0100
0010
0001
0010
1000
,
0100
0010
1000
0010
0001
0100
0010
1000
,
0100
0000
1000
0000
0001
1000
0001
0000
0100
0000
0001
0000
0010
0001
0010
0000
,
0100
0000
1000
0000
0010
0100
0010
0000
1000
0000
0001
0000
0100
0000
0000
0000
,
0110
0000
0000
1000
0000
1000
0010
0000
0010
0100
0000
0100
,
0001
0000
0001
0010
0000
0010
0100
0000
0100
1000
0000
1000
,
0001
0100
0001
0100
0000
0000
0010
1000
0010
1000
0000
0000
,
1000
0000
0000
0000
0100
0000
0000
0000
1000
0000
0000
0000
0100
0000
0000
0000
0000
0000
0000
0000
0000
0000
0000
0000
0010
0000
0000
0000
0000
0000
0000
0000
0000
0001
0000
0000
1000
0000
0000
0000
0000
0000
0001
0000
0000
0000
0000
0000
,
0020
0000
0130
1000
0100
0001
0100
1000
,
0010
0100
0001
0010
1000
0010
0001
0100
,
0010
0000
1000
0000
0001
0100
0001
0000
1000
0000
0010
0000
1000
0100
1000
0000
,
0001
0000
0100
0000
0001
0010
0001
0000
1000
0000
0100
0000
0010
0000
0001
0000
,
0200
0000
0000
0310
0000
0010
1000
0000
1000
0001
0000
0001
,
0100
0000
0100
0001
0000
0001
0010
0000
0010
0100
0000
0100
,
1000
0010
1000
0010
0000
0000
0100
0001
0100
0001
0000
0000
,
0001
0010
0001
0010
0000
0000
0200
0000
0000
2300
0000
0000
,
3010
0000
0000
0000
;

//---------------dance-single - ----------------
#NOTEDATA:;
#CHARTNAME:;
#STEPSTYPE:dance-single;
#DESCRIPTION:;
#CHARTSTYLE:;
#DIFFICULTY:Medium;
#METER:9;
#RADARVALUES:0.410783,0.505949,0.219245,0.101190,0.016865,341.000000,315.000000,26.000000,12.000000,0.000000,0.000000,0.000000,0.000000,0.000000,0.410783,0.505949,0.219245,0.101190,0.016865,341.000000,315.000000,26.000000,12.000000,0.000000,0.000000,0.000000,0.000000,0.000000;
#CREDIT:;
#NOTES:
0000
0000
0000
0000
,
0000
0000
0000
0000
,
0000
0000
0000
0000
,
0000
0000
0000
0000
,
0000
0000
0000
0000
,
0000
0000
0000
0000
,
0000
0000
0000
0000
,
0000
0000
0000
0000
,
1001
0000
1001
0000
,
1001
0000
1001
0000
,
0110
0000
0110
0000
,
0110
0000
0110
0000
,
1000
0100
0010
0001
,
1000
0000
0010
0000
0100
0000
0001
1000
,
0001
1000
0001
1000
0001
1000
0001
1000
,
0002
0000
1003
0000
,
1000
0000
1000
0100
0010
0000
0010
0100
,
1000
0000
0001
0100
0010
0000
1000
0000
,
0001
0000
0001
0100
0010
0000
0010
0100
,
0001
0000
1000
0100
0010
0000
1001
0000
,
0001
0000
0001
0010
0100
0000
0100
0010
,
0001
0000
1000
0010
0100
0000
0001
0000
,
1000
0000
1000
0010
0100
0000
0100
0010
,
1000
0000
0001
0010
0200
0000
2300
0000
,
3001
0101
1000
1100
,
0001
0000
0011
0000
1000
0100
0010
0001
,
1000
1100
0001
0101
,
1000
0000
1010
0000
0001
0100
0010
0000
,
1000
1001
0001
1001
,
1000
0000
1010
0000
0001
0100
0010
1000
,
0001
0001
1000
1000
,
0002
0023
0230
2300
,
3010
0000
0010
0000
0010
0000
0100
0001
,
0000
0001
0000
0100
0000
0010
0000
1000
,
0100
0000
0100
0000
0100
0000
0010
0001
,
0000
0001
0000
1000
0000
0010
0100
0000
,
0001
0000
0001
0000
0001
0000
1000
0100
,
0000
0100
0000
1000
0000
0010
0000
0100
,
0010
0000
0010
0000
0010
0000
1000
0001
,
0000
0001
0000
1000
0000
0100
0010
0000
,
0001
0100
1001
1000
,
0100
0010
1001
0001
,
0100
0100
0110
1000
,
0010
0010
0110
1000
,
0001
0000
0010
0000
0001
0000
1000
0001
,
1000
0010
0100
0010
,
1000
0000
0100
0000
1000
0000
0001
0100
,
0001
0010
0001
1000
,
0001
0100
0001
0000
1000
0010
1000
0000
,
0001
0001
1001
1000
,
0010
0100
0010
0000
1000
0100
1000
0000
,
0010
0010
0110
0100
,
0001
0010
0001
0000
1000
0010
1000
0000
,
0100
0100
0110
0010
,
0001
1000
0001
0000
1000
0100
1000
0000
,
0001
0001
1001
1000
,
0020
0000
0000
0000
,
0000
0000
0000
0000
,
0000
0000
0000
0000
,
0000
0000
0000
0000
,
0130
0100
0100
0100
,
0010
0010
0010
0010
,
1000
0100
0010
0001
,
1000
0010
1000
0010
1000
0001
1000
0000
,
0001
1000
0100
0001
,
0100
1000
0010
0001
,
0010
0000
1000
0000
0001
0100
0001
0100
,
0010
0000
1000
0000
0100
0010
0100
0000
,
1000
0001
0001
0100
,
0010
1000
1000
1000
,
0001
0000
0001
0100
0000
0000
0010
0000
0000
1000
0000
0000
,
0100
0000
0000
0000
0100
0000
0010
0000
0000
0000
0000
0000
0001
0000
0000
0000
0000
0000
1000
0000
0000
0001
0000
0000
,
2000
3001
0010
1000
,
0010
0001
0100
1000
,
0100
0000
0001
0000
0010
0100
0010
0100
,
1000
0000
0010
0000
0100
0001
0010
0001
,
2000
3010
0010
0100
,
0001
1000
1000
1000
,
0010
0000
0010
0100
0000
0000
0001
0000
0000
1000
0000
0000
,
0100
0000
0100
0010
0000
0000
0002
0000
0000
2003
0000
0000
,
3010
0000
0000
0000
;

//---------------dance-single - ----------------
#NOTEDATA:;
#CHARTNAME:;
#STEPSTYPE:dance-single;
#DESCRIPTION:;
#CHARTSTYLE:;
#DIFFICULTY:Easy;
#METER:6;
#RADARVALUES:0.233700,0.371029,0.059027,0.177082,0.000000,194.000000,187.000000,7.000000,21.000000,0.000000,0.000000,0.000000,0.000000,0.000000,0.233700,0.371029,0.059027,0.177082,0.000000,194.000000,187.000000,7.000000,21.000000,0.000000,0.000000,0.000000,0.000000,0.000000;
#CREDIT:;
#NOTES:
0000
0000
0000
0000
,
0000
0000
0000
0000
,
0000
0000
0000
0000
,
0000
0000
0000
0000
,
0000
0000
0000
0000
,
0000
0000
0000
0000
,
0000
0000
0000
0000
,
0000
0000
0000
0000
,
1000
0000
1000
0000
,
0001
0000
0001
0000
,
1000
0000
1000
0000
,
0001
0000
0001
0000
,
1000
1000
1000
1000
,
0001
0001
0001
0001
,
0010
0100
1000
0001
,
0020
0000
0130
0000
,
1000
0010
1000
0010
,
0100
0001
0010
0010
,
0100
1000
0001
1000
,
0010
0100
0001
0001
,
1000
0100
0010
0100
,
1000
0001
0010
0010
,
0001
0100
0010
1000
,
0100
0010
0002
2003
,
3001
0101
0000
1000
,
0010
0110
0000
1000
,
0100
0110
0000
0001
,
1000
1001
1000
0010
,
0100
0110
0000
0001
,
1000
1001
0001
0100
,
0020
0000
0000
0000
,
0000
0000
0000
0000
,
1030
0000
0000
0000
,
0000
0000
0000
0000
,
0001
0000
0000
0000
,
0000
0000
0000
1000
,
0001
0000
0000
0000
,
0000
0000
0000
0000
,
1000
0000
0000
0000
,
0000
0000
0000
0001
,
1000
0000
0010
0000
,
1000
0000
0010
0000
,
0100
0000
0001
0000
,
0100
0000
0001
0000
,
1000
0000
0100
0000
,
1000
0000
0100
0000
,
0010
0000
0001
0000
,
0010
0000
0001
0000
,
1000
0000
0001
0100
,
0000
0100
0010
0100
,
0001
0000
0010
0001
,
0000
1000
0001
1000
,
0010
0000
0100
0001
,
0000
1000
0001
0100
,
0010
0000
1000
0100
,
0000
0010
0001
1000
,
0002
0000
0000
0000
,
0000
0000
0000
0000
,
0000
0000
0000
0000
,
0000
0000
0000
0000
,
1003
1000
1000
1000
,
0001
0001
0001
0001
,
1000
1000
0001
0001
,
1000
0100
0010
0001
,
1000
0002
0203
0000
,
0320
0000
0000
2030
0000
0000
0000
0000
,
3200
0000
0000
0000
,
0320
0000
0000
0031
,
1000
0001
0010
0100
,
1000
0010
0100
0001
,
1000
0010
1000
0001
,
1000
0100
1000
1001
,
0002
0203
0320
0000
,
2030
0000
0000
3200
0000
0000
0000
0000
,
0320
0000
0000
0000
,
0032
0000
0000
1003
,
2000
3001
0010
0100
,
1000
0010
0100
0001
,
1000
0100
1000
0001
,
1000
0010
2000
3002
,
0103
0000
0000
0000
;

//---------------dance-single - ----------------
#NOTEDATA:;
#CHARTNAME:;
#STEPSTYPE:dance-single;
#DESCRIPTION:;
#CHARTSTYLE:;
#DIFFICULTY:Beginner;
#METER:2;
#RADARVALUES:0.126487,0.168650,0.000000,0.025297,0.000000,105.000000,105.000000,0.000000,3.000000,0.000000,0.000000,0.000000,0.000000,0.000000,0.126487,0.168650,0.000000,0.025297,0.000000,105.000000,105.000000,0.000000,3.000000,0.000000,0.000000,0.000000,0.000000,0.000000;
#CREDIT:;
#NOTES:
0000
0000
0000
0000
,
0000
0000
0000
0000
,
0000
0000
0000
0000
,
0000
0000
0000
0000
,
0000
0000
0000
0000
,
0000
0000
0000
0000
,
0000
0000
0000
0000
,
0000
0000
0000
0000
,
1000
0000
0000
0000
,
1000
0000
0000
0000
,
1000
0000
0000
0000
,
1000
0000
0000
0000
,
0001
0000
0000
0000
,
0001
0000
0000
0000
,
0001
0000
0000
0000
,
0002
0000
0003
0000
,
1000
0000
1000
0000
,
0001
0000
0001
0000
,
0100
0000
0100
0000
,
0010
0000
0010
0000
,
1000
0000
1000
0000
,
0010
0000
0010
0000
,
0100
0000
0100
0000
,
0001
0000
0001
0000
,
0000
1000
0000
0001
,
0000
1000
0000
0001
,
0000
0100
0000
0010
,
0000
0100
0000
0010
,
0000
1000
0000
0010
,
0000
1000
0000
0010
,
0000
0100
0000
0001
,
0002
0000
0000
0000
,
0003
0000
0000
0000
,
0000
0000
0000
0000
,
0000
0000
0000
0000
,
0000
0000
0000
0000
,
0000
0000
0000
0000
,
0000
0000
0000
0000
,
0000
0000
0000
0000
,
0000
0000
0000
0000
,
1000
0000
0001
0000
,
0000
1000
0010
0000
,
1000
0000
0100
0000
,
0000
1000
0001
0000
,
0001
0000
0100
0000
,
0000
0001
0010
0000
,
0001
0000
1000
0000
,
0000
0010
1000
0000
,
0001
0000
1000
0000
,
0010
0000
0100
0000
,
0001
0000
0100
0000
,
0001
0000
0010
0000
,
0001
0000
1000
0000
,
0100
0000
1000
0000
,
0010
0000
1000
0000
,
0001
0000
0100
0000
,
0002
0000
0000
0000
,
0000
0000
0000
0000
,
0000
0000
0000
0000
,
0000
0000
0000
0000
,
1000
0000
0000
0000
,
0000
0000
0000
0000
,
1000
0000
0000
0000
,
0000
0000
0000
1003
,
1000
0000
0010
0000
,
1000
0000
0010
0000
,
1000
0000
0000
0000
,
0001
0000
0000
0100
,
0100
0000
0001
0000
,
0100
0000
0001
0000
,
1000
0000
0000
0000
,
0010
0000
0000
0100
,
0100
0000
0001
0000
,
1000
0000
0010
0000
,
0100
0000
0000
0000
,
0010
0000
0000
1000
,
1000
0000
0001
0000
,
0010
0000
0100
0000
,
1000
0000
0000
0000
,
0010
0000
1000
0001
,
1000
0000
0000
0000
;
