#VERSION:0.83;
#TITLE:Try 2 Luv. U -SF Electro House Mix-;
#SUBTITLE:;
#ARTIST:S.F.M.P.;
#TITLETRANSLIT:;
#SUBTITLETRANSLIT:;
#ARTISTTRANSLIT:;
#GENRE:ELECTRO HOUSE POP;
#ORIGIN:;
#CREDIT:;
#BANNER:Try 2 Luv. U -SF Electro House Mix-.png;
#BACKGROUND:Try 2 Luv. U -SF Electro House Mix--bg.png;
#PREVIEWVID:;
#JACKET:Try 2 Luv. U -SF Electro House Mix--jacket.png;
#CDIMAGE:;
#DISCIMAGE:;
#LYRICSPATH:;
#CDTITLE:cdtitle.png;
#MUSIC:Try 2 Luv. U -SF Electro House Mix-.ogg;
#OFFSET:-0.060000;
#SAMPLESTART:50.751999;
#SAMPLELENGTH:14.525000;
#SELECTABLE:YES;
#BPMS:0.000=132.000;
#STOPS:;
#DELAYS:;
#WARPS:;
#TIMESIGNATURES:0.000=4=4;
#TICKCOUNTS:0.000=4;
#COMBOS:0.000=1;
#SPEEDS:0.000=1.000=0.000=0;
#SCROLLS:0.000=1.000;
#FAKES:;
#LABELS:0.000=Song Start;
#BGCHANGES:;
#KEYSOUNDS:;
#ATTACKS:
;

//---------------dance-single - ----------------
#NOTEDATA:;
#CHARTNAME:;
#STEPSTYPE:dance-single;
#DESCRIPTION:;
#CHARTSTYLE:;
#DIFFICULTY:Hard;
#METER:11;
#RADARVALUES:0.478421,0.508241,0.090757,0.099833,0.226893,369.000000,359.000000,10.000000,11.000000,0.000000,0.000000,0.000000,0.000000,0.000000,0.478421,0.508241,0.090757,0.099833,0.226893,369.000000,359.000000,10.000000,11.000000,0.000000,0.000000,0.000000,0.000000,0.000000;
#CREDIT:;
#NOTES:
0000
0000
0000
0000
,
0000
0000
0000
0000
,
0000
0000
0000
0000
,
0000
0000
0000
0000
1000
0100
0010
0001
,
0100
0100
0010
1000
0000
0001
0010
0200
,
0000
0000
0000
0300
0010
0001
0010
1000
,
0010
0000
0001
0000
1000
0010
0100
0010
,
1000
1000
0100
0010
0001
1000
1001
0000
,
0001
0010
1000
0010
0100
0010
0001
1000
,
0010
0100
0010
1000
0001
0000
1000
0010
,
0100
0001
0100
1000
0100
0010
1000
0001
,
0100
0010
0001
0010
1000
0000
0001
0100
,
0001
0010
0100
0100
0010
0001
1000
1000
,
0001
0000
0100
0000
0010
0000
1000
0000
0100
0000
0010
0001
0000
0001
0100
0000
,
0010
1000
0100
1000
0001
0010
1000
0010
,
0001
0000
0000
0001
0000
0000
1000
0000
0000
1000
0000
0000
0001
0000
0010
0000
0100
0000
1000
0000
0000
0000
0000
0000
,
1000
0000
1001
0000
0001
0000
0000
0000
1000
0100
0000
0100
0010
0000
0000
0000
,
0001
0000
0100
0000
0010
0000
1000
0000
0010
0100
0000
0100
0001
0000
0000
0000
,
0100
0000
0110
0000
0010
0000
0000
0000
1000
0000
0001
0100
0001
0000
0000
0000
,
0001
0000
0000
0000
0010
0000
0000
0000
0001
0000
0000
0000
1000
0000
0000
0000
0100
0000
0000
0000
1000
0000
0000
0000
0001
0000
0000
0000
0000
0000
0000
0000
0000
0101
0000
0000
0000
0000
0000
0000
0000
0000
0000
0000
0000
0000
0000
0000
,
1000
0000
1100
0000
0100
0000
0000
0000
0010
0001
0000
0001
0100
0000
0000
0000
,
0001
0010
0000
0010
0100
0000
1000
0000
0100
0001
0000
0100
1000
0000
0000
0000
,
0001
0000
0101
0000
0100
0000
0000
0000
0010
0000
1000
0100
1000
0000
0000
0000
,
0001
0000
0000
0000
0100
0000
0000
0000
0001
0000
0000
0000
1000
0000
0000
0000
0010
0000
0000
0000
1000
0000
0000
0000
0100
0000
0000
0000
0000
0000
0000
0000
0000
0110
0000
0000
0000
0000
0000
0010
0000
0000
0001
0000
0000
0000
0000
0000
,
1000
0000
0000
0000
0001
0000
0000
0000
1000
0010
0000
1000
0001
0000
0000
0000
,
0100
0000
0000
0001
0000
0000
1000
0001
0010
0100
0000
0000
,
0010
0001
0010
0000
0100
0000
0010
0001
0010
0000
0100
0000
1000
0000
0000
0000
,
0010
1000
0010
0000
0100
0000
0010
1000
0010
0000
0100
0000
0001
0000
2000
0000
,
0000
3100
0010
0001
0100
0010
0000
0000
,
1000
0100
0001
0100
1000
0000
0001
0000
,
1000
0100
0001
1000
0010
0001
1000
0100
,
0001
1000
0010
0001
0000
0100
0010
0100
,
0001
0010
1000
0010
0001
0000
1000
0000
,
0010
1000
0100
1000
0001
0000
1000
0000
,
0001
0010
1000
0001
0100
1000
0001
0010
,
1000
0001
0100
1000
0000
0001
0100
0020
,
0000
1030
0100
0010
0001
0100
0000
0000
,
0001
0100
1000
0100
0001
0000
1000
0000
,
0001
0010
0100
0001
0100
1000
0010
0100
,
1000
0001
0010
1000
0000
0100
0010
0001
,
0100
0010
1000
0100
0010
0000
0001
0000
,
1000
0100
0001
0100
1000
0000
0001
0000
,
1000
0010
0100
1000
0100
0001
0010
0100
,
0001
0000
1000
0000
0010
0000
0001
0000
0100
0000
0001
0000
1000
0000
0001
1000
,
0001
0000
0000
0000
0000
1000
0000
0010
0000
0000
0000
0000
0000
0100
0000
0001
,
0000
0000
0010
0000
0000
0100
0000
1000
0000
0000
0000
0000
0000
0001
0000
0000
,
1000
0000
0000
0000
0000
0010
0000
0100
0000
0000
0000
0000
0000
0010
0000
1000
,
0000
0000
0100
0000
0000
0010
0000
0001
1000
0000
0100
0000
0001
0000
0100
0000
,
1000
0000
0001
0100
0010
0000
1000
0100
,
0010
0000
0001
1000
0001
0000
0100
0000
,
0110
2000
3020
0230
,
0302
0000
1003
0010
1000
0100
0001
0100
,
1000
0000
0001
0010
0001
0000
1000
0010
,
0100
0000
0001
1000
0100
0000
1000
0000
,
1001
0002
0023
0230
,
2300
0000
0000
0000
3001
0000
0100
0000
0001
0000
1000
0000
0100
0010
0000
0000
,
1001
0000
0000
0000
;

//---------------dance-single - ----------------
#NOTEDATA:;
#CHARTNAME:;
#STEPSTYPE:dance-single;
#DESCRIPTION:;
#CHARTSTYLE:;
#DIFFICULTY:Medium;
#METER:8;
#RADARVALUES:0.324133,0.355769,0.145212,0.018151,0.000000,250.000000,234.000000,16.000000,2.000000,0.000000,0.000000,0.000000,0.000000,0.000000,0.324133,0.355769,0.145212,0.018151,0.000000,250.000000,234.000000,16.000000,2.000000,0.000000,0.000000,0.000000,0.000000,0.000000;
#CREDIT:;
#NOTES:
0000
0000
0000
0000
,
0000
0000
0000
0000
,
0000
0000
0000
0000
,
0000
0000
0000
0000
,
1000
0000
0001
0000
0000
0000
0000
0010
,
0000
0000
0100
1000
0000
0000
0000
0000
,
0001
0000
1000
0000
0000
0000
0000
0010
,
0000
0000
0100
0001
0100
0000
1001
0000
,
0001
0000
0010
0000
0100
0000
1000
0010
,
1000
0100
0010
0001
,
1000
0000
0010
0000
0100
0000
0001
1000
,
0001
0000
0010
0000
0100
0000
1000
0010
,
1000
0000
0100
0000
1000
0001
1000
0000
,
0001
0000
0100
0000
0001
1000
0001
0000
,
1000
0000
0010
0000
1000
0001
1000
0000
,
0001
0000
0010
0000
0001
0001
1000
0000
,
0010
1001
1000
0100
,
1000
1010
0001
0100
,
0001
0011
1000
0010
,
1000
0001
1000
0001
1000
0000
0010
0000
,
0100
1001
0001
0010
,
0001
0000
1001
0000
1000
0010
1000
0000
,
0100
0000
0110
0000
0010
0001
1000
0000
,
0001
1000
0001
1000
0001
0000
0100
0000
,
0020
0000
0000
0000
,
2030
0000
0000
0000
3001
1000
0001
0000
,
1000
0100
1000
0000
0001
0100
0001
0000
,
1000
0100
0010
0000
0001
1000
0001
0000
,
1000
0000
1001
0000
0001
0000
0100
0010
,
0000
1000
0100
0010
0000
0001
0100
0000
,
0001
0000
1001
0000
1000
0000
0100
0010
,
0000
0001
0100
0010
0000
1000
0100
0000
,
1000
0000
1001
0000
0001
0000
0010
0100
,
0000
1000
0001
1000
0000
0001
0100
0000
,
0001
0000
1001
0000
1000
0000
0010
0100
,
0000
0001
1000
0001
0000
1000
0100
0000
,
1000
0000
1001
0000
0001
0000
0010
0100
,
0000
1000
0010
1000
0000
0001
0010
0000
,
0001
0000
1001
0000
1000
0000
0010
0100
,
0000
0001
0010
0001
0000
1000
0010
0000
,
1000
0000
1001
0000
0001
0000
1000
0100
,
0000
1000
0001
1000
0000
0001
0100
0000
,
0001
0000
1001
0000
1000
0000
0001
0100
,
0000
0001
1000
0001
0000
1000
0100
0000
,
1000
0000
0001
0000
,
1000
0000
0001
0000
,
0100
0000
0010
0000
,
0100
0000
0010
0000
,
1000
0000
0001
0000
1000
0000
0010
0100
,
0010
0000
1000
0000
0001
0000
0100
0001
,
0100
0000
0010
0000
1000
0000
0001
0010
,
0001
0000
1000
0000
0010
0000
1000
0100
,
1000
0000
0010
0000
0100
0000
0001
0010
,
0001
0000
1000
0000
0001
0000
1000
0010
,
1000
0000
0100
0000
0010
0000
0001
1000
,
0001
1000
0010
0100
,
1001
0000
0000
0000
;

//---------------dance-single - ----------------
#NOTEDATA:;
#CHARTNAME:;
#STEPSTYPE:dance-single;
#DESCRIPTION:;
#CHARTSTYLE:;
#DIFFICULTY:Easy;
#METER:5;
#RADARVALUES:0.220411,0.254120,0.018151,0.018151,0.000000,170.000000,168.000000,2.000000,2.000000,0.000000,0.000000,0.000000,0.000000,0.000000,0.220411,0.254120,0.018151,0.018151,0.000000,170.000000,168.000000,2.000000,2.000000,0.000000,0.000000,0.000000,0.000000,0.000000;
#CREDIT:;
#NOTES:
0000
0000
0000
0000
,
0000
0000
0000
0000
,
0000
0000
0000
0000
,
0000
0000
0000
0000
,
1000
0001
0000
0001
,
1000
0001
0000
0000
,
1000
0001
0000
0001
,
1000
0001
0000
1001
,
1000
1000
0010
0010
,
0100
0100
0001
0010
,
0001
0001
0100
0100
,
0010
0010
1000
0001
,
1000
1000
0010
0010
,
0100
0100
0001
0001
,
1000
1000
0100
0100
,
0010
0000
0010
0000
0001
1000
0001
0000
,
1000
0100
0000
1000
,
0000
0001
0100
0001
,
1000
0010
0000
1000
,
0001
0010
0001
1000
,
0001
0100
0000
0001
,
0000
1000
0100
1000
,
0001
0010
0000
0001
,
1000
0010
1000
0001
,
2000
0000
0000
0000
,
3002
0000
0000
0000
,
0103
0000
0100
0000
,
0010
0000
0010
0000
,
1000
0001
0000
0010
,
0100
1000
0000
0010
,
0100
0001
0000
1000
,
0001
1000
0000
0010
,
1000
0100
0000
1000
,
0001
0100
0000
0001
,
0010
0001
0000
1000
,
0010
1000
0001
1000
,
0001
0010
0000
0001
,
1000
0010
0000
1000
,
0100
1000
0000
0001
,
0100
0001
0000
1000
,
0010
0100
0000
0001
,
0010
0100
0000
1000
,
0001
0100
0000
0001
,
1000
0100
1000
0001
,
1000
0000
0010
0000
,
0100
0000
0001
0000
,
0010
0000
0100
0000
,
1000
0000
0001
0001
,
1000
0100
0010
0100
,
1000
0010
0100
0001
,
0010
0100
0010
0001
,
0100
0010
1000
0001
,
1000
0010
0100
0010
,
1000
0100
0010
0001
,
0100
0010
0100
0001
,
0010
0100
1000
0001
,
1001
0000
0000
0000
;

//---------------dance-single - ----------------
#NOTEDATA:;
#CHARTNAME:;
#STEPSTYPE:dance-single;
#DESCRIPTION:;
#CHARTSTYLE:;
#DIFFICULTY:Beginner;
#METER:2;
#RADARVALUES:0.107612,0.152472,0.000000,0.000000,0.000000,83.000000,83.000000,0.000000,0.000000,0.000000,0.000000,0.000000,0.000000,0.000000,0.107612,0.152472,0.000000,0.000000,0.000000,83.000000,83.000000,0.000000,0.000000,0.000000,0.000000,0.000000,0.000000,0.000000;
#CREDIT:;
#NOTES:
// measure 0
0000
0000
0000
0000
,  // measure 1
0000
0000
0000
0000
,  // measure 2
0000
0000
0000
0000
,  // measure 3
0000
0000
0000
0000
,  // measure 4
1000
1000
0000
0000
,  // measure 5
0001
0001
0000
0000
,  // measure 6
1000
1000
0000
0000
,  // measure 7
0001
0001
0000
0100
,  // measure 8
0001
0000
0000
0000
,  // measure 9
0010
0000
0000
0000
,  // measure 10
0001
0000
0000
0000
,  // measure 11
1000
0000
0000
0000
,  // measure 12
0010
0000
0000
0000
,  // measure 13
1000
0000
0000
0000
,  // measure 14
0100
0000
0000
0000
,  // measure 15
1000
0000
0001
0000
,  // measure 16
1000
0000
0000
0000
,  // measure 17
0010
0000
0000
0000
,  // measure 18
0100
0000
0000
0000
,  // measure 19
0001
0000
0000
0000
,  // measure 20
1000
0000
0000
0000
,  // measure 21
0100
0000
0000
0000
,  // measure 22
0010
0000
0000
0000
,  // measure 23
0001
0000
0000
0000
,  // measure 24
1000
0000
0000
0000
,  // measure 25
0001
0000
0000
0000
,  // measure 26
1000
0000
0000
0000
,  // measure 27
0001
0000
0000
0000
,  // measure 28
1000
0000
1000
0000
,  // measure 29
0001
0000
0001
0000
,  // measure 30
1000
0000
1000
0000
,  // measure 31
0001
0000
0001
0000
,  // measure 32
0100
0000
0100
0000
,  // measure 33
0010
0000
0010
0000
,  // measure 34
0100
0000
0100
0000
,  // measure 35
0010
0000
0010
0000
,  // measure 36
1000
0000
1000
0000
,  // measure 37
0001
0000
0001
0000
,  // measure 38
1000
0000
1000
0000
,  // measure 39
0001
0000
0001
0000
,  // measure 40
0010
0000
0010
0000
,  // measure 41
0100
0000
0100
0000
,  // measure 42
0010
0000
0010
0000
,  // measure 43
0100
0000
0100
0000
,  // measure 44
1000
0000
0000
0000
,  // measure 45
0000
0000
0000
0000
,  // measure 46
0001
0000
0000
0000
,  // measure 47
0000
0000
1000
0001
,  // measure 48
1000
0000
1000
0000
,  // measure 49
1000
0000
1000
0000
,  // measure 50
0001
0000
0001
0000
,  // measure 51
0001
0000
0001
0000
,  // measure 52
0100
0000
0100
0000
,  // measure 53
0100
0000
0100
0000
,  // measure 54
0010
0000
0010
0000
,  // measure 55
0010
0000
0010
0000
,  // measure 56
1000
0000
0000
0000
;
