#VERSION:0.83;
#TITLE:The Silence;
#SUBTITLE:;
#ARTIST:Sta;
#TITLETRANSLIT:;
#SUBTITLETRANSLIT:;
#ARTISTTRANSLIT:;
#GENRE:DRUM'N'BASS;
#ORIGIN:;
#CREDIT:;
#BANNER:The Silence.png;
#BACKGROUND:The Silence-bg.png;
#PREVIEWVID:;
#JACKET:The Silence-jacket.png;
#CDIMAGE:;
#DISCIMAGE:;
#LYRICSPATH:;
#CDTITLE:cdtitle.png;
#MUSIC:The Silence.ogg;
#OFFSET:-0.240000;
#SAMPLESTART:53.292854;
#SAMPLELENGTH:11.707272;
#SELECTABLE:YES;
#BPMS:0.000=165.000;
#STOPS:129.000=5.818;
#DELAYS:;
#WARPS:;
#TIMESIGNATURES:0.000=4=4;
#TICKCOUNTS:0.000=4;
#COMBOS:0.000=1;
#SPEEDS:0.000=1.000=0.000=0;
#SCROLLS:0.000=1.000;
#FAKES:;
#LABELS:0.000=Song Start;
#BGCHANGES:0.000=The Silence.avi=1.000=0=0=1===CrossFade_Fastest==,
99999=-nosongbg-=1.000=0=0=0 // don't automatically add -songbackground-
;
#KEYSOUNDS:;
#ATTACKS:
;

//---------------dance-single - ----------------
#NOTEDATA:;
#CHARTNAME:;
#STEPSTYPE:dance-single;
#DESCRIPTION:;
#CHARTSTYLE:;
#DIFFICULTY:Hard;
#METER:14;
#RADARVALUES:0.624400,0.784311,0.085367,0.110977,0.640254,512.000000,502.000000,10.000000,13.000000,0.000000,0.000000,0.000000,0.000000,0.000000,0.624400,0.784311,0.085367,0.110977,0.640254,512.000000,502.000000,10.000000,13.000000,0.000000,0.000000,0.000000,0.000000,0.000000;
#CREDIT:;
#NOTES:
// measure 0
0000
0000
0000
0000
,  // measure 1
0000
0000
0000
0000
,  // measure 2
0000
0000
0000
0000
,  // measure 3
0000
0000
0000
0000
,  // measure 4
1000
1000
0001
0010
0000
0001
1000
0000
,  // measure 5
0001
0001
1000
0010
0000
1000
0001
0000
,  // measure 6
1000
1000
0001
0100
0000
0001
1000
0100
,  // measure 7
0010
0001
0010
0000
0001
1000
0000
0000
0010
0000
1000
0000
0001
1000
0001
2000
,  // measure 8
0000
0000
0000
0000
3001
0000
1010
1000
,  // measure 9
0000
0000
0001
0000
0010
0000
0100
0010
,  // measure 10
0000
0000
1001
0000
1000
0000
0110
0010
,  // measure 11
0000
0000
0000
0000
0100
0000
0000
0000
0001
0000
0010
0001
0010
0000
0001
1000
,  // measure 12
0000
0100
0010
0100
0010
0001
0000
1000
0010
0000
0000
0000
0110
0000
0100
0000
,  // measure 13
0000
0000
0001
0000
1000
0000
0100
0010
,  // measure 14
0000
0000
0000
0000
0001
0000
0000
0001
0100
0000
0010
0000
0100
0000
0010
0000
,  // measure 15
1000
0000
0100
0000
0010
0000
0001
0000
0100
0000
0010
1000
0010
1000
0000
0100
,  // measure 16
0010
0000
0100
0000
1000
0001
1000
0001
1000
0000
0010
0000
0100
0000
0010
0000
,  // measure 17
0000
0000
0110
0000
0001
0000
1000
0100
,  // measure 18
0000
0000
1001
0000
0001
0010
0100
0010
,  // measure 19
0000
0000
0000
0000
0101
0000
0000
0000
1000
0000
0001
0010
0001
0000
1000
0010
,  // measure 20
1000
0010
0100
0001
0010
0100
0000
1000
0001
0000
0100
0000
1000
0000
0100
0000
,  // measure 21
0000
0001
1001
0000
1000
0000
0001
0010
,  // measure 22
0000
0000
0001
0000
1001
0000
1000
0010
1000
0000
0100
0000
1000
0000
0001
0000
,  // measure 23
0100
0000
0010
0000
1000
0000
0100
0000
1000
0000
0001
0010
0000
0001
0000
0100
,  // measure 24
0010
0000
1000
0000
0100
0010
0100
0010
0002
0000
0000
0000
0000
0000
0000
0000
,  // measure 25
0000
0000
2003
0000
,  // measure 26
0000
0000
3020
0000
,  // measure 27
0000
0000
0230
0000
,  // measure 28
0000
0000
0302
0000
,  // measure 29
0000
0000
0023
0000
,  // measure 30
0000
0000
0230
0000
,  // measure 31
0000
0000
0000
0000
0000
0000
0000
0000
2300
0000
0000
0001
0000
0000
0001
0000
,  // measure 32
0000
0001
0000
0000
3001
0000
0000
0000
1000
0000
1000
0000
0001
0000
0000
0100
,  // measure 33
0000
0000
0001
0000
0010
0000
0000
0000
0001
0000
1000
0010
1000
0000
0000
0100
,  // measure 34
0000
0000
1000
0000
0001
0000
0000
0000
0010
0000
0010
0000
0100
0000
0000
1000
,  // measure 35
0000
0000
0010
0000
0100
0000
0000
0000
0001
0000
0001
0000
1000
0010
0000
1000
,  // measure 36
0000
0100
0010
0000
0001
0000
1000
0001
1000
0000
1000
0000
0010
0000
0000
0100
,  // measure 37
0000
0000
0001
0000
0010
0000
0000
0000
0001
0000
0001
0000
0100
0000
0000
0010
,  // measure 38
0000
0000
1000
0001
1000
0000
0100
0000
0010
0000
0010
0000
0001
0000
0000
0100
,  // measure 39
0000
0000
0010
0000
1000
0000
0000
0000
0100
0000
0100
0000
0010
0000
0000
0100
,  // measure 40
0000
0000
1000
0010
1000
0010
0100
0001
0100
0000
0001
0000
0010
0000
0000
0001
,  // measure 41
0000
0000
1000
0000
0010
0100
0010
0000
1000
0000
1000
0000
0100
0000
0000
0010
,  // measure 42
0000
0000
0001
0000
0100
0010
0100
0000
0001
0000
0001
0000
1000
0000
0000
0100
,  // measure 43
0000
0000
1000
0000
0010
1000
0010
0000
0100
0000
0100
0000
0001
0010
0000
0001
,  // measure 44
0000
1000
0001
0000
0100
0000
0001
1000
0001
0000
0001
0000
1000
0000
0000
0100
,  // measure 45
0000
0000
1000
0000
0001
0010
0001
0000
0100
0000
0100
0000
0010
0000
0000
1000
,  // measure 46
0000
0000
0100
0000
0010
0001
0010
0000
0001
0000
0001
0000
0100
0000
0000
0010
,  // measure 47
0000
0000
1000
0000
0100
0010
0100
0000
1000
0001
1000
0000
0001
0010
0000
0001
,  // measure 48
1000
0010
1000
0010
0100
0001
0100
0001
0010
0000
0001
0000
0100
0000
0000
0010
,  // measure 49
0000
0000
1000
0000
0001
0010
0100
0010
0001
0000
1000
0010
1000
0000
0000
0100
,  // measure 50
0000
0000
1000
0000
0001
0100
0010
0100
0001
0000
0010
0000
0100
0000
0000
1000
,  // measure 51
0000
0000
0010
0000
1000
0100
0010
0100
1000
0000
0010
0100
0010
0000
0100
0001
,  // measure 52
0000
0010
0001
0000
1000
0010
0100
0010
1000
0000
0001
0000
0010
0000
0000
0001
,  // measure 53
0000
0000
1000
0000
0010
0100
0010
0100
0001
0000
1000
0000
0100
0000
0000
0010
,  // measure 54
0000
0000
0001
0000
1000
0010
0100
0010
1000
0000
0001
0000
0010
0000
0000
0100
,  // measure 55
0000
0000
1000
0000
0001
0100
0001
0100
0010
0000
1000
0000
0100
0000
1000
0010
,  // measure 56
0000
1000
0100
1000
0100
0010
0001
0010
0001
0000
0100
0000
0001
0000
0010
0100
,  // measure 57
0000
0000
0010
0000
0001
1000
0010
1000
0001
0000
0100
0000
0010
0000
1000
0100
,  // measure 58
0000
0000
1000
0000
0010
0100
0010
0100
0001
0000
1000
0000
0100
0000
0010
0001
,  // measure 59
0000
0000
1000
0000
0001
0100
0010
0100
0001
0000
1000
0000
0100
0010
0000
0100
,  // measure 60
0000
1000
0010
0000
1000
0100
1000
0100
0010
0000
0001
0000
0100
0000
0010
1000
,  // measure 61
0000
0000
0001
0000
0010
0100
0010
0100
1000
0000
0010
0000
1000
0000
0100
0010
,  // measure 62
0000
0000
0001
0000
1000
0001
0010
0001
1000
0000
0010
0000
0100
0000
0001
0010
,  // measure 63
0000
0001
1000
0000
0001
1000
0010
1000
0100
0010
0100
0010
0001
1000
0000
0001
,  // measure 64
0000
0100
0010
0000
1000
0100
0010
0100
1000
0000
0000
0000
0010
0000
0200
0000
,  // measure 65
0000
0000
0302
0000
,  // measure 66
0000
0000
0013
0000
0100
1000
0000
0000
0010
0000
0000
0000
1001
0000
0000
0000
,  // measure 67
0000
0000
1000
0000
0100
0010
0000
0010
0001
0000
0000
0100
0000
0000
0001
0000
,  // measure 68
1000
0000
0000
0100
0000
1000
0001
1000
0001
0000
0000
0000
1000
0000
0020
0000
,  // measure 69
0000
0000
0000
0000
0000
0000
0130
0000
0000
0001
0000
1000
,  // measure 70
0001
0010
0100
1000
0100
0010
0001
0000
0000
1000
0000
0000
,  // measure 71
0001
0000
0000
0100
0000
0000
0010
0000
1000
0100
1000
0100
0010
0001
0000
0100
,  // measure 72
0000
0010
1000
0010
1000
0001
0010
0100
2000
0000
0000
0000
0000
0000
0000
0000
,  // measure 73
0000
0000
3000
0000
;

//---------------dance-single - ----------------
#NOTEDATA:;
#CHARTNAME:;
#STEPSTYPE:dance-single;
#DESCRIPTION:;
#CHARTSTYLE:;
#DIFFICULTY:Medium;
#METER:10;
#RADARVALUES:0.397567,0.470587,0.017073,0.196345,0.140856,326.000000,324.000000,2.000000,23.000000,0.000000,0.000000,0.000000,0.000000,0.000000,0.397567,0.470587,0.017073,0.196345,0.140856,326.000000,324.000000,2.000000,23.000000,0.000000,0.000000,0.000000,0.000000,0.000000;
#CREDIT:;
#NOTES:
0000
0000
0000
0000
,
0000
0000
0000
0000
,
0000
0000
0000
0000
,
0000
0000
0000
0000
,
1000
0000
0001
0010
0000
0010
0100
0000
,
1000
0000
0010
0100
0000
0100
0001
1000
,
0001
0000
1000
0100
0000
0100
0010
0000
,
0001
1000
0001
0000
1000
0100
0010
0001
,
0000
0000
0000
0000
1000
0000
0001
0010
,
0000
0000
0001
0000
1000
0000
0100
0010
,
0000
0000
0100
0000
1000
0000
0010
0100
,
0000
0000
0001
0000
0010
0000
0100
1000
,
0010
1000
0001
0000
1000
0000
0100
0010
,
0000
0000
0100
0000
1000
0000
0010
0100
,
0000
0000
0001
0000
0010
0000
0001
1000
,
0000
0000
0010
0000
0100
0001
0100
0000
,
0001
0010
0001
1000
0010
0000
1000
0100
,
0000
0000
1000
0000
0001
0000
0100
0010
,
0000
0000
0100
0000
0001
0000
0010
0100
,
0000
0000
1000
0000
0001
0000
1000
0010
,
1000
0100
0010
0001
0100
0000
0010
1000
,
0000
0000
0001
0000
0010
0000
0100
0010
,
0000
0000
0001
0000
1000
0000
0010
1000
,
0000
0000
0100
0000
0010
0001
1000
0000
,
0001
0010
0100
0000
2000
0000
0000
0000
,
0000
0000
3002
0000
,
0000
0000
0203
0000
,
0000
0000
0320
0000
,
0000
0000
2030
0000
,
0000
0000
3200
0000
,
0000
0000
0320
0000
,
0000
0000
0032
0000
,
0000
0000
0000
0000
0003
0000
0000
0000
1000
0000
0000
0000
0001
0000
0000
0100
,
0000
0000
0010
0000
1000
0000
0000
0000
0100
0000
0000
0000
0010
0000
0000
0001
,
0000
0000
0100
0000
0010
0000
0000
0000
1000
0000
0000
0000
0001
0000
0000
0010
,
0000
0001
0100
0000
0010
1000
0100
0010
,
0100
0000
1000
0000
0001
0000
0000
0000
1000
0000
0000
0000
0001
0000
0000
0100
,
0000
0000
0001
0000
0010
0000
0000
0000
0001
0000
0000
0000
1000
0000
0000
0001
,
0000
0000
0010
0000
0100
0000
0000
0000
1000
0000
0000
0000
0010
0000
0000
0100
,
0000
0000
0001
0000
0010
0000
0000
0000
0001
0000
0000
0000
1000
0000
0000
0010
,
0000
0000
1000
0000
0100
0000
0010
0000
0001
0000
0000
0000
0100
0000
0000
0010
,
0000
0000
0100
0000
0001
0000
0000
0000
0010
0000
0000
0000
0100
0000
0000
1000
,
0000
0000
0010
0000
0100
0000
0000
0000
0001
0000
0000
0000
1000
0000
0000
0100
,
0000
0000
0010
0000
0100
0000
0000
0000
1000
0000
0000
0000
0010
0000
0000
0100
,
0000
0000
0001
0000
0010
0000
0001
0000
1000
0000
0000
0000
0001
0000
0000
0100
,
0000
0000
0010
0000
1000
0000
0000
0000
0100
0000
0000
0000
1000
0000
0000
0001
,
0000
0000
0100
0000
0001
0000
0000
0000
0010
0000
0000
0000
0100
0000
0000
1000
,
0000
0010
0100
0000
0001
0000
1000
0100
,
1000
0000
0010
0000
0100
0000
0001
0000
0010
0000
0010
0000
0001
0000
0000
0100
,
0000
0000
0010
0000
2000
0000
0000
0000
3100
0000
0100
0000
0010
0000
0000
0100
,
0000
0000
1000
0000
0020
0000
0000
0000
0130
0000
0100
0000
0001
0000
0000
0010
,
0000
0000
0001
0000
0200
0000
0000
0000
0301
0000
0001
0000
1000
0000
0000
0100
,
0000
0000
0010
0000
0002
0000
0000
0000
1003
0000
1000
0000
0010
0000
0000
0100
,
0000
0000
0010
0000
2000
0000
0000
0000
3100
0000
0100
0000
0010
0000
0000
0001
,
0000
0000
0100
0000
0020
0000
0000
0000
0130
0000
0100
0000
0001
0000
0000
0010
,
0000
0000
0100
0000
2000
0000
0000
0000
3001
0000
0001
0000
0100
0000
0000
0010
,
0000
0000
1000
0000
0100
0000
1000
0000
0001
0000
0001
0000
0100
0000
0000
0010
,
0000
0000
1000
0000
0200
0000
0000
0000
0310
0000
0010
0000
0001
0000
0000
0100
,
0000
0000
0010
0000
0200
0000
0000
0000
0301
0000
0001
0000
1000
0000
0000
0100
,
0000
0000
0010
0000
0002
0000
0000
0000
0103
0000
0100
0000
0010
0000
0000
1000
,
0000
0000
0100
0000
0020
0000
0000
0000
0130
0000
0100
0000
1000
0000
0000
0010
,
0000
0000
0100
0000
0002
0000
0000
0000
0013
0000
0010
0000
0100
0000
0000
0010
,
0000
0000
0001
0000
2000
0000
0000
0000
3010
0000
0010
0000
1000
0000
0000
0100
,
0000
1000
0002
0000
0013
0100
0010
0100
,
1000
0001
1000
0001
1000
0000
0000
1001
,
0000
0000
0001
0000
,
0000
0000
0100
0000
0000
0010
0000
0000
0100
0000
0000
0000
0000
0000
0010
0000
,
0000
0000
1000
0000
0100
0000
0010
0000
0001
0000
0000
0001
0000
0000
0001
0000
,
0100
0000
0000
0100
0000
0000
0100
0000
0010
0000
0000
0000
0000
0000
1001
0000
,
0000
0000
1000
0100
,
0010
0000
0010
0001
0000
0000
0100
0000
0000
0010
0000
0000
,
0100
0001
1000
0100
,
1000
0010
0100
0001
0020
0000
0000
0000
,
0000
0000
0030
0000
;

//---------------dance-single - ----------------
#NOTEDATA:;
#CHARTNAME:;
#STEPSTYPE:dance-single;
#DESCRIPTION:;
#CHARTSTYLE:;
#DIFFICULTY:Easy;
#METER:6;
#RADARVALUES:0.270736,0.282352,0.000000,0.085367,0.000000,222.000000,222.000000,0.000000,10.000000,0.000000,0.000000,0.000000,0.000000,0.000000,0.270736,0.282352,0.000000,0.085367,0.000000,222.000000,222.000000,0.000000,10.000000,0.000000,0.000000,0.000000,0.000000,0.000000;
#CREDIT:;
#NOTES:
0000
0000
0000
0000
,
0000
0000
0000
0000
,
0000
0000
0000
0000
,
0000
0000
0000
0000
,
1000
0001
0000
0010
,
0001
1000
0000
0010
,
1000
0001
0000
0100
,
0001
1000
0100
0010
,
0000
0000
0000
0000
0001
0000
0000
1000
,
0000
0000
0010
0000
1000
0000
0000
0001
,
0000
0000
0010
0000
0001
0000
0000
1000
,
0000
0000
0100
0000
1000
0000
0000
0001
,
0000
0000
0100
0000
0001
0000
0000
0010
,
0000
0000
0100
0000
1000
0000
0000
0010
,
0000
0000
0100
0000
0001
0000
0000
0010
,
0000
0001
1000
1000
,
0001
0000
0001
0000
0010
0000
0000
0100
,
0000
0000
1000
0000
0010
0000
0000
0100
,
0000
0000
0001
0000
1000
0000
0000
0100
,
0000
1000
0010
0010
,
0100
0000
0001
0000
0010
0000
0000
0001
,
0000
0000
1000
0000
0010
0000
0000
0100
,
0000
0000
0001
0000
1000
0000
0000
0010
,
0000
1000
0100
0100
,
0010
0001
2000
0000
,
0000
0000
3002
0000
,
0000
0000
0203
0000
,
0000
0000
0320
0000
,
0000
0000
2030
0000
,
0000
0000
3200
0000
,
0000
0000
0320
0000
,
0000
0000
0032
0000
,
0000
0003
1000
0100
,
1000
0010
0100
0001
,
0010
0100
1000
0010
,
1000
0100
0010
0001
,
0100
0010
1000
0001
,
0100
0010
0100
0001
,
0010
0100
1000
0010
,
0100
0010
1000
0100
,
0010
0001
0100
0010
,
0100
0001
0010
0100
,
0010
0001
1000
0010
,
1000
0001
0010
0001
,
0100
0010
1000
0100
,
0010
0100
1000
0001
,
0010
0100
1000
0010
,
0100
0001
1000
0010
,
1000
0100
1000
0001
,
0100
0001
0010
0001
,
1000
0001
0010
0100
,
0010
0001
1000
0010
,
0100
0010
1000
0100
,
0010
0001
0100
0010
,
0100
0001
0010
0100
,
1000
0010
1000
0100
,
1000
0001
0100
0001
,
0010
0100
1000
0010
,
0100
0001
1000
0100
,
1000
0010
1000
0001
,
0010
0001
0100
0001
,
1000
0100
0010
0001
,
0100
0010
1000
0001
,
0010
0100
1000
0010
,
0100
0000
0001
0000
1000
0000
0000
1000
,
0000
0000
0001
0000
,
0000
0000
0000
0000
0100
0000
0000
0100
,
0000
0000
0010
0010
,
1000
0000
0100
0000
0010
0000
0000
0010
,
0000
0000
0001
1000
,
0002
0000
0000
0000
1003
0000
0000
1000
,
0000
0010
0100
0010
,
1000
0100
0020
0000
,
0000
0000
0030
0000
;

//---------------dance-single - ----------------
#NOTEDATA:;
#CHARTNAME:;
#STEPSTYPE:dance-single;
#DESCRIPTION:;
#CHARTSTYLE:;
#DIFFICULTY:Beginner;
#METER:3;
#RADARVALUES:0.130490,0.188235,0.000000,0.008537,0.000000,107.000000,107.000000,0.000000,1.000000,0.000000,0.000000,0.000000,0.000000,0.000000,0.130490,0.188235,0.000000,0.008537,0.000000,107.000000,107.000000,0.000000,1.000000,0.000000,0.000000,0.000000,0.000000,0.000000;
#CREDIT:;
#NOTES:
0000
0000
0000
0000
,
0000
0000
0000
0000
,
0000
0000
0000
0000
,
0000
0000
0000
0000
,
0000
1000
0000
1000
,
0000
0001
0000
0001
,
0000
1000
0000
1000
,
0000
0001
0000
0001
,
0000
0000
1000
0000
,
0000
0000
0001
0000
,
0000
0000
0100
0000
,
0000
0000
0010
0000
,
0000
0000
1000
0000
,
0000
0000
0001
0000
,
0000
0000
0010
0000
,
0000
0000
0100
0000
,
0000
0000
1000
0000
,
0000
0000
0010
0000
,
0000
0000
0100
0000
,
0000
0000
0001
0000
,
0000
0000
1000
0000
,
0000
0000
0100
0000
,
0000
0000
0010
0000
,
0000
0000
0001
0000
,
0000
0000
1000
0000
,
0000
0000
1000
0000
,
0000
0000
0001
0000
,
0000
0000
0001
0000
,
0000
0000
0100
0000
,
0000
0000
0100
0000
,
0000
0000
0010
0000
,
0000
0000
0010
0000
,
0000
0000
1000
0001
,
0000
0001
0000
1000
,
0000
1000
0000
0001
,
0000
0001
0000
1000
,
0000
1000
0000
0010
,
0000
0010
0000
0100
,
0000
0100
0000
0010
,
0000
0010
0000
0100
,
0000
0100
0000
0001
,
0000
0001
0000
1000
,
0000
1000
0000
0001
,
0000
0001
0000
1000
,
0000
1000
0000
0100
,
0000
0100
0000
0010
,
0000
0010
0000
0100
,
0000
0100
0000
0010
,
0000
0010
0001
1000
,
0000
1000
0000
0001
,
0000
0001
0000
1000
,
0000
1000
0000
0001
,
0000
0001
0000
0100
,
0000
0100
0000
0010
,
0000
0010
0000
0100
,
0000
0100
0000
0010
,
0000
0010
0000
1000
,
0000
1000
0000
0001
,
0000
0001
0000
1000
,
0000
1000
0000
0001
,
0000
0001
0000
0010
,
0000
0010
0000
0100
,
0000
0100
0000
0010
,
0000
0010
0000
0100
,
0000
0100
1000
0000
,
0000
0000
0010
0000
,
0000
0000
0100
0000
,
0000
0000
0001
0000
,
0000
0000
0010
0000
,
0000
0000
0100
0000
,
0000
0000
1000
0000
,
0000
0000
0001
0000
,
0000
0000
2000
0000
,
0000
0000
3000
0000
;
