#TITLE:The Devil;
#SUBTITLE:;
#ARTIST:BanYa Production;
#TITLETRANSLIT:;
#SUBTITLETRANSLIT:;
#ARTISTTRANSLIT:;
#GENRE:CLASSICAL CROSSOVER;
#CREDIT:;
#BANNER:The Devil.png;
#BACKGROUND:The Devil-bg.png;
#LYRICSPATH:;
#CDTITLE:cdtitle.png;
#MUSIC:The Devil.ogg;
#OFFSET:-0.020000;
#SAMPLESTART:43.162521;
#SAMPLELENGTH:11.980000;
#SELECTABLE:YES;
#BPMS:0.000000=130.000000
,36.000000=140.000000
,68.000000=150.000000
,100.000000=160.000000
,132.000000=170.000000
,164.000000=180.000000
,196.000000=190.000000
,212.000000=200.000000
,228.000000=210.000000
,244.000000=220.000000
,260.000000=230.000000
,268.000000=240.000000
;
#STOPS:
;
#BGCHANGES:;
#KEYSOUNDS:;
#ATTACKS:;

//---------------dance-single - ----------------
#NOTES:
     dance-single:
     :
     Challenge:
     16:
     0.752775,1.049311,0.117098,0.048791,0.395207,540.000000,528.000000,12.000000,5.000000,0.000000,0.000000,0.752775,1.049311,0.117098,0.048791,0.395207,540.000000,528.000000,12.000000,5.000000,0.000000,0.000000:
0000
0000
0000
0000
,
0000
0000
0000
0000
,
0000
0000
0000
0000
,
0000
0000
0000
0000
,
0000
0000
0000
0000
,
1000
0010
0100
0010
1000
0100
0010
0000
,
0010
0100
1000
0000
1000
0001
0010
0000
,
0001
0100
0010
0100
0001
0010
0100
1000
,
0010
0100
0001
1000
0200
0000
0000
0000
,
1300
0001
0010
0001
1000
0010
0100
0000
,
0100
0010
1000
0000
1000
0001
0100
0000
,
0001
1000
0010
1000
0001
0010
0100
0000
,
0100
0010
0001
0000
2000
0000
0000
0000
,
3001
0100
0010
0100
1000
0100
0010
0000
,
1000
0100
0001
0000
0001
0100
1000
0000
,
0001
0010
0100
0010
1000
0010
0100
0000
,
1000
0010
0001
0000
0020
0000
0000
0000
,
1030
0000
0001
0000
1000
0000
0001
0010
0001
0000
0100
0000
0010
0000
0000
0000
,
1000
0000
0100
0000
0010
0100
0010
0000
0100
0000
1000
0000
0001
0000
0000
0000
,
1000
0000
0100
0000
1000
0000
0001
0100
0001
0000
0010
0000
0001
0000
0100
0000
,
0010
0000
1000
0000
0100
0010
0100
0000
0010
0000
0000
0000
0001
1000
0001
1000
,
0001
0000
1000
0000
0010
0100
0010
0100
0010
0000
1000
0000
0001
0000
0000
0000
,
0010
0000
0100
0000
0010
0001
0010
0001
0010
0000
0100
0000
1000
0000
0000
0000
,
0001
0000
0100
0000
0001
0010
0001
0010
0100
1000
0100
1000
0100
1000
0100
1000
,
0001
0100
0001
0100
0010
1000
0010
1000
0100
0010
0100
0010
0001
1000
0001
1000
,
0001
0010
1000
0010
0001
0100
0010
0000
,
0010
0100
0001
0000
0001
1000
0100
0000
,
1000
0010
0001
0010
1000
0100
0010
0001
,
0100
0000
0010
0000
1000
0000
0001
0000
1000
0100
1000
0100
0010
0001
0010
0001
,
1000
0010
0001
0010
1000
0100
0010
0000
,
0010
0100
1000
0000
1000
0001
0100
0000
,
0001
0010
1000
0010
0001
0100
0010
1000
,
0100
0000
0010
0000
0001
0000
1000
0000
0001
0000
1000
0000
0010
0100
0010
0100
,
0001
0010
1000
0010
0100
0010
0001
0000
,
0001
0100
1000
0000
1000
0100
0001
0000
,
1000
0010
0001
0010
0100
0010
1000
0000
,
1000
0000
0100
0000
0001
0000
0000
0000
0100
0000
0000
0000
1000
0001
1000
0001
,
1000
0100
0001
0100
0010
0100
1000
0000
,
1000
0000
0010
0000
0001
0000
0000
0000
0001
0000
0010
0100
0010
0100
0001
1000
,
0001
0100
1000
0100
0010
0100
0001
0000
,
0001
0000
0010
0000
1000
0000
0000
0000
1000
0000
0010
0001
0010
0001
1000
0001
,
1000
0100
0001
0100
1000
0010
0110
0000
,
0001
0100
0110
0000
1000
0100
0110
0000
,
0001
1000
0100
0010
1000
0010
0001
0100
,
0001
0000
0010
0000
0100
0000
1000
0000
0001
0100
0001
0100
0010
1000
0010
1000
,
0001
0100
1000
0100
0001
0010
0110
0000
,
1000
0100
0110
0000
0001
0100
0110
0000
,
1000
0001
0100
0010
0001
0010
1000
0100
,
1000
0010
1000
0010
0100
0001
0100
0001
0020
0000
0000
0000
0030
0000
0000
0000
,
0001
0100
0010
0100
0001
0000
0000
0000
1000
0000
0100
0000
0010
0000
0000
0000
,
0001
1000
0100
1000
0001
0000
0000
0000
1000
0000
0100
0010
0100
0000
1000
0000
,
0010
0100
0001
0010
0100
1000
0010
0100
,
0001
0010
0001
0010
0100
1000
0100
1000
0001
0100
0001
0100
0010
1000
0010
1000
,
0100
0010
0001
0100
1000
0100
0110
0000
,
1000
0001
0011
0000
0001
1000
1010
0000
,
1000
0100
0010
0100
1000
0100
0001
0100
,
1000
0000
0010
0000
0100
0000
0001
0000
1000
0100
1000
0100
0010
0001
0010
0001
,
0100
0010
1000
0100
0001
0100
0110
0000
,
0001
1000
1010
0000
1000
0001
0011
0000
,
0001
0100
0010
0100
0001
0100
1000
0100
,
0001
0010
0001
0010
0100
1000
0100
1000
0010
0000
1000
0001
1000
0000
0000
0000
,
0001
0010
0100
0010
0001
0000
0000
0000
1000
0000
0010
0000
0100
0000
0000
0000
,
0001
1000
0010
1000
0001
0000
0000
0000
1000
0000
0010
0100
0010
0000
1000
0000
,
0100
0010
0001
0100
0010
1000
0100
0010
,
0001
0100
0010
0100
0002
0000
0000
0000
,
1003
0100
0001
0100
1000
0010
0001
0010
,
1000
0001
0010
0001
1000
0010
1000
0001
,
1000
0000
0100
0000
1000
0010
1000
0000
0001
0010
0001
0000
1000
0100
1000
0000
,
0001
0100
0001
0000
1000
0001
1000
0000
0001
1000
0001
0000
0100
0010
0100
0000
,
0010
0000
0000
0000
1000
0001
1000
0000
0000
0000
0000
0000
0000
0000
0000
0000
;

//---------------dance-single - ----------------
#NOTES:
     dance-single:
     :
     Hard:
     14:
     0.674709,0.846218,0.009758,0.048791,0.204922,484.000000,483.000000,1.000000,5.000000,0.000000,0.000000,0.674709,0.846218,0.009758,0.048791,0.204922,484.000000,483.000000,1.000000,5.000000,0.000000,0.000000:
0000
0000
0000
0000
,
0000
0000
0000
0000
,
0000
0000
0000
0000
,
0000
0000
0000
0000
,
0000
0000
0000
0000
,
1000
0001
0010
0001
1000
0010
0100
0000
,
0001
0010
0100
0000
1000
0010
0100
0000
,
0001
0010
0100
1000
0010
0100
0001
0010
,
0001
1000
0100
0010
0002
0000
0000
0000
,
1003
0100
0010
0100
1000
0001
0100
0000
,
0001
1000
0010
0000
1000
0001
0010
0000
,
0001
0100
0010
0100
0001
1000
0100
0000
,
1000
0001
0010
0000
0200
0000
0000
0000
,
1300
0010
0100
0010
1000
0001
0010
0000
,
0001
1000
0100
0000
1000
0001
0100
0000
,
0001
0010
0100
0010
0001
1000
0010
0000
,
1000
0001
0100
0000
0020
0000
0000
0000
,
1030
0100
0001
0100
1000
0010
0100
0000
,
0001
1000
0010
0000
1000
0001
0010
0000
,
0001
0100
1000
0100
0001
0010
0100
1000
,
0010
0100
0001
0010
0002
0000
0003
0000
,
1000
0001
1000
0100
0010
0001
0100
0000
,
0001
0010
0001
0000
1000
0010
1000
0000
,
0001
0100
0010
1000
0100
0010
0100
1000
,
0001
0100
0001
0100
0010
1000
0010
1000
0001
0010
0001
0010
0100
1000
0100
1000
,
0001
0010
0100
0010
0001
1000
0010
0000
,
1000
0100
0001
0000
0001
0100
1000
0000
,
0001
0100
0010
0100
0001
1000
0100
0010
,
0100
0000
1000
0000
0010
0000
0100
0000
0001
1000
0001
1000
0100
0010
0100
0010
,
0001
1000
0100
0010
0100
1000
0001
0000
,
1000
0010
0001
0000
0001
0010
1000
0000
,
0001
1000
0010
0100
0010
1000
0100
0010
,
0001
0000
0100
0000
0001
0000
1000
0000
0100
0000
0010
0000
0001
1000
0001
1000
,
0001
0010
0100
0001
0100
1000
0010
0000
,
1000
0100
0010
0000
0010
0100
1000
0000
,
0001
0100
0010
0001
0010
1000
0100
0000
,
1000
0000
0010
0000
0100
0000
0000
0000
0110
0000
0000
0000
0001
1000
0001
1000
,
0001
1000
0100
0010
1000
0010
0001
0000
,
1000
0000
0001
0000
0010
0000
0000
0000
0001
0000
1000
0010
1000
0100
1000
0100
,
0010
0001
1000
0010
0100
0010
1000
0000
,
0001
0000
0010
0000
0100
0000
0000
0000
1000
0000
0001
0100
0001
0010
0001
0010
,
0100
1000
0010
0100
0001
0010
0001
0000
,
1000
0010
0001
0000
0001
0010
1000
0000
,
0001
0010
0001
1000
0100
0010
0001
0100
,
0010
0000
1000
0000
0001
0000
0010
0000
0100
0000
0000
0000
1000
0001
1000
0001
,
1000
0010
0100
0010
0001
0010
0100
0000
,
0001
1000
0010
0000
1000
0001
0010
0000
,
0001
1000
0100
0010
0001
0100
0010
1000
,
0001
0100
0001
1000
0001
0000
0000
0000
,
1000
0001
1000
0001
1000
0000
0000
0000
0001
0000
0100
0000
0010
0000
0000
0000
,
1000
0100
1000
0100
1000
0000
0000
0000
0001
0000
0100
0010
0100
0000
0001
0000
,
1000
0100
0010
0100
0001
0100
0010
0100
,
1000
0000
0010
0000
0100
0000
0001
0000
0010
0001
0010
0001
0010
0100
0010
0100
,
1000
0001
0010
1000
0010
0001
1000
0000
,
0001
0100
1000
0000
1000
0100
0001
0000
,
1000
0100
0010
0100
1000
0001
0100
0010
,
0100
0000
0001
0000
1000
0000
0001
0000
0100
0000
0010
0000
1000
0001
1000
0001
,
1000
0001
0100
1000
0100
0001
1000
0000
,
0001
0010
1000
0000
1000
0010
0001
0000
,
1000
0010
0100
0010
1000
0001
0010
0100
,
0010
0000
0001
0000
0100
0000
0010
0000
1000
0000
0001
1000
0001
0000
0000
0000
,
1000
0001
1000
0001
1000
0000
0000
0000
0001
0000
0010
0000
0100
0000
0000
0000
,
1000
0010
1000
0010
1000
0000
0000
0000
0001
0000
0010
0100
0010
0000
0001
0000
,
1000
0100
0010
1000
0010
0001
0100
0001
,
1000
0010
0001
0010
2000
0000
0000
0000
,
3001
0010
0001
1000
0010
1000
0001
0100
,
0001
0010
0100
1000
0010
0100
0001
0000
,
1000
0010
1000
0001
0010
0001
1000
0100
,
1000
0010
0100
0001
0010
0100
1000
0001
,
1000
0000
0000
0000
0010
0100
0010
0000
0000
0000
0000
0000
0000
0000
0000
0000
;

//---------------dance-single - ----------------
#NOTES:
     dance-single:
     :
     Medium:
     10:
     0.513002,0.540604,0.087824,0.117098,0.000000,368.000000,359.000000,9.000000,12.000000,0.000000,0.000000,0.513002,0.540604,0.087824,0.117098,0.000000,368.000000,359.000000,9.000000,12.000000,0.000000,0.000000:
// measure 0
0000
0000
0000
0000
,  // measure 1
0000
0000
0000
0000
,  // measure 2
0000
0000
0000
0000
,  // measure 3
0000
0000
0000
0000
,  // measure 4
0000
0000
0000
0000
,  // measure 5
1000
0010
1000
0010
0100
0001
0100
0000
,  // measure 6
0001
0010
0001
0000
1000
0010
1000
0000
,  // measure 7
0001
0100
0001
0100
0010
1000
0010
1000
,  // measure 8
0100
0010
0001
0100
0020
0000
0000
0030
,  // measure 9
1000
0001
1000
0001
0010
0100
0010
0000
,  // measure 10
0001
0100
0001
0000
1000
0100
1000
0000
,  // measure 11
0001
1000
0001
1000
0100
0010
0100
0000
,  // measure 12
1000
0010
1000
0000
0002
0000
0000
0003
,  // measure 13
1000
0001
1000
0001
0100
0010
0100
0000
,  // measure 14
0001
0010
0001
0000
1000
0100
1000
0000
,  // measure 15
0001
0100
0001
0100
0010
1000
0010
0000
,  // measure 16
1000
0001
1000
0000
0200
0000
0000
0300
,  // measure 17
1000
0010
1000
0000
0001
0010
0001
0000
,  // measure 18
1000
0100
0010
0000
0010
0100
1000
0000
,  // measure 19
0001
0100
0001
0000
1000
0100
1000
0000
,  // measure 20
0001
0100
0001
0100
0020
0000
0000
0030
,  // measure 21
1000
0001
1000
0000
0010
0100
0010
0000
,  // measure 22
1000
0001
0100
0000
0001
1000
0100
0000
,  // measure 23
1000
0010
1000
0000
0001
1000
0001
0000
,  // measure 24
0010
0001
0100
0001
1000
0001
1000
0100
,  // measure 25
1000
0010
1000
0000
0001
0100
0001
0000
,  // measure 26
0010
0100
0010
0000
0001
1000
0001
0000
,  // measure 27
1000
0010
1000
0000
0100
1000
0100
0000
,  // measure 28
0010
0001
0010
0001
2000
0000
0000
3000
,  // measure 29
0001
0100
0001
0000
1000
0010
1000
0000
,  // measure 30
0100
1000
0010
0000
0100
0001
0010
0000
,  // measure 31
0001
0100
0001
0000
1000
0010
1000
0000
,  // measure 32
0001
0010
0100
0010
0002
0000
0000
0003
,  // measure 33
1000
0010
0100
0000
0001
0100
0010
0000
,  // measure 34
1000
0100
0010
0000
0100
1000
0001
0000
,  // measure 35
1000
0100
1000
0000
0001
0100
0010
0000
,  // measure 36
1000
0001
1000
0000
0020
0000
0000
0030
,  // measure 37
0100
0001
0100
0000
0001
0010
0001
0000
,  // measure 38
1000
0010
0100
0000
0001
0010
0001
0000
,  // measure 39
1000
0100
1000
0000
0001
1000
0100
0000
,  // measure 40
1000
0010
1000
0000
0001
0100
0001
0100
,  // measure 41
0010
1000
0010
0000
1000
0100
1000
0000
,  // measure 42
0001
0100
0001
0000
0010
0001
0010
0000
,  // measure 43
0001
1000
0100
0000
1000
0010
1000
0000
,  // measure 44
0001
0100
0010
1000
0200
0000
0000
0300
,  // measure 45
0010
0001
0010
0000
0001
1000
0001
0000
,  // measure 46
1000
0010
0100
0000
0001
0010
0001
0000
,  // measure 47
1000
0100
0010
0000
0100
1000
0100
0000
,  // measure 48
1000
0001
1000
0001
0020
0000
0000
0030
,  // measure 49
0001
0100
0001
0000
1000
1000
0010
0000
,  // measure 50
1000
0100
1000
0000
0001
0001
0100
0010
,  // measure 51
2000
0000
3200
0000
,  // measure 52
0310
0001
1000
0001
,  // measure 53
1000
1000
0010
0000
0000
0100
0001
0000
,  // measure 54
1000
0100
1000
0000
0000
0001
0100
0000
,  // measure 55
0001
0001
0010
0000
0000
0100
1000
0000
,  // measure 56
0001
1000
0001
1000
0100
0000
0000
0000
,  // measure 57
1000
1000
0100
0000
0000
0010
0001
0000
,  // measure 58
1000
0010
1000
0000
0000
0001
0010
0000
,  // measure 59
0001
0001
0100
0000
0000
0010
1000
0000
,  // measure 60
0001
1000
0001
1000
0100
0000
0000
0000
,  // measure 61
1000
0010
1000
0000
0001
0001
0100
0000
,  // measure 62
0001
0010
0001
0000
1000
0010
1000
0001
,  // measure 63
1000
0100
0010
0001
,  // measure 64
0100
0000
0010
0000
2000
0000
0000
3000
,  // measure 65
0001
0101
1000
1100
,  // measure 66
0010
0110
1000
1001
,  // measure 67
0001
0011
1000
1010
,  // measure 68
0100
0110
0001
1001
,  // measure 69
0100
1001
0000
0000
;

//---------------dance-single - ----------------
#NOTES:
     dance-single:
     :
     Easy:
     7:
     0.355477,0.371665,0.000000,0.000000,0.000000,255.000000,255.000000,0.000000,0.000000,0.000000,0.000000,0.355477,0.371665,0.000000,0.000000,0.000000,255.000000,255.000000,0.000000,0.000000,0.000000,0.000000:
0000
0000
0000
0000
,
0000
0000
0000
0000
,
0000
0000
0000
0000
,
0000
0000
0000
0000
,
0000
0000
0000
0000
,
1000
0001
1000
0010
,
1000
0100
1000
0000
0001
1000
0001
0000
,
0100
0001
0010
0100
,
1000
0010
0100
0000
,
0001
0010
0001
0100
,
0010
1000
0010
0000
1000
0100
1000
0000
,
0001
0100
0001
1000
,
0010
0100
0010
0000
1000
0000
0000
0000
,
0100
0010
0001
1000
,
0001
0100
0001
0000
1000
0010
1000
0000
,
0100
0010
0001
0100
,
0001
0010
0001
0000
1000
0000
0000
0000
,
0001
0100
0010
1000
,
0001
0010
0001
0000
1000
0010
1000
0000
,
0001
0010
0100
1000
,
0010
0100
0010
0000
1000
0000
0000
0000
,
0001
0010
0001
1000
,
0100
0010
0100
0000
1000
0001
1000
0000
,
0001
0100
0010
1000
,
0100
0010
0001
0100
,
0001
0010
0001
0100
,
0001
1000
0100
0010
,
0001
0100
0010
1000
,
0010
1000
0001
0100
,
0001
0010
0100
0010
,
0001
1000
0010
0100
,
0010
1000
0100
0010
,
0001
0100
0010
1000
,
0001
1000
0001
0100
,
0001
0010
0001
1000
,
0100
0010
0100
1000
,
0010
1000
0001
0100
,
0001
0010
0001
1000
,
0100
1000
0010
0100
,
0001
0010
0001
0100
,
0001
1000
0010
1000
,
0001
0001
1000
1000
,
0010
0100
0001
0010
,
0001
0001
0100
0100
,
0010
1000
0100
0010
,
0001
0001
1000
1000
,
0010
1000
0100
0010
,
0100
0100
1000
1000
,
0010
0100
0001
0000
,
1000
1000
0000
0000
,
0001
0001
0000
0000
,
1000
0010
0100
0001
,
0010
0100
1000
0000
,
0001
0100
0010
1000
,
0100
0100
0010
0010
,
0001
1000
0010
0100
,
0001
0001
0010
0100
,
1000
0010
0100
0001
,
1000
1000
0010
0010
,
0100
0001
0010
0001
,
0100
0010
1000
0000
,
0001
0001
0000
0000
,
1000
1000
0000
0000
,
0001
0010
0100
1000
,
0010
0100
0001
0000
,
1000
1000
1000
1000
,
0001
0001
0001
0001
,
0100
0100
0100
0100
,
0010
0010
0010
0010
,
1000
0001
0000
0000
;

//---------------dance-single - ----------------
#NOTES:
     dance-single:
     :
     Beginner:
     4:
     0.178436,0.202726,0.048791,0.000000,0.000000,128.000000,123.000000,5.000000,0.000000,0.000000,0.000000,0.178436,0.202726,0.048791,0.000000,0.000000,128.000000,123.000000,5.000000,0.000000,0.000000,0.000000:
0000
0000
0000
0000
,
0000
0000
0000
0000
,
0000
0000
0000
0000
,
0000
0000
0000
0000
,
0000
0000
0000
0000
,
1000
0000
0010
0000
,
1000
0000
0001
0000
,
1000
0000
0100
0000
,
0010
0000
0001
0000
,
0100
0000
0010
0000
,
1000
0000
0001
0000
,
0100
0000
0010
0000
,
1000
0000
0001
0000
,
0100
0000
0001
0000
,
1000
0000
0100
0000
,
0010
0000
0001
0000
,
0100
0000
0001
0000
,
1000
0000
0100
0000
,
1000
0000
0010
0000
,
0100
0000
0001
0000
,
0010
0000
0001
0000
,
1000
0000
0001
0000
,
1000
0000
0010
0000
,
0100
0000
0001
0000
,
0010
0000
0001
0000
,
1000
0000
0010
0000
,
1000
0000
0010
0000
,
0100
0000
0001
0000
,
0010
0000
0001
0000
,
1000
0000
0100
0000
,
1000
0000
0100
0000
,
0010
0000
0001
0000
,
0100
0000
0010
0000
,
1000
0000
0100
0000
,
0010
0000
0001
0000
,
1000
0000
0010
0000
,
0100
0000
0001
0000
,
1000
0000
0001
0000
,
0010
0000
0100
0000
,
1000
0000
0001
0000
,
0100
0000
0010
0000
,
1000
0000
1000
0000
,
0001
0000
0001
0000
,
0100
0000
0100
0000
,
0010
0000
0010
0000
,
1000
0000
1000
0000
,
0100
0000
0100
0000
,
0010
0000
0010
0000
,
0001
0000
0001
0000
,
1001
0000
0000
0000
,
0110
0000
0000
0000
,
1000
0000
0001
0000
,
1000
0001
1000
0000
,
0001
0000
0001
0000
,
0100
0000
0100
0000
,
0010
0000
0010
0000
,
1000
0000
1000
0000
,
0100
0000
0100
0000
,
0010
0000
0010
0000
,
0001
0000
0001
0000
,
0100
0000
0100
0000
,
0110
0000
0000
0000
,
1001
0000
0000
0000
,
1000
0000
0001
0000
,
1000
0000
0001
0000
,
1000
0000
0000
0000
,
1000
0000
0000
0000
,
0001
0000
0000
0000
,
0001
0000
0000
0000
,
0100
0110
0000
0000
;
