#TITLE:Sweetness and Love;
#SUBTITLE:;
#ARTIST:3R2 vs DJ Mashiro;
#TITLETRANSLIT:;
#SUBTITLETRANSLIT:;
#ARTISTTRANSLIT:;
#GENRE:HAPPY HARDCORE;
#CREDIT:;
#BANNER:Sweetness and Love.png;
#BACKGROUND:Sweetness and Love-bg.png;
#LYRICSPATH:;
#CDTITLE:cdtitle.png;
#MUSIC:Sweetness and Love.ogg;
#OFFSET:0.160000;
#SAMPLESTART:67.224319;
#SAMPLELENGTH:10.870789;
#SELECTABLE:YES;
#BPMS:0.000000=178.000000
,68.000000=89.000000
,100.000000=178.000000
;
#STOPS:
;
#BGCHANGES:;
#KEYSOUNDS:;
#ATTACKS:;

//---------------dance-single - ----------------
#NOTES:
     dance-single:
     :
     Hard:
     12:
     0.552062,0.694768,0.415531,0.041553,0.332425,465.000000,415.000000,50.000000,5.000000,0.000000,0.000000,0.552062,0.694768,0.415531,0.041553,0.332425,465.000000,415.000000,50.000000,5.000000,0.000000,0.000000:
0000
0000
0000
0000
,
0000
0000
0000
0000
,
0000
0000
0000
0000
,
0000
0000
0000
0000
,
0000
0000
0000
0000
,
1000
0000
0000
0000
0010
0000
0000
0000
0100
0000
0000
0000
0001
0010
0000
0010
,
0100
0000
0000
0000
1000
0000
0000
0000
0010
0000
0000
0000
1000
0100
0000
0100
,
0010
0000
0000
0000
0001
0000
0000
0000
0100
0000
0000
0000
0010
1000
0000
1000
,
0100
0000
0000
0000
1000
0000
0000
0000
0001
0000
0100
0000
0000
0100
0000
0000
,
0010
0000
1000
0000
0100
0000
0010
0001
,
0001
0100
0110
0000
,
0010
0000
1000
0000
0100
0000
1000
0001
,
0001
0010
0110
0000
,
1000
1010
0011
0000
,
0001
0101
1100
0000
,
1000
0001
1000
0001
1000
0000
0000
0000
0001
1000
0001
1000
0001
0000
0000
0000
,
2002
0000
0000
3003
,
1000
0000
0100
0010
0000
0100
0000
1000
0000
0000
0000
0000
0001
0100
0010
1000
,
0001
0000
0010
0100
0000
0010
0000
0001
0000
1000
0000
0010
0000
1000
0100
0010
,
0001
0000
0000
0100
0010
0000
0100
0000
0001
0000
0010
0000
0100
0000
0010
0000
,
0001
0000
1000
0010
0000
1000
0100
1000
0000
0001
0000
0100
0010
1000
0100
0010
,
0001
0000
0100
0010
0000
0100
0000
0001
0000
0000
0000
0000
1000
0100
0010
0001
,
1000
0000
0010
0100
0000
0010
0000
1000
0000
0001
0000
0010
0000
0001
0100
0010
,
1000
0000
0000
0100
0010
0000
0100
0000
1000
0000
0010
0000
0100
0000
0010
0000
,
1000
0000
0001
0010
0000
0001
0100
0001
0000
1000
0000
0100
0010
0001
0100
0010
,
1000
1000
0001
0001
,
0010
0010
0100
0100
,
1000
1000
0010
0010
,
0100
0100
0001
0001
,
1000
0000
1000
0000
0100
0000
1000
0010
,
0000
0010
0000
0100
0001
0010
0100
1000
,
0010
0000
0010
0100
0000
0100
0001
0010
,
0001
0000
1000
0010
0000
0010
1000
0100
,
0010
0000
0010
0000
0001
0000
0100
0010
,
1000
0000
1000
0000
0001
0000
0010
0100
,
0010
0000
0010
0000
0001
0100
0010
1000
,
0100
0010
0001
0100
0010
1000
0100
0010
,
0001
0100
0001
0100
0010
1000
0010
1000
,
0100
0010
0100
0010
0001
1000
0001
1000
,
1001
0000
1000
0001
1001
0000
0001
1000
,
0200
0000
0000
0000
,
0310
0000
0000
0000
0110
0000
0000
0000
0100
0000
1000
0000
0001
1000
0001
1000
,
0001
0000
0011
0000
1001
0000
1000
0010
,
0100
0000
0110
0000
1010
0000
0010
1000
,
0100
0000
0110
0000
0010
0001
0100
0010
,
1000
0100
0010
0100
0001
0100
0010
0100
,
1000
0000
1010
0000
1001
0000
0001
0010
,
0000
0110
0000
0100
1000
0010
0001
0010
,
1000
0000
1000
0100
0000
0100
0010
0001
,
0100
0000
0100
0010
0000
0010
1000
0001
,
1000
0000
1010
0000
1001
0000
0001
0010
,
0100
0000
0110
0000
0011
0000
0010
0001
,
0100
0000
0110
0000
0010
1000
0100
0010
,
0001
0100
0010
0100
1000
0100
0010
0100
,
0001
0000
0011
0000
1001
0000
1000
0010
,
0000
0110
0000
0100
0001
0010
1000
0010
,
0001
0000
0001
0100
0000
0100
0010
1000
,
0100
0000
0100
0000
0010
0000
0001
1000
0001
1000
0001
0000
1001
0000
0000
0000
,
1000
0000
0000
0000
1010
0000
0000
0000
0101
0000
0000
0001
0000
0000
0010
0000
,
0000
0000
0001
0000
0000
1000
0000
0000
0010
0000
0000
0100
0000
0000
0001
0010
,
0001
0000
0000
0000
1001
0000
0000
0000
1000
0000
0000
0100
0000
0000
0010
0000
,
0100
0000
0000
1000
0000
0000
0010
0000
0100
0000
0000
0001
0000
0000
0010
0000
,
0100
0000
0000
0000
0110
0000
0000
0000
0011
0000
0000
0001
0000
0000
1000
0000
,
0010
0000
0000
0000
1010
0000
0000
0000
1100
0000
0000
0100
0000
0000
0010
0001
,
0010
0000
0000
0000
0101
0000
0000
0000
0011
0000
0000
0010
0000
0000
0100
0000
,
1000
0000
0000
0000
1010
0000
0000
0000
1001
0000
1000
0001
1000
0000
0001
1000
,
0001
0000
0000
0000
0011
0000
0000
0000
1100
0000
0000
1000
0000
0000
0010
0000
,
0000
0000
1000
0000
0000
0001
0000
0000
0010
0000
0000
0100
0000
0000
1000
0010
,
1000
0000
0000
0000
1001
0000
0000
0000
0001
0000
0000
0100
0000
0000
0010
0000
,
0100
0000
0000
0001
0000
0000
0010
0000
0100
0000
0000
1000
0000
0000
0010
0000
,
0100
0000
0000
0000
0110
0000
0000
0000
1010
0000
0000
1000
0000
0000
0001
0000
,
0010
0000
0000
0000
0011
0000
0000
0000
0101
0000
0000
0100
0000
0000
0010
1000
,
0010
0000
0000
0000
1100
0000
0000
0000
1010
0000
0000
0010
0000
0000
0100
0000
,
0001
0000
0000
0000
0011
0000
0000
0000
1001
0000
0000
1000
0000
0000
0010
0000
,
0220
0000
0000
0000
,
0000
0000
0000
0000
,
0330
0000
0000
0000
;

//---------------dance-single - ----------------
#NOTES:
     dance-single:
     :
     Medium:
     9:
     0.406033,0.505286,0.108038,0.041553,0.182834,342.000000,329.000000,13.000000,5.000000,0.000000,0.000000,0.406033,0.505286,0.108038,0.041553,0.182834,342.000000,329.000000,13.000000,5.000000,0.000000,0.000000:
0000
0000
0000
0000
,
0000
0000
0000
0000
,
0000
0000
0000
0000
,
0000
0000
0000
0000
,
0000
0000
0000
0000
,
1000
0010
0100
0010
,
1000
0100
0010
0001
,
0100
0010
0100
0001
,
0010
0000
0000
0000
0100
0000
0000
0000
1000
0000
0001
0000
0000
0001
0000
0000
,
1000
0000
0001
0000
1000
0000
0010
0100
,
0010
1000
1001
0000
,
0001
0000
1000
0000
0001
0000
0010
0100
,
0010
0001
1001
0000
,
1000
0010
1010
0000
,
0001
0010
0011
0000
,
1100
1000
0101
0001
,
2002
0000
0000
3003
,
1000
0000
0000
0001
0000
0010
0000
0001
0000
0000
0000
0000
1000
0000
0010
0000
,
1000
0000
0000
0100
0000
0010
0000
0100
0000
1000
0000
0010
0000
0100
0000
0000
,
0001
0000
0010
0000
0100
1000
0010
1000
,
0100
0000
0000
0010
0000
0000
0000
0001
0000
0000
0000
0000
1000
0000
0010
0000
,
1000
0000
0000
0001
0000
0010
0000
0001
0000
0000
0000
0000
0100
0000
0010
0000
,
1000
0000
0000
0100
0000
0010
0000
0100
0000
1000
0000
0010
0000
0000
0100
0000
,
0001
0000
0010
0000
0001
1000
0010
1000
,
0100
0000
0000
1000
0000
0000
0000
0001
0000
1000
0000
0001
1000
0001
1000
0001
,
1000
1000
0010
0010
,
0100
0100
0001
0001
,
0010
0010
0100
0100
,
1000
1000
0001
0001
,
1000
0000
1000
0000
1000
0000
1000
0010
,
0000
0010
0000
0010
0100
0000
0001
0000
,
0010
0000
0010
0100
0000
0100
1000
0000
,
0010
0000
0010
0100
0000
0100
0001
0000
,
1000
1000
0100
0010
,
0001
0001
0100
0010
,
1000
0000
1000
0000
1000
0100
1000
0000
,
0001
0100
0001
0000
1000
0001
1000
0000
,
1001
0001
0010
0100
,
1001
1000
0010
0100
,
1001
0001
1001
1000
,
2002
0000
0000
3003
,
0110
0000
0010
0000
1000
1000
0100
0010
,
0001
0000
1000
0000
0001
0000
1000
0010
,
1000
0000
0001
0000
1000
0000
0001
0010
,
0001
0000
0100
0000
0010
1000
0010
0000
,
1000
0000
0100
0000
0010
0001
1000
0000
,
0100
0000
0100
0000
0100
0000
0100
0010
,
0000
0010
0000
0010
0001
0000
0100
0000
,
0010
0000
0010
1000
0000
1000
0001
0000
,
0100
0000
0100
0001
0000
0001
0010
0000
,
0001
0000
1000
0000
0001
0000
1000
0100
,
1000
0000
0001
0000
1000
0000
0001
0100
,
0001
0000
0010
0000
0100
1000
0100
0000
,
1000
0000
0010
0000
0100
0001
1000
0000
,
0010
0000
0010
0000
0010
0000
0010
0100
,
0000
0100
0000
0100
0001
0000
0010
0000
,
0100
0000
0100
1000
0000
1000
0001
0000
,
1000
1000
0010
0000
1000
0001
1000
0000
,
0001
0000
0000
0000
0001
0000
0000
0000
1000
0000
0000
0010
0000
0000
0100
0000
,
0000
0000
0001
0000
0000
0010
0000
0000
0100
0000
0000
1000
0000
0000
0001
0000
,
1000
0000
0000
0000
0010
0000
0000
0000
1000
0000
0000
0001
0000
0000
1000
0000
,
0001
0000
0000
0000
0010
0000
0000
0000
0001
0000
0000
1000
0000
0000
0001
0000
,
1000
0000
0000
0000
0010
0000
0000
0000
0100
0000
0000
0001
0000
0000
0100
0000
,
0001
0000
0000
0000
0010
0000
0000
0000
0100
0000
0000
1000
0000
0000
0100
0000
,
1000
0000
0000
0000
0010
0000
0000
0000
1000
0000
0000
0100
0000
0000
0010
0000
,
0001
0000
0000
0000
0010
0000
0000
0000
0001
0000
0000
0100
0000
0000
0010
0000
,
1000
0000
0000
0000
1000
0000
0000
0000
0001
0000
0000
0010
0000
0000
0100
0000
,
0000
0000
1000
0000
0000
0010
0000
0000
0100
0000
0000
0001
0000
0000
1000
0000
,
0001
0000
0000
0000
0010
0000
0000
0000
0001
0000
0000
1000
0000
0000
0001
0000
,
1000
0000
0000
0000
0010
0000
0000
0000
1000
0000
0000
0001
0000
0000
1000
0000
,
0001
0000
0000
0000
0010
0000
0000
0000
0100
0000
0000
1000
0000
0000
0100
0000
,
1000
0000
0000
0000
0010
0000
0000
0000
0100
0000
0000
0001
0000
0000
0100
0000
,
0001
0000
0000
0000
0010
0000
0000
0000
0001
0000
0000
0100
0000
0000
0010
0000
,
1000
0000
0000
0000
0010
0000
0000
0000
1000
0000
0000
0100
0000
0000
0010
0000
,
0002
0000
0000
0000
,
0000
0000
0000
0000
,
0003
0000
0000
0000
;

//---------------dance-single - ----------------
#NOTES:
     dance-single:
     :
     Easy:
     6:
     0.276625,0.284223,0.033242,0.066485,0.000000,233.000000,229.000000,4.000000,8.000000,0.000000,0.000000,0.276625,0.284223,0.033242,0.066485,0.000000,233.000000,229.000000,4.000000,8.000000,0.000000,0.000000:
0000
0000
0000
0000
,
0000
0000
0000
0000
,
0000
0000
0000
0000
,
0000
0000
0000
0000
,
0000
0000
0000
0000
,
1000
1000
1000
0000
,
0001
0001
0001
0000
,
0100
0100
0100
0000
,
0010
0010
0010
0000
,
1000
1000
0001
0001
,
0010
0010
0100
0000
,
1000
1000
0001
0001
,
0100
0100
0010
0000
,
1000
0100
0010
0000
,
0001
0100
0010
0000
,
2000
3000
0002
0003
,
2002
0000
0000
3003
,
1000
0100
0010
0100
,
1000
0010
0100
0001
,
0010
0100
0010
0001
,
0100
0010
1000
0001
,
1000
0100
0010
0001
,
0100
0010
0100
0001
,
0010
0100
1000
0010
,
0100
0010
0000
0000
,
1000
0000
1000
0000
,
0001
0000
0001
0000
,
0100
0000
0100
0000
,
0010
0000
0010
0000
,
1000
0000
1000
0000
,
0001
0000
0001
0000
,
0010
0000
0010
0000
,
0100
0000
0100
0000
,
1000
1000
0001
0000
,
0001
0001
1000
0000
,
1000
1000
0010
0100
,
0001
0010
0100
1000
,
0001
0001
1000
0000
,
1000
1000
0001
0000
,
1001
0000
0110
0000
,
2002
0000
0000
3003
,
1000
0010
0100
0100
,
0001
0001
0010
0100
,
1000
1000
0010
0100
,
0001
0001
1000
0100
,
0010
0001
0100
0010
,
1000
1000
0100
0010
,
0001
0001
0100
0010
,
1000
1000
0001
0001
,
1000
0001
1000
1000
,
1000
1000
0010
0100
,
0001
0001
0010
0100
,
1000
1000
0001
0100
,
0010
1000
0100
0010
,
0001
0001
0100
0010
,
1000
1000
0100
0010
,
0001
0000
0000
0000
,
1000
0001
0010
0010
,
0001
0001
1000
0010
,
1000
0100
0010
0001
,
1000
1000
0001
0010
,
0001
0100
0010
1000
,
0100
0100
0010
0100
,
1000
1000
0001
0100
,
0010
0010
1000
0100
,
0010
0010
0001
1000
,
1000
1000
0001
0010
,
0001
0100
0010
1000
,
0001
0001
1000
0010
,
1000
0100
0010
0001
,
0100
0100
0010
0100
,
0001
0001
1000
0100
,
0010
0000
0100
0000
,
2000
0000
0000
0000
,
3002
0000
0000
0000
,
0000
0000
0000
0000
,
0003
0000
0000
0000
;

//---------------dance-single - ----------------
#NOTES:
     dance-single:
     :
     Beginner:
     4:
     0.151966,0.215245,0.000000,0.000000,0.000000,128.000000,128.000000,0.000000,0.000000,0.000000,0.000000,0.151966,0.215245,0.000000,0.000000,0.000000,128.000000,128.000000,0.000000,0.000000,0.000000,0.000000:
// measure 0
0000
0000
0000
0000
,  // measure 1
0000
0000
0000
0000
,  // measure 2
0000
0000
0000
0000
,  // measure 3
0000
0000
0000
0000
,  // measure 4
0000
0000
0000
0000
,  // measure 5
0000
1000
0000
1000
,  // measure 6
0000
0001
0000
0001
,  // measure 7
0000
1000
0000
1000
,  // measure 8
0000
0001
0000
0000
,  // measure 9
0000
1000
0000
0001
,  // measure 10
0001
0000
1000
0000
,  // measure 11
0000
0001
0000
1000
,  // measure 12
1000
0000
0001
0000
,  // measure 13
1000
1000
1000
0000
,  // measure 14
0001
0001
0001
0000
,  // measure 15
1000
0000
0001
0000
,  // measure 16
1000
0000
0000
0000
,  // measure 17
0001
0000
0010
0000
,  // measure 18
0100
0000
1000
0000
,  // measure 19
0001
0000
0100
0000
,  // measure 20
0010
0000
1000
0000
,  // measure 21
0001
0000
0010
0000
,  // measure 22
0100
0000
1000
0000
,  // measure 23
0001
0000
0100
0000
,  // measure 24
0010
0000
1000
0000
,  // measure 25
0001
0000
0000
0000
,  // measure 26
0001
0000
0000
0000
,  // measure 27
1000
0000
0000
0000
,  // measure 28
1000
0000
0000
0000
,  // measure 29
0100
0000
0000
0000
,  // measure 30
0100
0000
0000
0000
,  // measure 31
0010
0000
0000
0000
,  // measure 32
0010
0000
0000
0000
,  // measure 33
0001
0000
0001
0000
,  // measure 34
0100
0000
0100
0000
,  // measure 35
0010
0000
0010
0000
,  // measure 36
1000
0000
1000
0000
,  // measure 37
0100
0000
0100
0000
,  // measure 38
0010
0000
0010
0000
,  // measure 39
0001
0000
0001
0000
,  // measure 40
1000
0000
0000
0000
,  // measure 41
0001
0000
0000
0000
,  // measure 42
1000
0000
0100
0000
,  // measure 43
1000
0000
0100
0000
,  // measure 44
0010
0000
0001
0000
,  // measure 45
0010
0000
0001
0000
,  // measure 46
1000
0000
0010
0000
,  // measure 47
1000
0000
0010
0000
,  // measure 48
0100
0000
0001
0000
,  // measure 49
0100
0000
0001
0000
,  // measure 50
1000
0000
0001
0000
,  // measure 51
1000
0000
0001
0000
,  // measure 52
0010
0000
0100
0000
,  // measure 53
0010
0000
0100
0000
,  // measure 54
1000
0000
0001
0000
,  // measure 55
1000
0000
0001
0000
,  // measure 56
0100
0000
0010
0000
,  // measure 57
0100
0000
0010
0000
,  // measure 58
1000
0000
0100
0000
,  // measure 59
1000
0000
0100
0000
,  // measure 60
0010
0000
0001
0000
,  // measure 61
0010
0000
0001
0000
,  // measure 62
0100
0000
0010
0000
,  // measure 63
0100
0000
0010
0000
,  // measure 64
1000
0000
0001
0000
,  // measure 65
1000
0000
0001
0000
,  // measure 66
1000
0000
0010
0000
,  // measure 67
1000
0000
0010
0000
,  // measure 68
0100
0000
0001
0000
,  // measure 69
0100
0000
0001
0000
,  // measure 70
0010
0000
0100
0000
,  // measure 71
0010
0000
0100
0000
,  // measure 72
1000
0000
0001
0000
,  // measure 73
1000
0000
0000
0000
,  // measure 74
0001
0000
0000
0000
;
