#VERSION:0.83;
#TITLE:Scatman (Ryu☆ Remix);
#SUBTITLE:;
#ARTIST:Remixed by Ryu☆;
#TITLETRANSLIT:Scatman (Ryu Remix);
#SUBTITLETRANSLIT:;
#ARTISTTRANSLIT:Remixed by Ryu;
#GENRE:HANDZ UP;
#ORIGIN:;
#CREDIT:;
#BANNER:Scatman (Ryu Remix).png;
#BACKGROUND:Scatman (Ryu Remix)-bg.png;
#PREVIEWVID:;
#JACKET:Scatman (Ryu Remix)-jacket.png;
#CDIMAGE:;
#DISCIMAGE:;
#LYRICSPATH:;
#CDTITLE:cdtitle.png;
#MUSIC:Scatman (Ryu Remix).ogg;
#OFFSET:-0.280000;
#SAMPLESTART:13.111993;
#SAMPLELENGTH:12.705994;
#SELECTABLE:YES;
#BPMS:0.000=149.000;
#STOPS:;
#DELAYS:;
#WARPS:;
#TIMESIGNATURES:0.000=4=4;
#TICKCOUNTS:0.000=4;
#COMBOS:0.000=1;
#SPEEDS:0.000=1.000=0.000=0;
#SCROLLS:0.000=1.000;
#FAKES:;
#LABELS:0.000=Song Start;
#BGCHANGES:;
#KEYSOUNDS:;
#ATTACKS:
;

//---------------dance-single - ----------------
#NOTEDATA:;
#CHARTNAME:;
#STEPSTYPE:dance-single;
#DESCRIPTION:;
#CHARTSTYLE:;
#DIFFICULTY:Hard;
#METER:12;
#RADARVALUES:0.618018,0.695287,0.038540,0.115620,0.510656,449.000000,445.000000,4.000000,12.000000,0.000000,0.000000,0.000000,0.000000,0.000000,0.618018,0.695287,0.038540,0.115620,0.510656,449.000000,445.000000,4.000000,12.000000,0.000000,0.000000,0.000000,0.000000,0.000000;
#CREDIT:;
#NOTES:
0000
0000
0000
0000
,
0000
0000
0000
0000
,
0000
0000
0000
0000
,
0001
0001
0000
0000
0000
0000
0000
0000
,
1000
1000
0000
0000
0000
0000
0000
0000
,
0001
0001
0000
0000
1000
1000
0000
0000
,
0001
1000
0001
1000
0001
1000
0001
1000
0001
1000
0001
1000
0001
1000
0001
1000
,
0002
0000
0000
0000
0000
0000
0003
0000
0000
0000
0000
1000
0100
1000
0100
1000
,
0100
0000
0000
0000
0010
0000
0001
0000
0100
0010
0000
1000
0000
0001
0010
0000
,
0001
0000
0000
0000
1000
0000
0100
0000
0010
0100
0000
1000
0000
0000
0000
0000
,
1001
0000
0000
0000
0001
0000
0100
0000
0010
1000
0000
0100
0000
1000
0001
0000
,
0100
0000
0000
0000
0001
0000
1000
0000
0100
0010
0000
0001
0100
0001
0100
0001
,
0010
0000
0000
0000
0001
0000
1000
0000
0100
0010
0000
0100
0000
1000
0010
0000
,
0100
0000
0000
0000
0001
0000
0010
0000
0100
1000
0000
0001
0000
0000
0000
0000
,
1001
0000
0000
0000
1000
0000
0010
0000
0100
0001
0000
0010
0000
0001
1000
0000
,
0010
0000
0000
0000
0100
0000
0010
0000
1000
0100
0000
1000
0010
1000
0010
1000
,
0010
0000
0000
0000
0100
0000
0001
0000
0010
0100
0000
1000
0000
0010
0000
0100
,
0001
0010
1000
0010
0002
0000
2003
0000
,
3100
0000
0000
0000
0010
0000
0001
0000
0100
0010
0000
1000
0000
0100
0000
1000
,
0001
0010
0001
1000
0100
0010
0001
0000
,
0100
0000
0000
0000
0001
0000
0010
0000
0001
1000
0000
0010
0000
1000
0000
0100
,
1000
0010
0001
0010
2000
0000
3200
0000
,
0310
0000
0000
0000
0001
0000
0100
0000
0010
1000
0000
0001
0000
0010
0000
0001
,
1000
0010
0100
0001
0000
1000
0001
0000
,
0000
0000
0020
0130
,
1000
0000
0001
0100
0010
0100
0001
1000
,
0100
0000
0010
0000
0100
0000
1000
0000
0001
0000
0100
0000
0001
1000
0001
1000
,
0001
0000
1000
0010
0100
0010
1000
0001
,
0010
0000
0100
0000
0010
0000
0001
0000
1000
0000
0010
0000
1000
0001
1000
0001
,
1000
0000
0001
0100
1000
0100
0001
0010
,
0100
0000
1000
0000
0010
0000
0100
0000
0001
0000
1000
0000
0001
0010
0001
0010
,
0001
0000
1000
0100
0001
0100
1000
0010
,
0100
0001
0010
0100
1000
0010
1000
1000
,
1000
0010
1000
0001
0010
0001
1000
0001
,
1000
0100
1000
0001
0100
0001
1000
0001
,
1000
0010
1000
0001
0100
0001
1000
0100
,
1000
0001
0010
0001
1000
0010
0100
0001
,
1000
0000
0001
0100
0010
1000
0100
0010
,
0001
0000
1000
0000
0010
0000
0100
0000
0001
0000
0010
0000
0001
1000
0001
1000
,
0001
0000
1000
0100
0010
0001
0100
0010
,
1000
0000
0001
0000
0010
0000
0100
0000
1000
0000
0010
0000
1000
0001
1000
0001
,
1000
0000
0001
0100
0010
0100
1000
0100
,
0010
0000
0100
0000
0001
0000
0010
0000
0100
0000
1000
0000
0001
0100
0001
0100
,
0001
0000
1000
0100
0010
0100
0001
0100
,
0010
0100
1000
0010
0100
0001
0010
0000
,
0002
0000
0000
0000
0000
0000
0000
0003
0000
0000
0000
1000
0010
1000
0010
1000
,
0010
0000
0000
0000
0100
0000
0001
0000
0010
0100
0000
1000
0000
0001
0100
0000
,
0010
0000
0000
0000
1000
0000
0100
0000
0010
0100
0000
1000
0000
0000
0000
0000
,
1001
0000
0000
0000
0001
0000
0100
0000
0010
0100
0000
0001
0000
1000
0010
0000
,
0100
0000
0000
0000
0001
0000
0010
0000
0100
1000
0000
0010
1000
0010
1000
0010
,
1000
0000
0000
0000
0100
0000
0010
0000
0001
0100
0000
0010
0000
0100
0001
0000
,
1000
0000
0000
0000
0001
0000
0100
0000
0010
1000
0000
0100
0000
0000
0000
0000
,
1001
0000
0000
0000
0001
0000
0100
0000
0001
0010
0000
0100
0000
1000
0010
0000
,
1000
0000
0000
0000
0001
0000
0100
0000
0001
1000
0000
0100
1000
0100
1000
0100
,
1000
0000
0000
0000
0001
0000
1000
0000
0100
0010
0000
0100
0000
1000
0000
0001
,
1000
0010
0001
0010
2000
0000
3200
0000
,
0310
0000
0000
0000
0001
0000
0100
0000
0010
1000
0000
0100
0000
0010
0000
0001
,
1000
0010
0100
0010
1000
0001
0010
0000
,
0001
0000
0000
0000
1000
0000
0001
0000
1000
0010
0000
0100
0000
0001
0000
0010
,
0001
0100
1000
0100
0002
0000
0023
0000
,
0130
0000
0000
0000
1000
0000
0010
0000
0100
0010
0000
1000
0000
0100
0000
0010
,
0001
0100
0001
0010
0000
0001
1000
0000
,
0000
0000
0200
0310
;

//---------------dance-single - ----------------
#NOTEDATA:;
#CHARTNAME:;
#STEPSTYPE:dance-single;
#DESCRIPTION:;
#CHARTSTYLE:;
#DIFFICULTY:Medium;
#METER:8;
#RADARVALUES:0.392283,0.423218,0.077080,0.009635,0.000000,285.000000,277.000000,8.000000,1.000000,0.000000,0.000000,0.000000,0.000000,0.000000,0.392283,0.423218,0.077080,0.009635,0.000000,285.000000,277.000000,8.000000,1.000000,0.000000,0.000000,0.000000,0.000000,0.000000;
#CREDIT:;
#NOTES:
0000
0000
0000
0000
,
0000
0000
0000
0000
,
0000
0000
0000
0000
,
0001
0001
0000
0000
0000
0000
0000
0000
,
1000
1000
0000
0000
0000
0000
0000
0000
,
0001
0001
0000
0000
1000
1000
0000
0000
,
0001
1000
0001
1000
0001
1000
0001
1000
,
0002
0000
0000
0003
0000
0000
0000
0000
,
1000
0000
1000
0010
0100
0000
0001
0000
,
0010
0000
0010
0100
1000
0000
1001
0000
,
0001
0000
0001
0100
0010
0000
1000
0000
,
0100
0000
0100
0010
0001
0000
1000
0000
,
0100
0000
0100
1000
0010
0000
0100
0000
,
0001
0000
0001
1000
0100
0000
0110
0000
,
0010
0000
0010
0001
1000
0000
0010
0000
,
0100
0000
0001
1000
0001
0000
1000
0000
,
0010
0000
1000
0100
1000
0000
0001
0000
,
1000
0010
1000
0001
0010
0000
1001
0000
,
0001
0000
1000
0001
1000
0000
0001
0000
,
1000
0010
1000
0010
1000
0001
0010
0000
,
0001
0000
1000
0001
1000
0000
0001
0000
,
1000
0100
1000
0001
0100
0000
1001
0000
,
1000
0000
0001
0100
0001
0000
1000
0000
,
0010
0100
0010
1000
0000
0100
0010
0000
,
0000
0000
0000
0001
,
1000
0010
0100
0001
,
0010
0000
0100
0000
1000
0000
0001
1000
,
0001
0100
0010
1000
,
0100
0000
0010
0000
0001
0000
1000
0001
,
1000
0100
0010
0001
,
0100
0000
0010
0000
1000
0000
0001
1000
,
0001
0010
0100
1000
,
0010
0000
0100
0000
0001
0000
1000
0001
,
1000
1000
0010
0100
,
0001
0001
0010
0100
,
1000
1000
0001
0100
,
0100
0010
1000
0001
,
1000
0100
0001
0100
,
1000
0000
0010
0000
0100
0000
0001
1000
,
0001
0010
1000
0010
,
0001
0000
0100
0000
0010
0000
1000
0001
,
1000
0010
0001
0010
,
1000
0000
0100
0000
0010
0000
0001
1000
,
0001
0100
1000
0100
,
0001
0010
0100
1000
,
0001
0000
0000
0000
,
1000
0000
1000
0100
0010
0000
0001
0000
,
0100
0000
0100
0010
1000
0000
1001
0000
,
0001
0000
0001
0010
0100
0000
1000
0000
,
0010
0000
0010
0100
0001
0000
1000
0000
,
0010
0000
0010
1000
0100
0000
0010
0000
,
0001
0000
0001
1000
0010
0000
0110
0000
,
0100
0000
0100
0001
1000
0000
0100
0000
,
0010
0000
0001
1000
0001
0000
1000
0000
,
0100
0000
1000
0010
1000
0000
0001
0000
,
1000
0100
1000
0001
0100
0000
1001
0000
,
0001
0000
1000
0001
1000
0000
0001
0000
,
1000
0100
1000
0100
1000
0001
0100
0000
,
0001
0000
1000
0001
1000
0000
0001
0000
,
1000
0010
1000
0001
0010
0000
1001
0000
,
1000
0000
0001
0010
0001
0000
1000
0000
,
0100
0010
0100
1000
0000
0010
0100
0000
,
0000
0000
0000
0001
;

//---------------dance-single - ----------------
#NOTEDATA:;
#CHARTNAME:;
#STEPSTYPE:dance-single;
#DESCRIPTION:;
#CHARTSTYLE:;
#DIFFICULTY:Easy;
#METER:5;
#RADARVALUES:0.267028,0.272069,0.000000,0.009635,0.000000,194.000000,194.000000,0.000000,1.000000,0.000000,0.000000,0.000000,0.000000,0.000000,0.267028,0.272069,0.000000,0.009635,0.000000,194.000000,194.000000,0.000000,1.000000,0.000000,0.000000,0.000000,0.000000,0.000000;
#CREDIT:;
#NOTES:
0000
0000
0000
0000
,
0000
0000
0000
0000
,
0000
0000
0000
0000
,
1000
0000
0000
0000
,
0001
0000
0000
0000
,
1000
0000
0001
0000
,
1000
1000
0001
0001
,
2000
0000
0000
3000
0000
0000
0000
0000
,
0001
0001
0010
0100
,
1000
1000
0010
0000
,
1000
1000
0100
0010
,
0001
0001
0100
0000
,
0001
0001
1000
0010
,
1000
1000
0001
0000
,
1000
1000
0001
0100
,
0001
0000
0000
0000
,
1000
0010
1000
0010
,
0100
0001
0100
0001
,
1000
0100
1000
0100
,
0010
0001
0010
0000
,
0001
0100
0001
0100
,
0010
1000
0010
1000
,
0001
0010
0001
0010
,
0100
1000
0100
1000
,
0000
0000
0000
0000
,
0001
0001
1000
1000
,
0010
0100
0001
0000
,
1000
1000
0001
0001
,
0010
0100
1000
0000
,
0001
0001
1000
1000
,
0001
0010
0100
0000
,
1000
1000
0001
0001
,
1000
0010
0100
0001
,
1000
0001
1000
0001
,
0010
0100
0010
0100
,
1000
0001
1000
0001
,
0100
0010
0100
0000
,
0001
0001
0100
0010
,
1000
1000
0100
0000
,
1000
1000
0010
0100
,
0001
0001
0010
0000
,
0001
0001
0010
0100
,
1000
1000
0010
0000
,
1000
1000
0100
0010
,
0000
0000
0000
0000
,
0001
0000
0000
0000
,
1000
1000
0010
0100
,
0001
0001
0010
0000
,
0001
0001
0100
0010
,
1000
1000
0100
0000
,
1000
1000
0001
0010
,
0001
0001
1000
0000
,
0001
0001
1000
0100
,
1000
0000
0000
0000
,
0001
0010
0001
0010
,
0100
1000
0100
1000
,
0001
0100
0001
0100
,
0010
1000
0010
0000
,
1000
0100
1000
0100
,
0010
0001
0010
0001
,
1000
0010
1000
0010
,
0100
0001
0100
0001
,
0000
0000
0000
1000
;

//---------------dance-single - ----------------
#NOTEDATA:;
#CHARTNAME:;
#STEPSTYPE:dance-single;
#DESCRIPTION:;
#CHARTSTYLE:;
#DIFFICULTY:Beginner;
#METER:3;
#RADARVALUES:0.150031,0.151149,0.000000,0.000000,0.000000,109.000000,109.000000,0.000000,0.000000,0.000000,0.000000,0.000000,0.000000,0.000000,0.150031,0.151149,0.000000,0.000000,0.000000,109.000000,109.000000,0.000000,0.000000,0.000000,0.000000,0.000000,0.000000,0.000000;
#CREDIT:;
#NOTES:
// measure 0
0000
0000
0000
0000
,  // measure 1
0000
0000
0000
0000
,  // measure 2
0000
0000
0000
0000
,  // measure 3
0001
0000
0000
0000
,  // measure 4
1000
0000
0000
0000
,  // measure 5
0001
0000
1000
0000
,  // measure 6
0001
0000
0000
0000
,  // measure 7
1000
0000
0000
0000
,  // measure 8
0001
0000
1000
0000
,  // measure 9
0001
0000
1000
0000
,  // measure 10
0010
0000
0100
0000
,  // measure 11
0010
0000
0100
0000
,  // measure 12
0001
0000
1000
0000
,  // measure 13
0001
0000
1000
0000
,  // measure 14
0100
0000
0010
0000
,  // measure 15
0100
0000
0000
0000
,  // measure 16
1000
0000
0001
0000
,  // measure 17
1000
0000
0001
0000
,  // measure 18
0100
0000
0010
0000
,  // measure 19
0100
0000
0010
0000
,  // measure 20
1000
0000
0001
0000
,  // measure 21
1000
0000
0001
0000
,  // measure 22
0010
0000
0100
0000
,  // measure 23
0010
0000
0100
0000
,  // measure 24
0000
0000
0000
0000
,  // measure 25
1000
0000
1000
0000
,  // measure 26
0001
0000
0001
0000
,  // measure 27
0010
0000
0010
0000
,  // measure 28
0100
0000
0100
0000
,  // measure 29
1000
0000
1000
0000
,  // measure 30
0001
0000
0001
0000
,  // measure 31
0100
0000
0100
0000
,  // measure 32
0010
0000
0000
0010
,  // measure 33
1000
0000
0100
0000
,  // measure 34
1000
0000
0100
0000
,  // measure 35
0010
0000
0001
0000
,  // measure 36
0010
0000
0001
0000
,  // measure 37
1000
0000
1000
0000
,  // measure 38
0001
0000
0001
0000
,  // measure 39
0100
0000
0100
0000
,  // measure 40
0010
0000
0010
0000
,  // measure 41
1000
0000
1000
0000
,  // measure 42
0001
0000
0001
0000
,  // measure 43
0010
0000
0010
0000
,  // measure 44
0000
0000
0000
0000
,  // measure 45
0001
0000
0000
0000
,  // measure 46
1000
0000
0001
0000
,  // measure 47
1000
0000
0001
0000
,  // measure 48
0010
0000
0100
0000
,  // measure 49
0010
0000
0100
0000
,  // measure 50
1000
0000
0001
0000
,  // measure 51
1000
0000
0001
0000
,  // measure 52
0100
0000
0010
0000
,  // measure 53
0100
0000
0000
0000
,  // measure 54
0001
0000
1000
0000
,  // measure 55
0001
0000
1000
0000
,  // measure 56
0100
0000
0010
0000
,  // measure 57
0100
0000
0010
0000
,  // measure 58
0001
0000
1000
0000
,  // measure 59
0001
0000
1000
0000
,  // measure 60
0010
0000
0100
0000
,  // measure 61
0010
0000
0100
0000
,  // measure 62
0001
0000
0000
1000
;
