#TITLE:Saturday Night Love -Phunk Disco Mix-;
#SUBTITLE:;
#ARTIST:SOTA feat. Brenda V.;
#TITLETRANSLIT:;
#SUBTITLETRANSLIT:;
#ARTISTTRANSLIT:;
#GENRE:FUNK DISCO;
#CREDIT:;
#BANNER:Saturday Night Love -Phunk Disco Mix-.png;
#BACKGROUND:Saturday Night Love -Phunk Disco Mix--bg.png;
#LYRICSPATH:;
#CDTITLE:cdtitle.png;
#MUSIC:Saturday Night Love -Phunk Disco Mix-.ogg;
#OFFSET:-0.080000;
#SAMPLESTART:74.796997;
#SAMPLELENGTH:14.222000;
#SELECTABLE:YES;
#BPMS:0.000000=135.000000
;
#STOPS:
;
#BGCHANGES:;
#KEYSOUNDS:;
#ATTACKS:;

//---------------dance-single - ----------------
#NOTES:
     dance-single:
     :
     Hard:
     11:
     0.444493,0.501506,0.090306,0.123145,0.275023,379.000000,368.000000,11.000000,15.000000,0.000000,0.000000,0.444493,0.501506,0.090306,0.123145,0.275023,379.000000,368.000000,11.000000,15.000000,0.000000,0.000000:
0000
0000
0000
0000
,
0000
0000
0000
0000
,
0000
0000
0000
0000
,
0000
0000
0000
0000
,
0010
0000
0000
0000
0100
1000
0100
1000
,
0001
0000
0000
1000
0000
0000
0010
0000
,
0100
0000
0000
0000
0000
0000
0000
0001
,
0000
0000
0000
0000
1001
1001
1001
0000
,
0100
0000
0000
0001
0000
1000
0001
0000
0010
0000
0000
0100
0000
1000
0000
0000
,
0010
0000
0000
1000
0000
0001
0100
0000
0001
0000
1000
0000
0010
1000
0000
0000
,
0001
0000
0000
1000
0000
0010
1000
0000
0100
0000
0000
0010
0000
0001
0000
0000
,
1000
0000
0000
0001
0000
1000
0010
0000
0100
0000
0001
0000
0010
0100
0000
0100
,
0010
0000
0000
0001
0000
1000
0010
0000
0100
0000
0000
0010
0000
1000
0000
0000
,
0100
0000
0000
0010
0000
0001
1000
0000
0010
0000
0000
1000
0000
0100
0000
0000
,
1000
0000
0000
0001
0000
0100
0001
0000
0010
0000
0100
0000
1000
0001
0000
0000
,
1000
0000
0000
1000
0010
0000
0000
0010
0100
0000
0001
0000
0010
0001
0000
0001
,
1000
0000
0000
0100
0000
0010
0100
0000
1000
0000
0000
0001
0000
0100
0000
0000
,
0001
0000
0000
0010
0000
0100
0010
0000
0001
0000
1000
0000
0010
1000
0000
0000
,
0100
0000
0000
1000
0000
0001
0100
0000
0010
0000
0000
1000
0000
0100
0000
0000
,
1000
0000
0000
0001
0000
0100
0001
0000
0010
0000
0100
0000
1000
0001
0000
0001
,
0010
0000
0000
0100
0000
1000
0001
0000
0010
0000
0000
0001
0000
1000
0000
0000
,
0100
0000
0000
0010
0000
0001
1000
0000
0010
0000
0000
0100
0000
0010
0000
0000
,
1000
0000
0000
0100
0000
0010
0100
0000
1000
0000
0000
0001
0000
0100
0000
0000
,
0010
0000
0000
0010
1000
0000
0000
1000
0100
0000
0010
0000
0001
0100
0002
0000
,
0000
0000
0000
0000
,
0000
0000
0000
0000
,
1003
0000
0001
0000
0010
0100
1000
0100
,
0010
0000
0000
0000
0001
0000
0100
0000
0010
0000
0000
1000
0000
0000
0001
0000
,
0100
0000
0010
1000
0010
0000
1000
0000
,
0100
0000
0000
0010
0000
0000
0001
0000
1000
0000
0000
0100
0000
0000
1000
0000
,
0010
0000
0100
0001
0100
0000
0010
0000
,
1000
0000
0001
0100
0010
0000
1000
0000
,
0100
0000
0000
0000
0010
0000
0000
0000
0001
0000
0000
0100
0000
0000
0010
0000
,
1000
0000
0100
0010
0100
0000
0010
0001
,
1001
0000
1000
0000
0010
0100
0001
0010
,
0100
0000
0000
0000
1000
0000
0100
0000
0010
0000
0000
0100
0000
0000
1000
0000
,
0001
0000
0100
0010
0100
0000
0010
1000
,
0100
0000
0000
1000
0000
0000
0001
0000
0010
0000
0000
0001
0000
0000
1000
0000
,
0010
0000
0100
0001
0100
0000
0010
0000
,
1000
0000
0100
0010
0001
0000
0100
0000
,
0002
1000
0010
0103
,
2000
0000
0010
0000
0001
0001
3001
0000
,
1000
0100
0001
0100
0000
0100
0010
0001
,
1000
0000
1000
0020
0000
0000
0130
0000
,
0001
0010
1000
0010
0100
0010
0001
1000
,
0010
0100
0001
2000
0000
0000
3010
0000
,
1000
0001
0100
0010
1000
0100
0001
0100
,
1000
0001
0010
0100
0000
0100
0010
0001
,
2000
0000
0000
0020
0000
0000
0000
0000
,
0000
0000
3030
0000
1001
1001
1001
0000
,
1000
0100
0001
0100
0010
0100
1000
0010
,
0100
0001
1000
0200
0000
0000
0310
0000
,
0001
0010
1000
0010
0001
0000
0001
1000
,
0010
0100
0010
2000
0000
0000
3010
0000
,
1000
0100
0010
1000
0010
0001
0100
0000
,
0100
0001
0010
0100
0000
0100
1000
0002
,
0000
0000
0000
0200
0000
0000
0000
0000
,
0000
0000
0303
0000
0110
0110
0110
0000
,
1000
0100
0001
0100
0000
0010
0100
1000
,
0000
0100
0010
0200
0000
0000
1300
0000
,
0001
0100
1000
0100
0000
0010
0100
0001
,
0000
0100
0010
0200
0000
0000
0301
0000
,
1000
0010
0100
0001
0000
0001
0010
0100
,
0000
0100
1000
0002
0000
0000
0103
0000
,
0001
0010
0100
1000
0000
1000
0010
0100
,
0000
0100
0001
2000
0000
0000
3001
0001
,
1000
0100
0010
0001
0000
0001
0100
1000
,
0000
1000
0100
0001
0000
1000
0001
1001
;

//---------------dance-single - ----------------
#NOTES:
     dance-single:
     :
     Medium:
     8:
     0.362397,0.362199,0.016419,0.090306,0.229870,309.000000,307.000000,2.000000,11.000000,0.000000,0.000000,0.362397,0.362199,0.016419,0.090306,0.229870,309.000000,307.000000,2.000000,11.000000,0.000000,0.000000:
// measure 0
0000
0000
0000
0000
,  // measure 1
0000
0000
0000
0000
,  // measure 2
0000
0000
0000
0000
,  // measure 3
0000
0000
0000
0000
,  // measure 4
0001
0000
0000
0000
1000
0100
0010
0100
,  // measure 5
1000
0000
0000
0010
0000
0000
0100
0000
,  // measure 6
0001
0000
0000
0000
0000
0000
0000
0100
,  // measure 7
0000
0000
0000
0000
0010
0010
0010
0000
,  // measure 8
1000
0000
0000
0100
0000
1000
0000
0000
0001
0000
0000
0100
0000
0001
0000
0000
,  // measure 9
0010
0000
0000
0100
0000
1000
0000
0000
0010
0000
0000
0100
0000
0001
0000
0000
,  // measure 10
1000
0000
0000
0010
0000
1000
0000
0000
0001
0000
0000
0010
0000
0001
0000
0000
,  // measure 11
1000
0000
0000
0001
0000
0100
0000
0000
0001
0000
0000
1000
0000
0100
0000
0000
,  // measure 12
1000
0000
0000
0100
0000
0010
0000
0000
0001
0000
0000
0100
0000
0010
0000
0000
,  // measure 13
1000
0000
0000
0010
0000
0100
0000
0000
0001
0000
0000
0010
0000
0100
0000
0000
,  // measure 14
1000
0000
0000
0001
0000
0100
0000
0000
0001
0000
0000
1000
0000
0010
0000
0000
,  // measure 15
1000
0000
1001
0000
0001
1000
0100
0000
,  // measure 16
1000
0000
0000
0010
0000
0100
0000
0000
0001
0000
0000
0010
0000
0100
0000
0000
,  // measure 17
0010
0000
0000
0001
0000
1000
0000
0000
0100
0000
0000
1000
0000
0010
0000
0000
,  // measure 18
0100
0000
0000
0001
0000
0010
0000
0000
0001
0000
0000
0100
0000
0010
0000
0000
,  // measure 19
1000
0000
0000
0100
0000
0010
0000
0000
0100
0000
0000
1000
0000
0001
0000
0000
,  // measure 20
0100
0000
0000
0010
0000
0100
0000
0000
0001
0000
0000
0010
0000
0100
0000
0000
,  // measure 21
1000
0000
0000
0010
0000
0100
0000
0000
0010
0000
0000
1000
0000
0100
0000
0000
,  // measure 22
0010
0000
0000
0001
0000
1000
0000
0000
0010
0000
0000
0100
0000
0001
0000
0000
,  // measure 23
1000
0000
1001
0000
0001
0010
0100
2000
,  // measure 24
0000
0000
0000
0000
,  // measure 25
0000
0000
0000
0000
,  // measure 26
3001
0000
0100
0000
0010
0000
1000
0100
,  // measure 27
1000
0000
0010
0000
0100
0000
0001
1000
,  // measure 28
0001
0000
1000
0010
1000
0000
0001
0000
,  // measure 29
0010
0100
1000
0010
,  // measure 30
0100
0010
1000
0001
,  // measure 31
0010
0000
0001
1000
0001
0000
0100
0000
,  // measure 32
0010
1000
0100
0010
,  // measure 33
0001
0000
1000
0010
1000
0000
0001
0001
,  // measure 34
0001
0000
0010
0000
0100
0000
1000
0010
,  // measure 35
1000
0000
0001
0010
0001
0000
0100
0000
,  // measure 36
0010
0000
1000
0001
1000
0000
0010
0000
,  // measure 37
1000
0100
0010
0001
,  // measure 38
0100
0000
0010
1000
0010
0000
0100
0000
,  // measure 39
0001
0000
0010
0100
0010
0000
0001
0000
,  // measure 40
2000
0100
0010
3001
,  // measure 41
0002
0010
0100
1003
,  // measure 42
0000
1000
0010
1000
0000
0001
0010
0001
,  // measure 43
0010
0000
0001
1000
0000
0000
0100
0000
,  // measure 44
0010
0000
0001
0000
1000
0001
1000
0000
,  // measure 45
0100
0010
0100
0010
0000
0000
0100
0000
,  // measure 46
1000
0000
0001
0010
0001
0000
1000
0010
,  // measure 47
1000
0010
1000
0001
0000
0000
0100
0000
,  // measure 48
0020
0000
0000
2030
0000
0000
0000
0000
,  // measure 49
0000
3000
0000
0000
0001
0001
0001
0000
,  // measure 50
0000
1000
0010
1000
0010
0000
0100
0001
,  // measure 51
0010
0100
1000
0010
,  // measure 52
0000
0100
0001
0100
0001
0000
0010
0100
,  // measure 53
1000
0010
0100
0001
,  // measure 54
0000
0010
0001
0010
0001
1000
0001
0000
,  // measure 55
1000
0000
0001
0100
0000
0100
0010
0000
,  // measure 56
2000
0000
0000
3200
0000
0000
0000
0000
,  // measure 57
0000
0300
0000
0000
0010
0010
0010
0000
,  // measure 58
0000
0001
1000
0001
0000
1000
0100
1000
,  // measure 59
0000
0001
0100
0002
0000
0000
1003
0000
,  // measure 60
0000
1000
0001
1000
0000
0001
0010
0001
,  // measure 61
0000
1000
0010
2000
0000
0000
3001
0000
,  // measure 62
0000
0001
1000
0001
0000
1000
0100
1000
,  // measure 63
0000
0001
0100
0002
0000
0000
1003
0000
,  // measure 64
0000
1000
0001
1000
0000
0001
0010
0001
,  // measure 65
0000
1000
0010
2000
0000
0000
3001
0000
,  // measure 66
0000
1000
0100
0010
0000
0010
0100
1000
,  // measure 67
0000
0001
0100
0010
0000
0010
0100
0001
;

//---------------dance-single - ----------------
#NOTES:
     dance-single:
     :
     Easy:
     5:
     0.225179,0.250753,0.008210,0.016419,0.000000,192.000000,191.000000,1.000000,2.000000,0.000000,0.000000,0.225179,0.250753,0.008210,0.016419,0.000000,192.000000,191.000000,1.000000,2.000000,0.000000,0.000000:
0000
0000
0000
0000
,
0000
0000
0000
0000
,
0000
0000
0000
0000
,
0000
0000
0000
0000
,
0000
0000
0000
0000
,
0000
0000
0000
0000
,
0000
0000
0000
0000
,
0000
0000
0000
0000
,
1000
1000
0001
0001
,
0100
0100
0010
0010
,
1000
1000
0100
0100
,
0010
0010
0001
0001
,
1000
1000
0010
0010
,
0100
0100
0001
0001
,
1000
1000
0001
0001
,
0010
0010
0100
0100
,
1000
0010
1000
0010
,
0100
0001
0100
0001
,
1000
0100
1000
0100
,
0010
0001
0010
0001
,
1000
0001
1000
0001
,
0010
0100
0010
0100
,
1000
0001
1000
0001
,
0100
0010
0100
0010
,
0000
0000
0000
0000
,
0000
0000
0000
0000
,
1001
0000
0001
0100
,
0010
0000
1000
0001
,
1000
0000
0001
0000
,
1000
0100
0010
0001
,
0100
0000
0010
0000
,
1000
0000
0001
0000
,
0010
0000
0100
1000
,
0001
0000
1000
0000
,
0100
0000
0010
0001
,
1000
0000
0001
0100
,
0010
0000
1000
0000
,
0001
0010
0100
1000
,
0010
0000
1000
0000
,
0100
0000
0010
0000
,
0002
0000
0000
0003
,
2000
0000
0000
3000
,
0001
0001
1000
1000
,
0010
0010
0100
0100
,
0001
0001
0010
0010
,
0100
0100
1000
1000
,
0001
0001
1000
1000
,
0100
0100
0010
0010
,
0001
0001
0100
0100
,
0010
0010
1000
1000
,
0001
0100
0001
0100
,
0010
1000
0010
1000
,
0001
0010
0001
0010
,
0100
1000
0100
1000
,
0001
1000
0001
1000
,
0100
0010
0100
0010
,
0001
1000
0001
1000
,
0010
0100
0010
0100
,
0001
0000
1000
0000
,
0100
0000
0010
0000
,
0001
0000
0100
0000
,
0010
0000
1000
0000
,
0100
0000
1000
0000
,
0100
0000
0010
0000
,
0001
0000
0010
0000
,
0001
0000
0100
0000
,
0001
1000
0001
1000
,
0000
0001
0000
0001
0000
1000
0000
1000
;

//---------------dance-single - ----------------
#NOTES:
     dance-single:
     :
     Beginner:
     2:
     0.092652,0.139307,0.000000,0.000000,0.000000,79.000000,79.000000,0.000000,0.000000,0.000000,0.000000,0.092652,0.139307,0.000000,0.000000,0.000000,79.000000,79.000000,0.000000,0.000000,0.000000,0.000000:
0000
0000
0000
0000
,
0000
0000
0000
0000
,
0000
0000
0000
0000
,
0000
0000
0000
0000
,
0000
0000
0000
0000
,
0000
0000
0000
0000
,
0000
0000
0000
0000
,
0000
0000
0000
0000
,
1000
0000
0000
0000
,
1000
0000
0000
0000
,
0001
0000
0000
0000
,
0001
0000
0000
0000
,
0100
0000
0000
0000
,
0100
0000
0000
0000
,
0010
0000
0000
0000
,
0010
0000
0100
0000
,
0010
0000
0000
0000
,
0010
0000
0000
0000
,
1000
0000
0000
0000
,
1000
0000
0000
0000
,
0100
0000
0000
0000
,
0100
0000
0000
0000
,
1000
0000
0000
0000
,
1000
0000
0001
0001
,
0000
0000
0000
0000
,
0000
0000
0000
0000
,
1000
0000
0000
0000
,
0001
0000
0000
0000
,
1000
0000
0000
0000
,
0001
0000
0000
0000
,
0100
0000
0000
0000
,
0010
0000
0000
0000
,
0100
0000
0000
0000
,
0010
0000
0000
0000
,
1000
0000
0000
0000
,
0001
0000
0000
0000
,
1000
0000
0000
0000
,
0001
0000
0000
0000
,
0010
0000
0000
0000
,
0100
0000
0000
0000
,
0010
0000
0000
0000
,
0100
0000
0000
0000
,
1000
0000
1000
0000
,
0001
0000
0001
0000
,
1000
0000
1000
0000
,
0001
0000
0001
0000
,
0100
0000
0100
0000
,
0010
0000
0010
0000
,
0100
0000
0100
0000
,
0010
0000
0010
0000
,
1000
0000
1000
0000
,
0001
0000
0001
0000
,
1000
0000
1000
0000
,
0001
0000
0001
0000
,
0010
0000
0010
0000
,
0100
0000
0100
0000
,
0010
0000
0010
0000
,
0100
0000
0100
0000
,
1000
0000
0000
0000
,
0001
0000
0000
0000
,
0100
0000
0000
0000
,
0010
0000
0000
0000
,
1000
0000
0000
0000
,
0001
0000
0000
0000
,
0010
0000
0000
0000
,
0100
0000
0000
0000
,
1000
0000
1000
0000
,
0001
0000
0000
0000
0000
0000
0000
0100
;
