#VERSION:0.83;
#TITLE:STERLING SILVER;
#SUBTITLE:;
#ARTIST:TAG;
#TITLETRANSLIT:;
#SUBTITLETRANSLIT:;
#ARTISTTRANSLIT:;
#GENRE:TRANCECORE;
#ORIGIN:;
#CREDIT:;
#BANNER:STERLING SILVER.png;
#BACKGROUND:STERLING SILVER-bg.png;
#PREVIEWVID:;
#JACKET:STERLING SILVER-jacket.png;
#CDIMAGE:;
#DISCIMAGE:;
#LYRICSPATH:;
#CDTITLE:cdtitle.png;
#MUSIC:STERLING SILVER.ogg;
#OFFSET:-1.430000;
#SAMPLESTART:90.023003;
#SAMPLELENGTH:11.400000;
#SELECTABLE:YES;
#BPMS:0.000=175.000;
#STOPS:178.000=0.343;
#DELAYS:;
#WARPS:;
#TIMESIGNATURES:0.000=4=4;
#TICKCOUNTS:0.000=4;
#COMBOS:0.000=1;
#SPEEDS:0.000=1.000=0.000=0;
#SCROLLS:0.000=1.000;
#FAKES:;
#LABELS:0.000=Song Start;
#BGCHANGES:;
#KEYSOUNDS:;
#ATTACKS:
;

//---------------dance-single - ----------------
#NOTEDATA:;
#CHARTNAME:;
#STEPSTYPE:dance-single;
#DESCRIPTION:;
#CHARTSTYLE:;
#DIFFICULTY:Challenge;
#METER:17;
#RADARVALUES:0.861580,1.135064,0.117271,0.033506,0.783200,720.000000,706.000000,14.000000,4.000000,0.000000,0.000000,0.000000,0.000000,0.000000,0.861580,1.135064,0.117271,0.033506,0.783200,720.000000,706.000000,14.000000,4.000000,0.000000,0.000000,0.000000,0.000000,0.000000;
#CREDIT:;
#NOTES:
0000
0000
0000
0000
,
0000
0000
0000
0000
,
0000
0000
0000
0000
,
0000
0000
0000
0000
,
1000
0000
0010
0000
1000
0100
1000
0100
1000
0000
0001
0100
0000
0000
0100
0000
,
0001
0000
0010
0000
0001
0100
0001
0100
0001
0000
1000
0100
0000
0000
0100
0000
,
0010
0000
0001
0010
0001
0000
1000
0010
1000
0000
0001
0100
0001
0000
1000
0100
,
1000
0000
0000
0010
0000
0000
0100
0000
0000
0001
0010
0000
0100
0000
1000
0001
,
2000
0000
0000
0000
,
3001
0000
1000
0010
0000
0100
0010
0000
1000
0100
0000
0010
0001
0100
0010
0100
,
0001
0000
1000
0100
0000
0010
0100
0000
1000
0010
0000
0100
0001
0010
0100
0010
,
0001
0000
1000
0001
0000
0010
0001
0000
0100
0000
0010
0000
1000
0000
0100
0000
,
0010
0000
0001
1000
0000
0010
1000
0000
0001
0000
0100
0010
1000
0100
0010
0001
,
0100
0000
0010
0100
0010
1000
0100
0000
0010
0100
0000
0010
0001
1000
0010
0100
,
0001
0010
0001
0010
0001
1000
0100
0000
1000
0001
0000
1000
0010
0000
0100
0000
,
0010
0000
1000
0100
0000
1000
0001
0000
0010
0000
0100
0000
0010
0000
0001
0000
,
0100
0000
0001
0010
0000
0010
0100
0000
1000
0100
1000
0000
0010
0000
1000
0001
,
1000
0010
0010
0010
0100
0001
0010
0100
,
1000
0010
1000
0000
0001
1000
0100
0010
,
0001
0100
0100
0100
0001
1000
0010
0100
,
0001
0010
0001
0000
1000
0010
0100
0000
,
0001
1000
1000
1000
0010
0100
0001
1000
,
0100
0010
0100
0000
1000
0001
1000
0010
,
0100
0001
0001
0001
1000
0100
0010
0100
,
1000
0000
0001
1000
0001
0000
1000
0010
1000
0000
0010
0000
0100
0001
0100
0001
,
0010
1000
1000
1000
0010
0001
0100
1000
,
0100
0010
1000
0000
0100
1000
0010
0100
,
1000
0100
0100
0100
0001
0010
1000
0010
,
0001
1000
0100
0000
1000
0010
0100
0000
,
0001
0010
0010
0010
1000
0010
0100
1000
,
0001
0100
0010
0000
1000
0100
0010
0001
,
0100
1000
1000
1000
0100
0010
0100
0001
,
0100
0000
0010
1000
0010
0000
1000
0001
1000
0001
0100
0010
0100
0010
1000
0001
,
1000
0100
0010
0100
,
1000
0010
0100
0010
,
1000
0010
0001
0010
,
1000
0000
0100
0000
0001
0100
1000
0010
,
1000
0001
0010
0100
,
1000
0010
0100
0001
,
1000
0100
0001
0100
,
0010
0000
0100
0000
1000
0001
1000
0001
,
2002
0000
0000
0000
,
0000
0000
0000
3003
,
1010
1010
0101
0101
,
0010
0100
0010
0100
0010
0100
0010
0100
0010
0000
0000
0000
0001
0010
0100
0010
,
0001
0000
1000
0000
0010
0000
0100
0000
0001
0000
0010
0000
0100
0000
0000
0100
,
0010
0000
0001
0000
1000
0000
0010
0100
1000
0000
0000
0000
0100
0010
0100
0000
,
0001
0010
0001
0000
1000
0010
1000
0000
0010
0100
0010
0000
1000
0001
0100
0001
,
1000
0000
0100
0000
0011
0000
1001
0000
0101
0000
0000
0000
0010
0000
0000
0010
,
1000
0001
0010
0100
1000
0100
0010
0000
,
0000
0000
0100
1000
0100
0000
1000
0001
1000
0001
1000
0001
1000
0000
0000
0000
,
0001
0000
0000
1000
0010
0000
0100
0000
0001
0000
0010
0000
0100
0000
0000
0000
,
0010
0000
0000
0001
1000
0000
0001
0000
0100
0010
0100
0010
0100
0001
0100
0001
,
0100
0001
0100
0001
0010
0100
0010
0100
0010
0100
0010
0100
1000
0010
1000
0010
,
1000
0010
1000
0010
1000
0100
1000
0100
1000
0100
1000
0100
0010
0001
0010
0001
,
0010
0001
0010
0001
1000
0010
1000
0010
1000
0010
1000
0010
1000
0001
1000
0001
,
1000
0001
1000
0001
0100
0010
0100
0010
0100
0010
0100
0010
1000
0100
1000
0100
,
1000
0000
0000
0000
0000
0000
0010
0000
0000
0000
0000
0000
0100
0000
0000
0001
0000
0000
0100
0000
0000
0001
0000
0000
0100
0000
0000
0000
0010
0000
0000
0000
1000
0000
0000
0000
0001
0000
0000
1000
0000
0000
0001
0000
0000
1000
0000
0000
,
0001
0000
0100
0000
0001
0010
0001
0010
0001
0000
0000
0000
1000
0100
0010
0100
,
1000
0000
0001
0000
0100
0000
0010
0000
0100
0000
0000
0000
0001
0010
0100
0010
,
0001
0000
1000
0000
0010
0000
0100
0000
0010
0000
0000
0000
1000
0100
0010
0001
,
0010
0000
0000
0000
0001
0100
0010
1000
0010
0000
1000
0001
1000
0100
1000
0100
,
0010
0001
0010
0001
1000
0010
0100
0001
0010
0000
0000
0000
0200
0000
0000
0000
,
1300
0000
0010
0000
1000
0000
0100
0000
0010
0000
0001
0000
1000
0010
1000
0010
,
0100
0001
0100
0001
0010
0000
0100
0000
1000
0100
1000
0001
0010
0000
0001
0000
,
1000
0000
0010
1000
0010
0000
0100
0000
0001
0000
1000
0100
0010
0000
0001
0100
,
0000
0100
0010
0000
1000
0000
0001
0000
0010
0000
1000
0000
0010
0000
0001
0000
,
1000
0000
0010
1000
0010
0000
1000
0000
0100
0000
0010
0001
0010
0000
0001
1000
,
0000
0100
1000
0000
0001
0000
1000
0000
0001
0100
0001
0100
0010
0000
1000
0000
,
0010
0000
0100
1000
0100
0000
0001
0000
0010
0000
0100
0001
0100
0000
0010
0100
,
0000
0100
1000
0000
0001
0000
0010
0000
1000
0000
0010
0000
0001
0000
1000
0000
,
0010
0000
0100
0010
0100
0000
1000
0000
0100
0000
0001
0010
0001
0000
1000
0100
,
1000
0000
0010
0100
0010
0000
0000
0000
1001
0000
0000
0000
1000
0010
0100
0001
,
0010
0000
0100
1000
0100
0000
0001
0000
0100
0000
1000
0010
1000
0000
0001
0100
,
0000
0100
1000
0000
0100
0000
0010
0000
1000
0000
0100
0000
0010
0000
0001
0000
,
0100
0000
0010
0001
0010
0000
1000
0000
0100
0000
0010
1000
0010
0000
0001
0100
,
0000
0010
1000
0000
0100
0000
0010
0000
0001
1000
0001
1000
0001
0000
0100
0000
,
1000
0000
0100
0010
0100
0000
0001
0000
1000
0000
0100
0001
0100
0000
0010
0100
,
0000
0100
1000
0000
0001
0000
0100
0000
1000
0000
0100
0000
0010
0000
1000
0000
,
0010
0000
1000
0000
0001
0000
0100
0000
0001
0000
0100
0000
0001
0000
1000
0010
,
1000
0000
0001
0010
0001
0000
1000
0000
0001
1000
0001
1000
0001
0000
0000
0011
,
0000
0000
1010
0000
0000
1100
0000
0000
0101
0000
0001
0000
1000
0010
1000
0010
,
1000
1001
0000
0000
0000
0000
0000
0000
;

//---------------dance-single - ----------------
#NOTEDATA:;
#CHARTNAME:;
#STEPSTYPE:dance-single;
#DESCRIPTION:;
#CHARTSTYLE:;
#DIFFICULTY:Hard;
#METER:13;
#RADARVALUES:0.623449,0.791105,0.293177,0.050259,0.297365,521.000000,486.000000,35.000000,6.000000,0.000000,0.000000,0.000000,0.000000,0.000000,0.623449,0.791105,0.293177,0.050259,0.297365,521.000000,486.000000,35.000000,6.000000,0.000000,0.000000,0.000000,0.000000,0.000000;
#CREDIT:;
#NOTES:
0000
0000
0000
0000
,
0000
0000
0000
0000
,
0000
0000
0000
0000
,
0000
0000
0000
0000
,
1000
0000
0100
0000
1000
0000
0001
0000
0100
0000
0001
0010
0000
0000
0001
0000
,
1000
0000
0010
0000
1000
0000
0001
0000
0010
0000
0001
0100
0000
0000
0001
0000
,
0010
0000
0000
0010
0100
0000
0000
0100
1000
0000
0000
1000
0010
0000
0000
0010
,
0100
0000
0000
0100
0000
0000
0010
0000
0000
1000
0100
0000
1000
0000
0001
1000
,
0002
0000
0000
0000
,
1003
0000
1010
0000
,
0101
0000
0000
0011
0000
0000
1001
0000
1001
0000
0000
0000
0000
0000
0000
0000
,
1010
0000
0000
0000
1000
0010
0100
0001
,
0010
0000
0000
0110
0000
0000
1100
0000
1001
0000
0001
0000
1000
0100
1000
0001
,
0010
0000
0100
1000
0100
0000
0000
0000
1000
0000
0100
0000
0010
0000
0001
0000
,
0100
0010
0100
0010
0100
0000
0001
0000
0010
0000
0100
0000
1000
0000
0001
0000
,
0100
0000
0001
0100
0000
0001
0100
0000
0010
0000
1000
0000
0010
0000
0100
0000
,
0001
0000
0000
1000
0000
0000
0010
0000
0000
0010
1000
0000
0100
0000
1000
0000
,
0001
0100
0010
0100
0001
0010
0000
0100
,
1000
0100
0000
0000
0000
0010
0001
1000
,
0001
0010
0100
0010
0001
1000
0000
0010
,
1000
0010
0000
0000
0000
0100
0001
0000
,
1000
0100
0010
0100
1000
0001
0000
0010
,
0001
0010
0000
0000
0000
0100
1000
0001
,
1000
0010
0100
0010
1000
0001
0000
0100
,
0001
0000
0100
0010
0100
0000
0010
0100
0010
0000
1000
0000
0001
1000
0001
0000
,
0010
0100
1000
0100
0001
0100
0000
1000
,
0100
0010
0001
0000
1000
0010
0100
1000
,
0100
0001
0010
0001
1000
0010
0000
0100
,
0001
0010
1000
0000
0010
0100
1000
0000
,
0001
0010
1000
0010
0001
1000
0000
0100
,
0010
0001
1000
0000
0010
0100
1000
0100
,
0010
1000
0100
0010
0001
0100
0000
0001
,
0010
0000
0000
0010
0001
0000
0000
0001
1000
0000
0010
0000
0100
0000
0001
0000
,
1000
0100
0001
0100
,
1000
0100
0001
0100
,
1000
0010
0001
0010
,
1000
0000
0010
0000
0001
0010
1000
0100
,
0001
0100
1000
0100
,
0001
0100
1000
0100
,
0001
0100
1000
0010
,
0001
0000
0010
0000
1000
0001
1000
0001
,
2002
0000
0000
0000
,
0000
0000
0000
3003
,
1000
1000
0001
0001
,
0010
0100
1000
0001
1000
0000
1100
0000
,
1000
0101
0001
0011
,
0010
0000
0000
0000
0001
0000
1000
0010
1000
0010
1000
0010
1000
0000
0000
0000
,
0100
1010
0010
0101
,
0001
0000
0110
0010
0100
0000
0011
0000
,
0001
1010
1000
1100
,
0100
0000
0000
0000
0010
0000
0001
1000
0001
1000
0001
1000
0001
0000
0000
0000
,
0001
0110
1000
0110
,
0010
0000
0000
0000
1000
0000
0100
0000
0010
0000
0001
1000
0001
0000
0000
0000
,
0001
0100
0001
0000
1100
0000
0010
0001
,
1000
1100
0101
0010
,
1000
0100
1000
0000
0001
0000
1000
0000
0010
0000
0000
0000
0100
0000
0001
0000
,
0100
0000
0000
0000
0001
0000
0010
0000
0100
1000
0100
1000
0100
0000
0010
0000
,
0001
0000
0000
0000
0000
0000
1000
0000
0000
0000
0000
0000
1000
0000
0000
0000
0000
0000
0001
0000
0000
0000
0000
0000
0100
0000
0000
0000
0010
0000
0000
0000
0100
0000
0000
0000
0010
0000
0000
0000
0000
0000
1000
0000
0000
0100
0000
0000
,
1000
0001
0010
1000
0010
0000
0001
1000
,
0001
0000
0000
0000
0100
0010
0000
0000
1000
0000
0000
0000
1010
0000
0000
0000
,
0100
0001
0100
0100
0010
0000
1000
0100
,
0010
0000
0000
0000
0001
1000
0000
0000
0001
0000
0100
0010
0100
0000
0010
0000
,
1000
0000
0100
0000
0010
0001
0010
0000
0100
0000
0000
0000
2002
0000
0000
0000
,
0000
0000
0000
0000
3003
0000
1000
0010
,
0100
0001
0010
0000
0000
0000
0110
0000
,
0100
0000
0010
1000
0010
0000
0000
0000
1000
0000
0100
0001
0100
0000
0000
1000
,
0000
0010
0100
0000
0001
0000
0011
0000
,
1000
0000
0010
0100
0010
0000
0000
0000
0100
0000
0001
1000
0001
0000
0000
0010
,
0000
0100
1000
0000
0001
0010
0110
0000
,
0100
0000
1000
0010
1000
0000
0000
0000
0001
0000
0100
1000
0100
0000
0000
0010
,
0000
1000
0100
0000
0010
0000
0101
0000
,
0010
0000
1000
0001
1000
0000
0000
0000
0100
0000
0010
0001
0010
0000
0000
0100
,
0000
0000
1000
0000
0001
0000
0000
0000
0100
0000
0000
0000
0010
1000
0010
1000
,
0010
0000
1000
0001
1000
0000
0000
0000
0001
0000
0010
1000
0010
0000
0000
0100
,
0000
1000
0010
0000
0100
0000
0101
0000
,
0010
0000
1000
0010
1000
0000
0000
0000
0001
0000
0010
0100
0010
0000
0000
0001
,
0000
1000
0010
0000
0100
0001
0011
0000
,
0010
0000
0100
1000
0100
0000
0000
0000
1000
0000
0010
0100
0010
0000
0000
0001
,
0000
0010
1000
0000
0100
0000
0010
0001
,
0010
0000
0001
0000
1000
0000
0100
0000
1000
0000
0100
0000
0010
0000
0000
0010
,
0001
0000
0000
0001
1000
0000
0000
0000
0010
0100
0010
0100
0010
0000
0000
0010
,
0000
0000
1010
0000
0000
1010
0000
0000
1000
0000
0001
0000
0200
0000
0000
0000
,
0300
0110
0000
0000
0000
0000
0000
0000
;

//---------------dance-single - ----------------
#NOTEDATA:;
#CHARTNAME:;
#STEPSTYPE:dance-single;
#DESCRIPTION:;
#CHARTSTYLE:;
#DIFFICULTY:Medium;
#METER:9;
#RADARVALUES:0.431987,0.515938,0.083765,0.058635,0.050259,361.000000,351.000000,10.000000,7.000000,0.000000,0.000000,0.000000,0.000000,0.000000,0.431987,0.515938,0.083765,0.058635,0.050259,361.000000,351.000000,10.000000,7.000000,0.000000,0.000000,0.000000,0.000000,0.000000;
#CREDIT:;
#NOTES:
0000
0000
0000
0000
,
0000
0000
0000
0000
,
0000
0000
0000
0000
,
0000
0000
0000
0000
,
1000
0001
1000
0001
1000
0000
0000
0000
,
0010
0100
0010
0100
0010
0000
0000
0000
,
1000
0000
0000
1000
0010
0000
0000
0010
0100
0000
0000
0100
0001
0000
0000
0001
,
0010
0000
0000
0010
0000
0000
0100
0000
0000
0100
0000
0000
1000
0000
0001
0000
,
0020
0000
0000
0000
,
0031
0000
1001
0000
,
1000
0000
0000
0010
0000
0000
1000
0000
0010
0000
0000
0000
0000
0000
0000
0000
,
0100
0000
0110
0000
,
0010
0000
0000
1000
0000
0000
0010
0000
1000
0000
0001
0000
1000
0000
0001
0000
,
0010
0100
0010
0000
0100
0000
1000
0001
,
0100
0010
0100
0000
0001
0000
0010
0100
,
1000
0000
0001
0000
1000
0010
1000
0100
,
0010
0000
0000
0001
0000
0000
0200
0000
0000
0000
0000
0000
0000
0000
0000
0000
,
0301
0001
0010
0100
,
1000
0010
1000
0000
0100
0000
0010
0000
,
0001
0100
0010
1000
,
0010
0100
0010
0000
0100
0000
0001
0000
,
0010
0100
1000
0001
,
0100
0001
0100
0000
0010
0000
1000
0000
,
0100
0010
0100
1000
,
0010
1000
0001
1000
0010
1000
0001
0000
,
0010
0100
1000
0100
,
0010
0001
0010
0000
0001
0000
1000
0000
,
0010
0100
0001
1000
,
0100
1000
0010
0000
0100
0000
0001
0000
,
0010
0100
0010
0001
,
1000
0010
0100
0000
0001
0000
1000
0000
,
0010
1000
0100
1000
,
0001
0100
0010
1000
0100
0010
0001
0000
,
1000
1000
0010
0010
,
0100
0100
0001
0001
,
1000
1000
0100
0100
,
0010
0000
0010
0000
0001
1000
0001
1000
,
0001
0001
0010
0010
,
0100
0100
1000
1000
,
0001
0001
0100
0100
,
0010
0000
0010
0000
1000
0001
1000
0001
,
2002
0000
0000
0000
,
0000
0000
0000
3003
,
1000
1000
0001
0100
,
0001
0010
0001
0010
0100
0000
1000
0000
,
0000
1100
0000
0001
,
0000
0101
0000
1000
,
0000
1010
0000
0001
,
0000
0011
0000
1000
,
0010
1000
0100
1000
,
0001
0000
0100
0010
0100
0010
0100
0000
,
0001
0010
0100
1000
,
0001
0000
1000
0010
1000
0000
0001
0000
,
0100
0001
0100
0000
0010
0000
1000
0100
,
0010
0100
1000
0001
,
0100
0010
1000
0000
0001
0000
0010
0100
,
0010
0000
0001
0000
1000
0000
0001
0100
,
0001
0000
1000
0100
1000
0000
0001
0010
,
0001
0000
1000
0010
1000
0000
0001
0000
,
0001
0100
0010
1000
,
1000
0000
0100
0000
0010
0000
0001
1000
,
0001
0000
1000
0001
1000
0000
0001
0010
,
0001
0010
0100
1000
0001
0000
2002
0000
,
0000
0000
0000
0000
3003
0000
1000
0010
,
1000
0010
1000
0000
0000
0000
0001
0000
,
0010
0100
0010
0001
,
0010
1000
0010
0001
,
1000
0010
0100
0001
,
1000
0000
0100
0000
0010
0001
1000
0000
,
0010
0100
0010
1000
,
0010
0001
0010
1000
,
0001
0010
0100
1000
,
0001
0000
0100
0000
0010
1000
0010
0100
,
0010
1000
0100
0000
0010
0000
0001
0000
,
0100
1000
0100
0001
,
0100
0010
0100
0001
,
1000
0000
0100
0000
0010
0001
1000
0000
,
0100
0001
0100
1000
,
0100
0000
0010
0000
0100
0000
1000
0010
,
1000
0000
0010
0000
0100
0000
0001
0000
0100
0000
0001
0000
0010
0000
0000
0100
,
0000
0000
1000
0000
0001
0000
0000
0000
1000
0000
0000
0000
1001
0000
0000
0001
,
0000
0000
0100
0000
0000
0100
0000
0000
0010
0000
1000
0000
0200
0000
0000
0000
,
0300
1001
0000
0000
0000
0000
0000
0000
;

//---------------dance-single - ----------------
#NOTEDATA:;
#CHARTNAME:;
#STEPSTYPE:dance-single;
#DESCRIPTION:;
#CHARTSTYLE:;
#DIFFICULTY:Easy;
#METER:5;
#RADARVALUES:0.308733,0.343959,0.075388,0.025129,0.008376,258.000000,249.000000,9.000000,3.000000,0.000000,0.000000,0.000000,0.000000,0.000000,0.308733,0.343959,0.075388,0.025129,0.008376,258.000000,249.000000,9.000000,3.000000,0.000000,0.000000,0.000000,0.000000,0.000000;
#CREDIT:;
#NOTES:
0000
0000
0000
0000
,
0000
0000
0000
0000
,
0000
0000
0000
0000
,
0000
0000
0000
0000
,
1000
1000
1000
0000
,
0001
0001
0001
0000
,
1000
0000
0001
0000
,
0010
0100
0010
0100
,
0020
0000
0000
0030
,
0001
0000
1000
0000
,
0010
0010
1000
0000
,
0010
0000
1000
0000
,
0001
0001
0100
0000
,
0001
1000
0010
0100
,
0001
0010
0100
1000
,
0001
1000
0010
1000
,
0100
1000
0001
0000
,
1000
0000
0010
0000
,
1000
0000
0100
0000
,
0010
0000
0001
0000
,
0100
0000
0010
0000
,
1000
0000
0001
0000
,
0010
0000
0100
0000
,
1000
0000
0001
0000
,
1000
0000
0000
0000
,
0001
0001
0010
0100
,
1000
0010
0100
0001
,
1000
1000
0100
0010
,
0100
1000
0001
0100
,
0010
0010
1000
0001
,
0100
0010
1000
0100
,
0010
0010
0001
0100
,
0010
1000
0001
0010
,
0100
0100
1000
1000
,
0001
0001
1000
1000
,
0010
0010
0100
0100
,
0001
0001
0010
0010
,
0001
0001
1000
1000
,
0010
0010
0100
0100
,
0010
0010
1000
1000
,
0100
0100
0010
0010
,
0002
0000
0000
0000
,
0000
0000
0000
0000
,
1003
0010
1000
0010
,
1000
0100
0010
0001
,
0000
1001
0000
1000
,
0000
1001
0000
0010
,
0000
0110
0000
0100
,
0000
0110
0000
0001
,
0000
1001
0000
1000
,
0000
1001
0000
0010
,
0000
0110
0000
0100
,
0000
0110
0000
1000
,
1000
0001
0000
0001
,
0001
0100
0000
0100
,
0100
0010
0000
0010
,
0010
1000
0000
1000
,
1000
0010
0010
0100
,
0100
0001
0001
0010
,
0100
1000
0001
1000
,
0100
0010
0001
1000
,
1000
0010
0010
1000
,
0100
0010
0001
0200
,
0000
0000
0000
0301
,
0000
0000
0000
1000
,
0001
1000
0010
1000
,
0100
0010
0001
1000
,
0010
0100
0010
1000
,
0001
0100
0010
1000
,
0100
0010
0100
1000
,
0001
0010
0100
1000
,
0001
0100
0010
1000
,
0100
0010
0001
1000
,
0010
0100
0001
0100
,
0010
1000
0001
0100
,
0010
1000
0100
1000
,
0001
0010
0100
0010
,
0001
1000
0001
0100
,
0010
1000
0100
0010
,
0001
0100
0010
1000
,
1000
0000
0000
0000
0001
0000
0000
0000
0001
0000
0000
0000
0100
0000
0000
0010
,
0000
0000
0100
0000
0000
0010
0000
0000
0100
0000
0000
0000
0000
0000
0000
0000
,
0000
0110
0000
0000
0000
0000
0000
0000
;

//---------------dance-single - ----------------
#NOTEDATA:;
#CHARTNAME:;
#STEPSTYPE:dance-single;
#DESCRIPTION:;
#CHARTSTYLE:;
#DIFFICULTY:Beginner;
#METER:3;
#RADARVALUES:0.130434,0.275167,0.008376,0.008376,0.000000,109.000000,108.000000,1.000000,1.000000,0.000000,0.000000,0.000000,0.000000,0.000000,0.130434,0.275167,0.008376,0.008376,0.000000,109.000000,108.000000,1.000000,1.000000,0.000000,0.000000,0.000000,0.000000,0.000000;
#CREDIT:;
#NOTES:
// measure 0
0000
0000
0000
0000
,  // measure 1
0000
0000
0000
0000
,  // measure 2
0000
0000
0000
0000
,  // measure 3
0000
0000
0000
0000
,  // measure 4
1000
0000
0000
0000
,  // measure 5
1000
0000
0000
0000
,  // measure 6
0001
0000
0000
0000
,  // measure 7
0001
0000
0000
0000
,  // measure 8
0100
0000
0000
0000
,  // measure 9
0010
0000
0000
0000
,  // measure 10
0010
0000
0000
0000
,  // measure 11
0100
0000
0000
0000
,  // measure 12
0100
0000
0000
0000
,  // measure 13
0001
0000
0000
0000
,  // measure 14
0001
0000
0000
0000
,  // measure 15
1000
0000
0000
0000
,  // measure 16
1000
0000
0000
0000
,  // measure 17
0010
0000
0000
0000
,  // measure 18
0010
0000
0000
0000
,  // measure 19
0100
0000
0000
0000
,  // measure 20
0100
0000
0000
0000
,  // measure 21
0010
0000
0000
0000
,  // measure 22
0010
0000
0000
0000
,  // measure 23
1000
0000
0000
0000
,  // measure 24
1000
0000
0000
0000
,  // measure 25
0001
0000
0001
0000
,  // measure 26
1000
0000
1000
0000
,  // measure 27
0010
0000
0010
0000
,  // measure 28
0100
0000
0100
0000
,  // measure 29
0001
0000
0001
0000
,  // measure 30
0100
0000
0100
0000
,  // measure 31
0010
0000
0010
0000
,  // measure 32
1000
0000
1000
0000
,  // measure 33
0001
0000
0000
0000
,  // measure 34
1000
0000
0000
0000
,  // measure 35
0001
0000
0000
0000
,  // measure 36
1000
0000
0000
0000
,  // measure 37
0010
0000
0000
0000
,  // measure 38
0100
0000
0000
0000
,  // measure 39
0010
0000
0000
0000
,  // measure 40
0100
0000
0000
0000
,  // measure 41
0002
0000
0000
0000
,  // measure 42
0000
0000
0000
0003
,  // measure 43
1000
1000
1000
1000
,  // measure 44
0001
0001
0001
1000
,  // measure 45
0000
0001
0000
0100
,  // measure 46
0000
0010
0000
1000
,  // measure 47
0000
0001
0000
0100
,  // measure 48
0000
0010
0000
1000
,  // measure 49
0000
0010
0000
1000
,  // measure 50
0000
0001
0000
1000
,  // measure 51
0000
0100
0000
1000
,  // measure 52
0000
0001
0000
1000
,  // measure 53
0000
0010
0000
0100
,  // measure 54
0000
0001
0000
0100
,  // measure 55
0000
0010
0000
1000
,  // measure 56
0000
0001
0000
0100
,  // measure 57
0000
0010
0000
1000
,  // measure 58
0000
0001
0000
1000
,  // measure 59
0000
0100
0000
1000
,  // measure 60
0000
0010
0000
0100
,  // measure 61
0000
0001
0000
0010
,  // measure 62
0000
0100
0000
1000
,  // measure 63
0000
0000
0000
0000
,  // measure 64
0000
0000
0000
0001
,  // measure 65
0000
0000
0000
0001
,  // measure 66
0000
0000
0000
1000
,  // measure 67
0000
0000
0000
1000
,  // measure 68
0000
0000
0000
0010
,  // measure 69
0000
0000
0000
0010
,  // measure 70
0000
0000
0000
0100
,  // measure 71
0000
0000
0000
0100
,  // measure 72
0000
0000
0000
0001
,  // measure 73
0000
0000
0000
0010
,  // measure 74
0000
0000
0000
0100
,  // measure 75
0000
0000
0000
1000
,  // measure 76
0000
0000
0000
0001
,  // measure 77
0000
0000
0000
0100
,  // measure 78
0000
0000
0000
0010
,  // measure 79
0000
0000
0000
1000
,  // measure 80
0000
0000
0000
0100
,  // measure 81
0000
0000
0000
0000
,  // measure 82
0000
1001
0000
0000
0000
0000
0000
0000
;
