#TITLE:Restrospective;
#SUBTITLE:;
#ARTIST:naotyu- feat. maya;
#TITLETRANSLIT:;
#SUBTITLETRANSLIT:;
#ARTISTTRANSLIT:;
#GENRE:HOUSE POP;
#CREDIT:;
#BANNER:Retrospective.png;
#BACKGROUND:Retrospective-bg.png;
#LYRICSPATH:;
#CDTITLE:cdtitle.png;
#MUSIC:Retrospective.ogg;
#OFFSET:-0.700000;
#SAMPLESTART:58.600544;
#SAMPLELENGTH:14.844616;
#SELECTABLE:YES;
#BPMS:0.000000=130.000000
;
#STOPS:
;
#BGCHANGES:;
#KEYSOUNDS:;
#ATTACKS:;

//---------------dance-single - ----------------
#NOTES:
     dance-single:
     :
     Hard:
     10:
     0.442881,0.465366,0.154554,0.136371,0.331836,341.000000,324.000000,17.000000,15.000000,0.000000,0.000000,0.442881,0.465366,0.154554,0.136371,0.331836,341.000000,324.000000,17.000000,15.000000,0.000000,0.000000:
// measure 0
0000
0000
0000
0000
,  // measure 1
0000
0000
0000
0000
,  // measure 2
0000
0000
0000
0000
,  // measure 3
0000
0000
0000
0000
,  // measure 4
1001
0000
0000
0000
0000
0000
0000
0000
1000
0000
0000
0100
0000
0000
0020
0000
,  // measure 5
0000
0000
0030
0000
0000
0100
1000
0001
,  // measure 6
1001
0000
0000
0000
0000
0000
0000
0000
0001
0000
0000
0100
0000
0000
0010
0000
,  // measure 7
0100
0000
1001
0000
1000
0100
0001
0100
,  // measure 8
1000
0000
0000
0000
0001
0000
0000
1000
0010
0000
1000
0000
0100
0010
0000
0000
,  // measure 9
0001
0000
0000
0000
1000
0000
0000
0001
0010
0000
0001
0000
0100
0010
0000
0000
,  // measure 10
1000
0000
0000
0000
0100
0000
0000
1000
0010
0000
0100
0000
0001
0010
0000
0000
,  // measure 11
0001
0000
0000
0000
0100
0000
0000
0001
0010
0000
0100
0000
1000
0010
0000
0000
,  // measure 12
1000
0000
0000
0000
0001
0000
0000
0010
0100
0000
0010
0000
0001
0100
0000
0000
,  // measure 13
0001
0000
0000
0000
1000
0000
0000
0010
0100
0000
0010
0000
1000
0100
0000
0000
,  // measure 14
1000
0000
0000
0000
0010
0000
0000
1000
0100
0000
0010
0000
0001
1000
0000
0000
,  // measure 15
0001
0000
0000
0000
0010
0000
0000
0001
0100
0000
0010
0000
1000
0001
0000
0000
,  // measure 16
1000
0000
0000
0000
0000
0000
0000
0000
0101
0000
0000
0011
0000
0000
1001
0000
,  // measure 17
0000
0000
1000
0000
0100
0000
0010
0000
0001
0000
0000
0100
0000
0000
0000
0000
,  // measure 18
0001
0000
0000
0000
0000
0000
0000
0000
1100
0000
0000
1010
0000
0000
1001
0000
,  // measure 19
0000
0001
0100
0010
1000
0100
0010
0001
,  // measure 20
0100
0000
0000
0000
0000
0000
0000
0000
0110
0000
0000
0101
0000
0000
0011
0000
,  // measure 21
0000
0000
0001
0000
1000
0000
0001
0000
0100
0010
0000
1000
0000
0000
0000
0000
,  // measure 22
0100
0000
0000
0000
0000
0000
0000
0000
0110
0000
0000
1100
0000
0000
1010
0000
,  // measure 23
0000
0000
1000
0000
0001
0000
1000
0000
0100
0000
0000
1000
0001
0000
1000
0000
,  // measure 24
0010
0000
1000
0000
0100
0000
0010
0002
,  // measure 25
0000
0103
0010
1000
0001
0000
0010
0000
,  // measure 26
0100
0000
0010
0000
0001
0000
1000
0020
,  // measure 27
0000
0000
0230
0000
0000
0000
0302
0000
0000
0000
0013
0000
0000
0000
0001
1000
,  // measure 28
0001
0000
0000
1000
0000
0000
0200
0000
0000
0000
0300
0000
0000
0000
1000
0001
,  // measure 29
1000
0000
0000
0001
0000
0000
0020
0000
0000
0000
0030
0000
0000
0000
0001
1000
,  // measure 30
0001
0000
0000
0000
0100
0000
0000
0000
0010
0000
0000
0100
0000
0000
0010
0000
,  // measure 31
1000
0000
0100
0000
0010
0000
0001
0000
0100
0000
0010
0000
1000
0000
0001
1000
,  // measure 32
0001
0000
0000
0000
1000
0000
0100
0000
0001
0000
0100
0000
1000
0000
0010
0100
,  // measure 33
0010
0000
0000
0000
0100
0000
0001
0000
0010
0000
1000
0000
0010
0000
0001
0100
,  // measure 34
0001
0000
0000
0000
0010
0000
0001
0000
0010
0000
0100
0000
1000
0000
0000
0001
,  // measure 35
0000
0000
0100
0000
0000
0000
0010
0000
0000
0000
1000
0000
0000
0000
0001
0100
,  // measure 36
0002
0000
0000
0000
1003
0000
0200
0000
0000
0000
0300
0000
0000
0000
1000
0010
,  // measure 37
2000
0000
0000
0000
3001
0000
0020
0000
0000
0000
0030
0000
0000
0000
0001
1000
,  // measure 38
0001
0000
0000
0000
0100
0000
0000
0000
0010
0000
0000
0100
0000
0000
0010
0000
,  // measure 39
1000
0000
0000
0000
0100
0000
0000
0010
0001
0000
0100
0000
0010
0000
1000
0001
,  // measure 40
1000
0000
0000
0000
0001
0000
0010
0000
1000
0000
0010
0000
0001
0000
0100
0010
,  // measure 41
0100
0000
0000
0000
0001
0000
1000
0000
0100
0000
0001
0000
0100
0000
1000
0010
,  // measure 42
1000
0000
0000
0000
0001
0000
0100
0000
0010
0000
1000
0000
0100
0000
0010
0001
,  // measure 43
0000
0001
0100
0000
0000
0000
0010
0000
0000
0000
0100
0000
0000
0000
0001
1000
,  // measure 44
0002
0000
0000
0000
0103
0000
0020
0000
0000
0000
0030
0000
0000
0000
1000
0001
,  // measure 45
2000
0000
0000
0000
3010
0000
0200
0000
0000
0000
0300
0000
0000
0000
0001
1000
,  // measure 46
0001
0000
0000
0000
0100
0000
0000
0000
0010
0000
0000
0100
0000
0000
0010
0000
,  // measure 47
1000
0000
0000
0000
1001
0000
0000
0000
0001
0000
0000
0100
0000
0000
0010
0000
,  // measure 48
1000
0000
0000
0000
0100
0000
0000
1000
0001
0000
1000
0000
0001
0010
0000
0000
,  // measure 49
0001
0000
0000
0000
0100
0000
0000
0001
1000
0000
0001
0000
1000
0010
0000
0000
,  // measure 50
0100
0000
0000
0000
0001
0000
0000
0010
0100
0000
0010
0000
0001
1000
0000
0000
,  // measure 51
0100
0000
0000
0000
1000
0000
0000
0010
0100
0000
0010
0000
1000
0001
0000
0000
,  // measure 52
0010
0000
0000
0000
0100
0000
0000
0010
0001
0000
1000
0000
0001
0100
0000
0000
,  // measure 53
0010
0000
0000
0000
0100
0000
0000
0010
1000
0000
0001
0000
1000
0100
0000
0000
,  // measure 54
1000
0000
0000
0000
0001
0000
0000
1000
0100
0000
0010
0000
0001
0100
0000
0000
,  // measure 55
0001
0000
0000
0000
1000
0000
0000
0001
0100
0000
0010
0000
1000
0100
0000
0000
,  // measure 56
1000
0010
0000
0100
0000
0001
0000
0010
0000
0100
0000
1000
0010
0000
1001
0000
;

//---------------dance-single - ----------------
#NOTES:
     dance-single:
     :
     Medium:
     7:
     0.288327,0.336098,0.027274,0.054548,0.090914,222.000000,219.000000,3.000000,6.000000,0.000000,0.000000,0.288327,0.336098,0.027274,0.054548,0.090914,222.000000,219.000000,3.000000,6.000000,0.000000,0.000000:
0000
0000
0000
0000
,
0000
0000
0000
0000
,
0000
0000
0000
0000
,
0000
0000
0000
0000
,
1001
0000
0000
0000
0000
0000
0000
0000
1000
0000
0000
0010
0000
0000
0100
0000
,
0000
0000
0000
0000
0000
0001
1000
0100
,
0010
0000
0000
0000
0000
0000
0000
0000
0001
0000
0000
0100
0000
0000
0010
0000
,
1000
0000
1001
0000
1000
0100
1000
0001
,
0100
0001
0100
0010
,
1000
0100
1000
0001
,
1000
0010
0100
0001
,
0010
0100
1000
0010
,
0100
0001
0010
0100
,
1000
0010
0100
0010
,
1000
0100
0010
0100
,
1000
0000
0000
0000
0001
0000
0000
0000
0100
0000
0000
0010
0000
0000
1000
0000
,
0100
0000
0000
0000
0000
0000
0000
0000
1000
0000
0000
0001
0000
0000
1000
0000
,
0000
0000
0001
0000
0100
0000
0001
0000
1000
0000
0000
0100
0000
0000
0000
0000
,
1000
0000
0000
0000
0000
0000
0000
0000
0001
0000
0000
0100
0000
0000
0010
0000
,
0000
1000
0100
1000
0100
0000
0010
0000
,
0001
0000
0000
0000
0000
0000
0000
0000
1000
0000
0000
0001
0000
0000
1000
0000
,
0000
0000
0001
0000
0010
0000
0001
0000
0010
0000
0000
0100
0000
0000
0000
0000
,
1000
0000
0000
0000
0000
0000
0000
0000
0010
0000
0000
0100
0000
0000
0001
0000
,
0000
0000
0000
0000
0000
0000
1000
0001
,
1000
0100
0010
0100
,
1000
0010
0100
0001
,
0010
0001
0100
0010
,
0100
0001
0010
0100
,
1000
0000
0000
0010
0000
0000
2000
0000
0000
0000
3000
0000
0000
0000
0000
0000
,
0001
0000
0000
0100
0000
0000
0002
0000
0000
0000
0003
0000
0000
0000
0000
0000
,
1000
0000
0000
0000
0010
0000
0000
0000
0100
0000
0000
0100
0000
0000
0100
0000
,
0001
1000
0001
0000
1000
0000
1001
0000
,
0001
0100
0010
0100
,
0001
0010
0100
1000
,
0001
0010
0100
0010
,
0001
0100
0010
1000
,
0100
0000
0010
0200
0000
0300
0000
0000
,
1000
0000
0001
0200
0000
0300
0000
0000
,
0001
0000
0000
0000
0010
0000
0000
0000
0001
0000
0000
0001
0000
0000
0001
0000
,
1000
0000
0100
0000
0010
0001
1000
0001
,
1000
0010
0100
0001
,
0010
0001
1000
0010
,
1000
0100
0010
0100
,
1000
0010
0100
0001
,
0010
0000
0100
0020
0000
0030
0000
0000
,
0001
0000
1000
0020
0000
0030
0000
0000
,
1000
0000
0000
0000
0100
0000
0000
0000
0010
0000
0000
0010
0000
0000
0010
0000
,
0100
0000
0000
0000
1000
0000
0000
0000
0001
0000
0000
0100
0000
0000
0001
0000
,
1000
0001
0010
0001
,
1000
0100
1000
0100
,
0010
0001
0100
0010
,
1000
0001
1000
0010
,
1000
0100
0010
0001
,
0100
0001
0010
0001
,
1000
0001
0010
0001
,
0010
0100
1000
0100
,
1000
0000
0000
0001
0000
0010
0000
0001
0000
1000
0000
0001
0000
0000
0100
0000
;

//---------------dance-single - ----------------
#NOTES:
     dance-single:
     :
     Easy:
     4:
     0.151956,0.232683,0.072731,0.009091,0.000000,117.000000,109.000000,8.000000,1.000000,0.000000,0.000000,0.151956,0.232683,0.072731,0.009091,0.000000,117.000000,109.000000,8.000000,1.000000,0.000000,0.000000:
0000
0000
0000
0000
,
0000
0000
0000
0000
,
0000
0000
0000
0000
,
0000
0000
0000
0000
,
1001
0000
0000
0000
,
0000
0000
0000
0000
,
1001
0000
0001
0000
,
1000
0010
0100
0001
,
1000
0000
1000
0000
,
0010
0000
0010
0000
,
0100
0000
0100
0000
,
0001
0000
0001
0000
,
0010
0000
0010
0000
,
0100
0000
0100
0000
,
1000
0000
1000
0000
,
0010
0000
0010
0000
,
0110
0000
0010
0000
,
0000
0000
1000
0001
,
1001
0000
1000
0000
,
0000
0000
0001
0100
,
0101
0000
0001
0000
,
0000
0000
1000
0100
,
1100
0000
0010
0000
,
0000
0000
0000
0001
,
1000
0000
1000
0000
,
0010
0000
0010
0000
,
0100
0000
0100
0000
,
0001
0000
0001
0000
,
1001
0000
0000
0000
,
0110
0000
0000
0000
,
1000
0001
1000
0010
,
1000
0100
0010
0001
,
0100
0000
0100
0000
,
0010
0000
0010
0000
,
1000
0000
1000
0000
,
0001
0000
0001
0000
,
0010
0000
0010
0000
,
0100
0000
0100
0000
,
1000
0000
1000
0000
,
0001
0010
0100
1000
,
0010
0000
0010
0000
,
0100
0000
0100
0000
,
0001
0000
0001
0000
,
1000
0000
1000
0000
,
0100
0000
0100
0000
,
0010
0000
0010
0000
,
0001
0000
0001
0000
,
0100
0000
0100
0010
,
1000
0000
1000
0000
,
0100
0000
0100
0000
,
0010
0000
0010
0000
,
0100
0000
0100
0000
,
1000
0000
1000
0000
,
0001
0000
0001
0000
,
0100
0000
0100
0000
,
0010
0000
0010
0000
,
0200
0000
0000
0000
0000
0000
0000
0310
;

//---------------dance-single - ----------------
#NOTES:
     dance-single:
     :
     Beginner:
     1:
     0.077926,0.180976,0.000000,0.009091,0.000000,60.000000,60.000000,0.000000,1.000000,0.000000,0.000000,0.077926,0.180976,0.000000,0.009091,0.000000,60.000000,60.000000,0.000000,1.000000,0.000000,0.000000:
0000
0000
0000
0000
,
0000
0000
0000
0000
,
0000
0000
0000
0000
,
0000
0000
0000
0000
,
0001
0000
0000
0000
,
0000
0000
0000
0000
,
1000
0000
0001
0000
,
1000
1000
0001
0001
,
1000
0000
0000
0000
,
0010
0000
0000
0000
,
1000
0000
0000
0000
,
0100
0000
0000
0000
,
0010
0000
0000
0000
,
0001
0000
0000
0000
,
0100
0000
0000
0000
,
0010
0000
0000
0000
,
1000
0000
0000
0000
,
0000
0000
0000
0000
,
0001
0000
0000
0000
,
0000
0000
0000
0000
,
1000
0000
0000
0000
,
0000
0000
0000
0000
,
0001
0000
0000
0000
,
0000
0000
0000
1000
,
1000
0000
0000
0000
,
0010
0000
0000
0000
,
1000
0000
0000
0000
,
0100
0000
0000
0000
,
1000
0000
0000
0000
,
0010
0000
0000
0000
,
0100
0000
0000
0000
,
0001
0001
1000
1000
,
0001
0000
0000
0000
,
1000
0000
0000
0000
,
0010
0000
0000
0000
,
0100
0000
0000
0000
,
0001
0000
0000
0000
,
0010
0000
0000
0000
,
0100
0000
0000
0000
,
1000
0000
0001
0001
,
1000
0000
0000
0000
,
0001
0000
0000
0000
,
0100
0000
0000
0000
,
0010
0000
0000
0000
,
1000
0000
0000
0000
,
0100
0000
0000
0000
,
0010
0000
0000
0000
,
0001
0000
1000
1000
,
1000
0000
0000
0000
,
0001
0000
0000
0000
,
1000
0000
0000
0000
,
0100
0000
0000
0000
,
1000
0000
0000
0000
,
0010
0000
0000
0000
,
0100
0000
0000
0000
,
0001
0000
0000
0000
,
0200
0000
0000
0000
0000
0000
0000
0300
;
