#VERSION:0.83;
#TITLE:Prismatic Lollipops;
#SUBTITLE:;
#ARTIST:DJ Mashiro;
#TITLETRANSLIT:;
#SUBTITLETRANSLIT:;
#ARTISTTRANSLIT:;
#GENRE:HAPPY HARDCORE;
#ORIGIN:;
#CREDIT:;
#BANNER:Prismatic Lollipops.png;
#BACKGROUND:Prismatic Lollipops-bg.png;
#PREVIEWVID:;
#JACKET:Prismatic Lollipops-jacket.png;
#CDIMAGE:;
#DISCIMAGE:;
#LYRICSPATH:;
#CDTITLE:cdtitle.png;
#MUSIC:Prismatic Lollipops.ogg;
#OFFSET:-0.100000;
#SAMPLESTART:3.660000;
#SAMPLELENGTH:9.559000;
#SELECTABLE:YES;
#BPMS:0.000=202.000;
#STOPS:;
#DELAYS:;
#WARPS:;
#TIMESIGNATURES:0.000=4=4;
#TICKCOUNTS:0.000=4;
#COMBOS:0.000=1;
#SPEEDS:0.000=1.000=0.000=0;
#SCROLLS:0.000=1.000;
#FAKES:;
#LABELS:0.000=Song Start;
#BGCHANGES:;
#KEYSOUNDS:;
#ATTACKS:
;

//---------------dance-single - ----------------
#NOTEDATA:;
#CHARTNAME:;
#STEPSTYPE:dance-single;
#DESCRIPTION:;
#CHARTSTYLE:;
#DIFFICULTY:Hard;
#METER:13;
#RADARVALUES:0.679998,0.720094,0.477059,0.000000,0.116614,449.000000,404.000000,45.000000,0.000000,0.000000,0.000000,0.000000,0.000000,0.000000,0.679998,0.720094,0.477059,0.000000,0.116614,449.000000,404.000000,45.000000,0.000000,0.000000,0.000000,0.000000,0.000000,0.000000;
#CREDIT:;
#NOTES:
0000
0000
0000
0000
,
0000
0000
0000
0000
,
0000
0000
0000
0000
,
1000
0000
1001
0000
0001
0010
0100
1000
,
0000
0010
0000
1000
0100
0010
0100
1000
,
0001
0000
0101
0000
1000
0000
0100
0010
,
0000
0100
0000
1000
0010
0100
0010
0001
,
0010
0000
0110
0000
0100
0000
0001
0010
,
0000
0100
0000
1000
0010
0100
0001
0010
,
0100
0000
0000
0000
0010
0000
0000
0000
0001
0000
1000
0010
1000
0000
0001
0010
,
0001
0000
1000
0000
0100
0000
0010
0000
0100
1000
0100
0000
1000
0000
0001
0000
,
0100
0000
0110
0000
0001
0010
0100
1000
,
0000
0001
0000
1000
0010
0100
0010
1000
,
0001
0000
1000
0100
0001
0100
0000
0010
,
0000
0000
0001
0000
0000
0000
1000
0000
0010
0000
1000
0000
0001
0000
0010
0100
,
0010
0000
0011
0000
0001
0000
1000
0010
,
0000
0100
0000
0001
0010
1000
0010
0100
,
0010
0001
1000
0010
0100
0001
0000
1000
,
0100
0000
0000
0010
0000
0000
0100
0000
1000
0001
1000
0000
0001
0000
0100
0000
,
0001
0011
1000
1010
,
1000
0100
0001
0100
1000
0000
0000
0000
,
1001
0000
0000
0000
0001
0000
0100
0000
0000
0000
0010
0000
1000
0100
1000
0100
,
1000
0000
0001
0000
0010
0100
0010
0001
,
0000
1000
0010
0100
0010
0000
1000
0001
,
0000
0000
0010
0000
0000
0000
0001
0000
0100
0000
0010
1000
0010
0000
1000
0000
,
0100
0000
0000
0100
0010
0000
0000
0010
,
0001
0000
1000
0000
0001
0000
1000
0010
,
1000
0000
0001
0000
1000
0100
0001
0100
,
1000
0000
0010
0000
0100
0001
0010
0100
,
1000
0000
0000
0000
0001
0000
1000
0000
0000
0000
0001
0000
0100
0010
0100
0010
,
0100
0000
0001
0000
0010
0100
0010
0001
,
0000
1000
0010
0100
0010
0000
1000
0100
,
0000
0000
1000
0000
0000
0000
0001
0000
0100
0000
0001
0010
0001
0000
1000
0000
,
0001
0000
0000
0001
0100
0000
0000
0100
,
0010
0000
1000
0000
0100
0000
1000
0010
,
0100
0000
0001
0000
0010
0100
1000
0010
,
0100
0000
0110
0000
0001
0010
1000
0010
,
0001
0101
1000
1100
,
1000
0001
0100
0001
1000
0000
0100
0000
,
1000
0000
1010
0000
0001
0000
0010
0100
,
1000
1001
0110
1001
,
1000
0000
1010
0000
0001
0000
1000
0010
,
0001
0010
0100
0010
1000
0000
1100
0000
,
0001
1001
1000
1001
,
1010
0000
0000
0000
0011
0000
0000
0000
1001
0000
0000
0000
1000
0100
1000
0100
,
1000
1010
0001
0011
,
1000
0100
0001
0100
1000
0000
0110
0000
,
0001
0000
1001
0000
1000
0000
0100
0010
,
0001
1001
0110
1001
,
1000
0000
1100
0000
0001
0000
1000
0100
,
0001
0100
0010
0100
1000
0000
1010
0000
,
0001
1001
1000
1001
,
1010
0011
0101
1100
,
1001
0000
0000
0000
1000
0000
0001
0000
0000
0000
0000
0000
1000
0010
1000
0010
,
1000
0000
1001
0000
0001
0100
0010
1000
,
0000
0100
0000
1000
0010
0100
0010
1000
,
0001
0000
0011
0000
1000
0000
0010
0100
,
0000
0010
0000
1000
0100
0010
0100
0001
,
0100
0000
0110
0000
0010
0000
0001
0100
,
0000
0010
0000
1000
0100
0010
0001
0100
,
0010
0000
0000
0000
0100
0000
0000
0000
0001
0000
1000
0100
1000
0000
0001
0100
,
0001
0000
1000
0000
0010
0000
0100
0000
0010
1000
0010
0000
1000
0000
0001
0000
,
0010
0000
0110
0000
0001
0100
0010
1000
,
0000
0001
0000
1000
0100
0010
0100
1000
,
0001
0000
1000
0010
0001
0010
0000
0100
,
0000
0000
0001
0000
0000
0000
1000
0000
0100
0000
1000
0000
0001
0000
0100
0010
,
0100
0000
0101
0000
0001
0000
1000
0100
,
0000
0010
0000
0001
0100
1000
0100
0010
,
0100
0001
1000
0100
0010
0001
0000
1000
,
0010
0000
0000
0100
0000
0000
0010
0000
1000
0001
1000
0000
0001
0000
0010
0000
,
0001
0101
1000
1100
,
1000
0010
0001
0010
1000
0000
0000
0000
;

//---------------dance-single - ----------------
#NOTEDATA:;
#CHARTNAME:;
#STEPSTYPE:dance-single;
#DESCRIPTION:;
#CHARTSTYLE:;
#DIFFICULTY:Medium;
#METER:8;
#RADARVALUES:0.501290,0.568495,0.296837,0.000000,0.010601,331.000000,303.000000,28.000000,0.000000,0.000000,0.000000,0.000000,0.000000,0.000000,0.501290,0.568495,0.296837,0.000000,0.010601,331.000000,303.000000,28.000000,0.000000,0.000000,0.000000,0.000000,0.000000,0.000000;
#CREDIT:;
#NOTES:
// measure 0
0000
0000
0000
0000
,  // measure 1
0000
0000
0000
0000
,  // measure 2
0000
0000
0000
0000
,  // measure 3
1000
0000
1000
0000
0001
0000
0010
0100
,  // measure 4
0000
0010
0000
0001
1000
0000
0010
0000
,  // measure 5
0100
0000
0100
0000
0010
0000
1000
0100
,  // measure 6
0000
1000
0000
0001
0100
0000
0010
0000
,  // measure 7
1000
0000
1000
0000
0001
0000
0100
0001
,  // measure 8
0000
0010
0000
0100
1000
0000
0001
0000
,  // measure 9
0010
0000
0010
0000
0001
0100
0000
0010
,  // measure 10
0000
1000
0000
0100
0010
0100
0010
0001
,  // measure 11
1000
0000
1000
0000
0001
0000
0100
0010
,  // measure 12
0000
1000
0000
0001
0010
0000
0100
0000
,  // measure 13
0010
0000
0001
1000
0001
1000
0000
0100
,  // measure 14
0000
0010
0000
0001
1000
0000
0010
0000
,  // measure 15
1000
0000
1000
0000
0001
0000
0010
0100
,  // measure 16
0000
0010
0000
0001
1000
0000
0010
0000
,  // measure 17
0100
0010
0100
0000
0001
1000
0000
0001
,  // measure 18
0010
0000
0000
0010
0000
0000
0010
0000
0100
0000
1000
0000
0100
0000
1000
0000
,  // measure 19
0001
1001
1000
1001
,  // measure 20
1000
0001
1000
0001
1000
0000
0000
0000
,  // measure 21
0001
1000
0000
1000
,  // measure 22
0010
0010
0100
0001
,  // measure 23
0000
1000
0010
0100
,  // measure 24
0001
0010
0100
1000
,  // measure 25
0010
0000
0100
0000
,  // measure 26
0010
1000
0100
0010
,  // measure 27
0001
1000
0001
1000
,  // measure 28
1001
0000
0000
0000
,  // measure 29
1000
0010
0100
0001
,  // measure 30
0010
0100
0010
0001
,  // measure 31
1000
0010
0100
0010
,  // measure 32
1000
0001
0100
0010
,  // measure 33
0100
0001
0010
0001
,  // measure 34
1000
0010
1000
0100
,  // measure 35
1001
0000
0110
0000
,  // measure 36
1000
1000
0010
0010
,  // measure 37
0100
0110
0010
0110
,  // measure 38
1000
0001
1000
0000
0001
0000
0100
0000
,  // measure 39
0001
0000
1001
0000
1000
0000
0001
0100
,  // measure 40
0001
1000
0100
0010
,  // measure 41
0001
0000
0101
0000
0100
0000
0010
1000
,  // measure 42
0010
1000
0100
0010
,  // measure 43
0100
1100
1000
1001
,  // measure 44
0110
1001
0110
0000
,  // measure 45
1000
1010
0010
1010
,  // measure 46
1000
0001
1000
0000
0001
0000
0010
0000
,  // measure 47
0100
0000
0110
0000
0010
0000
0100
1000
,  // measure 48
0100
1001
0110
1001
,  // measure 49
1000
0000
1010
0000
0010
0000
1000
0001
,  // measure 50
1000
0010
0100
0001
,  // measure 51
0010
0100
1000
0010
,  // measure 52
0110
1001
0110
1001
,  // measure 53
0110
0000
1000
0001
0000
0000
0000
0000
,  // measure 54
1000
0000
1000
0000
0001
0000
0100
0010
,  // measure 55
0000
1000
0000
0100
1000
0000
0001
0000
,  // measure 56
0010
0000
0010
0000
0100
0000
1000
0001
,  // measure 57
0000
0100
0000
0010
1000
0000
0100
0000
,  // measure 58
0010
0000
0010
0000
0001
0000
1000
0100
,  // measure 59
0000
1000
0000
0010
0100
0000
0001
0000
,  // measure 60
0010
0000
0010
0000
0100
1000
0000
0001
,  // measure 61
0000
1000
0000
0010
1000
0010
1000
0001
,  // measure 62
1000
0000
1000
0000
0010
0000
0100
0001
,  // measure 63
0000
0010
0000
0001
1000
0000
0010
0000
,  // measure 64
0100
0000
0100
0001
0100
0001
0000
0010
,  // measure 65
0000
0100
0000
1000
0010
0000
0100
0000
,  // measure 66
0001
0000
0001
0000
0010
0000
0100
1000
,  // measure 67
0000
0010
0000
0100
0001
0000
0010
0000
,  // measure 68
0001
1000
0001
0000
1000
0100
0000
1000
,  // measure 69
0010
0000
0000
0010
0000
0000
0010
0000
0100
0000
0001
0000
0100
0000
0001
0000
,  // measure 70
1000
1001
0001
1001
,  // measure 71
1000
0001
1000
0001
1000
0000
0000
0000
;

//---------------dance-single - ----------------
#NOTEDATA:;
#CHARTNAME:;
#STEPSTYPE:dance-single;
#DESCRIPTION:;
#CHARTSTYLE:;
#DIFFICULTY:Easy;
#METER:5;
#RADARVALUES:0.322583,0.378997,0.053007,0.000000,0.000000,213.000000,208.000000,5.000000,0.000000,0.000000,0.000000,0.000000,0.000000,0.000000,0.322583,0.378997,0.053007,0.000000,0.000000,213.000000,208.000000,5.000000,0.000000,0.000000,0.000000,0.000000,0.000000,0.000000;
#CREDIT:;
#NOTES:
0000
0000
0000
0000
,
0000
0000
0000
0000
,
0000
0000
0000
0000
,
1000
0010
1000
0000
,
0001
0100
0001
0000
,
1000
0001
1000
0000
,
0001
0100
0001
0000
,
0010
0001
0010
0000
,
0001
1000
0001
0000
,
1000
0100
1000
0000
,
0001
0001
1000
1000
,
0010
0100
0010
0000
,
1000
0100
1000
0000
,
0001
0010
0001
0000
,
0100
0010
0100
0000
,
0010
1000
0010
0000
,
1000
0100
1000
0000
,
0010
0010
0100
0000
,
0001
0000
1001
0000
,
1000
1000
0001
0001
,
1000
0001
1001
0000
,
1000
0000
0000
0000
,
0010
0000
0000
0000
,
0100
0000
0000
0000
,
0001
0000
0000
0000
,
1000
0000
0000
0000
,
0100
0000
0000
0000
,
0010
0000
0000
0000
,
0001
0000
0000
0000
,
1000
0001
1000
0000
,
0001
0100
0001
0000
,
0010
0001
0010
0001
,
1000
0010
1000
0010
,
1000
0100
1000
0000
,
0001
0100
0001
0000
,
1000
0001
1000
0001
,
1001
0000
0000
0000
,
0001
0001
1000
1000
,
0001
0100
0010
1000
,
0100
0100
1000
1000
,
0010
0100
0001
0010
,
0001
0001
0010
0010
,
0100
1000
0010
0100
,
0001
0001
1000
1000
,
0100
0010
0001
0000
,
1000
1000
0010
0010
,
0100
0001
0010
0100
,
1000
1000
0100
0100
,
0010
0001
0100
0001
,
0010
0010
0100
0100
,
1000
0001
1000
0010
,
0100
0100
0001
0001
,
1000
0010
1000
0001
,
0100
0010
0000
0000
,
1000
0100
1000
0000
,
0001
0100
0001
0000
,
0010
0001
0010
0000
,
0001
1000
0001
0000
,
1000
0010
1000
0000
,
0001
0010
0001
0000
,
0100
0010
0100
0000
,
0010
1000
0010
0100
,
0001
0010
0001
0000
,
1000
0010
1000
0000
,
0100
1000
0100
0000
,
1000
0010
1000
0000
,
0001
1000
0001
0000
,
0100
0001
0100
0000
,
0001
0010
0001
0000
,
1000
0000
1001
0000
,
0001
0001
1000
1000
,
0001
1000
1001
0000
;

//---------------dance-single - ----------------
#NOTEDATA:;
#CHARTNAME:;
#STEPSTYPE:dance-single;
#DESCRIPTION:;
#CHARTSTYLE:;
#DIFFICULTY:Beginner;
#METER:2;
#RADARVALUES:0.122672,0.189498,0.000000,0.000000,0.000000,81.000000,81.000000,0.000000,0.000000,0.000000,0.000000,0.000000,0.000000,0.000000,0.122672,0.189498,0.000000,0.000000,0.000000,81.000000,81.000000,0.000000,0.000000,0.000000,0.000000,0.000000,0.000000,0.000000;
#CREDIT:;
#NOTES:
0000
0000
0000
0000
,
0000
0000
0000
0000
,
0000
0000
0000
0000
,
1000
0000
0000
0000
,
0001
0000
0000
0000
,
1000
0000
0000
0000
,
0001
0000
0000
0000
,
0100
0000
0000
0000
,
0010
0000
0000
0000
,
0100
0000
0000
0000
,
0010
0000
0000
0000
,
1000
0000
0000
0000
,
0001
0000
0000
0000
,
1000
0000
0000
0000
,
0001
0000
0000
0000
,
0010
0000
0000
0000
,
0100
0000
0000
0000
,
0010
0000
0000
0000
,
0100
0000
0000
0000
,
0001
0000
0001
0000
,
1000
0000
1000
0000
,
0001
0000
0000
0000
,
1000
0000
0000
0000
,
0010
0000
0000
0000
,
0100
0000
0000
0000
,
0001
0000
0000
0000
,
1000
0000
0000
0000
,
0100
0000
0000
0000
,
0010
0000
0000
0000
,
0000
0001
0000
0000
,
1000
0000
0000
0000
,
0100
0000
0000
0000
,
0010
0000
0000
0000
,
0100
0000
0000
0000
,
1000
0000
0000
0000
,
0010
0000
0000
0000
,
0100
0000
0000
0000
,
0001
0000
0000
0000
,
1000
0000
0001
0000
,
1000
0000
0000
0000
,
0010
0000
0100
0000
,
0010
0000
0000
0000
,
1000
0000
0100
0000
,
1000
0000
0000
0000
,
0001
0000
0100
0000
,
0001
0000
0000
0000
,
1000
0000
0001
0000
,
1000
0000
0000
0000
,
0010
0000
0100
0000
,
0010
0000
0000
0000
,
1000
0000
0100
0000
,
1000
0000
0000
0000
,
0001
0000
0100
0000
,
0001
0000
0000
0000
,
1000
0000
0000
0000
,
0001
0000
0000
0000
,
1000
0000
0000
0000
,
0001
0000
0000
0000
,
0100
0000
0000
0000
,
0010
0000
0000
0000
,
0100
0000
0000
0000
,
0010
0000
0000
0000
,
1000
0000
0000
0000
,
0001
0000
0000
0000
,
1000
0000
0000
0000
,
0001
0000
0000
0000
,
0010
0000
0000
0000
,
0100
0000
0000
0000
,
0010
0000
0000
0000
,
0100
0000
0000
0000
,
1000
0000
1000
0000
,
0001
0000
0001
0000
;
