#VERSION:0.83;
#TITLE:My Babe Bee;
#SUBTITLE:;
#ARTIST:Another Infinity feat. Mayumi Morinaga;
#TITLETRANSLIT:;
#SUBTITLETRANSLIT:;
#ARTISTTRANSLIT:;
#GENRE:BUBBLEGUM DANCE;
#ORIGIN:;
#CREDIT:;
#BANNER:My Babe Bee.png;
#BACKGROUND:My Babe Bee-bg.png;
#PREVIEWVID:;
#JACKET:My Babe Bee-jacket.png;
#CDIMAGE:;
#DISCIMAGE:;
#LYRICSPATH:;
#CDTITLE:cdtitle.png;
#MUSIC:My Babe Bee.ogg;
#OFFSET:-0.540000;
#SAMPLESTART:71.808510;
#SAMPLELENGTH:14.001736;
#SELECTABLE:YES;
#BPMS:0.000=138.000;
#STOPS:;
#DELAYS:;
#WARPS:;
#TIMESIGNATURES:0.000=4=4;
#TICKCOUNTS:0.000=4;
#COMBOS:0.000=1;
#SPEEDS:0.000=1.000=0.000=0;
#SCROLLS:0.000=1.000;
#FAKES:;
#LABELS:0.000=Song Start;
#BGCHANGES:;
#KEYSOUNDS:;
#ATTACKS:
;

//---------------dance-single - ----------------
#NOTEDATA:;
#CHARTNAME:;
#STEPSTYPE:dance-single;
#DESCRIPTION:;
#CHARTSTYLE:;
#DIFFICULTY:Hard;
#METER:11;
#RADARVALUES:0.475836,0.553240,0.030419,0.068442,0.121675,438.000000,434.000000,4.000000,9.000000,0.000000,0.000000,0.000000,0.000000,0.000000,0.475836,0.553240,0.030419,0.068442,0.121675,438.000000,434.000000,4.000000,9.000000,0.000000,0.000000,0.000000,0.000000,0.000000;
#CREDIT:;
#NOTES:
0000
0000
0000
0000
,
0000
0000
0000
0000
,
0000
0000
0000
0000
,
0000
0000
0000
0000
,
0000
0000
0000
0000
,
0000
0000
0000
0000
,
0000
0000
0000
0000
,
0000
0000
0000
0000
,
0000
0000
0000
1001
,
1000
0100
0001
0100
1000
0000
0010
0000
,
0000
1000
0100
0010
0000
0010
0100
1000
,
0001
0100
1000
0100
0001
0000
0010
0000
,
0000
0001
0100
0010
1000
0100
0010
0000
,
0001
0010
1000
0010
0001
0000
0100
0000
,
0000
0001
0010
0100
0000
0100
0010
0001
,
1000
0010
0001
0010
1000
0100
0010
0001
,
1000
0000
0000
1000
0000
0000
0001
0000
0000
0001
0000
0000
1001
0000
0000
0000
,
1000
0000
0100
0000
1000
0000
0001
0100
0001
0000
0010
0000
0001
0000
1000
0010
,
1000
0000
0100
0000
0010
0000
0001
1000
0001
0000
0100
0000
0010
0000
1000
0000
,
0001
0000
0010
0000
0001
0000
1000
0010
1000
0000
0100
0000
1000
0000
0001
0100
,
0001
0000
0010
0000
0100
0000
1000
0001
1000
0000
0010
0000
0100
0000
0000
0000
,
0001
0000
0010
0000
0100
0000
1000
0001
1000
0000
0010
0000
0100
0000
0001
1000
,
0001
0000
1000
0000
0100
0000
0010
0100
0010
0000
0100
0000
1000
0000
0001
0000
,
1000
0000
0010
0000
0100
0000
0001
1000
0001
0000
0010
0000
0100
0000
1000
0001
,
1000
0000
0001
0000
0100
0000
0010
0100
0010
0000
0100
0000
0001
0000
0000
0000
,
2000
0000
0000
3000
0000
0001
0010
0100
,
0000
0100
0010
0001
1000
0001
0000
1000
,
0010
0100
0001
0000
0000
0010
0100
1000
,
0000
0010
0000
1000
0100
1000
0001
0100
,
0002
0000
0000
0003
0000
1000
0100
0010
,
0000
0010
0100
1000
0001
1000
0000
0010
,
0100
0000
0000
0100
0000
0000
0100
0000
0001
0000
0000
0000
1000
0000
0200
0000
,
1000
0000
0001
0000
0010
0000
1300
1000
,
0001
0000
1000
0100
0001
0100
1000
0010
,
0100
0001
0010
0002
0000
0203
0000
0300
,
0001
0010
0001
0010
0100
1000
0100
1000
,
0010
0000
0010
0100
0000
0100
0001
0010
,
0100
0000
1000
0010
0001
0000
0001
0010
,
1000
0100
0010
0002
0000
0203
0000
0300
,
0010
0000
1000
0100
1000
0000
0001
0100
,
0001
0000
0000
0001
0000
0000
1000
0000
0000
0000
0000
0000
1001
0000
0000
0000
,
1000
0010
0001
0010
1000
0000
0100
0000
,
0000
1000
0010
0100
0000
0100
0010
1000
,
0001
0010
1000
0010
0001
0000
0100
0000
,
0000
0001
0010
0100
1000
0010
0100
0000
,
0001
0100
1000
0100
0001
0000
0010
0000
,
0000
0001
0100
0010
0000
0010
0100
0001
,
1000
0100
0001
0100
1000
0010
0100
0001
,
1000
0000
0000
1000
0000
0000
0001
0000
0000
0001
0000
0000
1001
0000
0000
0000
,
1000
0000
0010
0000
1000
0000
0001
0010
0001
0000
0100
0000
0001
0000
1000
0100
,
1000
0000
0010
0000
0100
0000
0001
1000
0001
0000
0010
0000
0100
0000
1000
0000
,
0001
0000
0100
0000
0001
0000
1000
0100
1000
0000
0010
0000
1000
0000
0001
0010
,
0001
0000
0100
0000
0010
0000
1000
0001
1000
0000
0100
0000
0010
0000
0000
0000
,
0001
0000
0100
0000
0010
0000
1000
0001
1000
0000
0100
0000
0010
0000
0001
1000
,
0001
0000
1000
0000
0010
0000
0100
0010
0100
0000
0010
0000
1000
0000
0001
0000
,
1000
0000
0100
0000
0010
0000
0001
1000
0001
0000
0100
0000
0010
0000
1000
0001
,
1000
0000
0001
0000
0010
0000
0100
0010
0100
0000
0010
0000
0001
0000
0000
0000
,
1000
0010
0100
0010
0001
0000
0010
0000
,
0000
1000
0100
0001
0000
0001
0100
1000
,
0001
0100
0010
0100
1000
0000
0100
0000
,
0000
0001
0010
0100
0001
0100
1000
0000
,
0001
0100
0010
0100
1000
0000
0100
0000
,
0000
0001
0010
1000
0000
1000
0010
0001
,
1000
0010
0100
0010
0001
0010
0100
0020
,
1000
0100
0001
1030
,
0001
0010
0100
0010
1000
0000
0010
0000
,
0000
0001
0100
1000
0000
1000
0100
0001
,
1000
0100
0010
0100
0001
0000
0100
0000
,
0000
1000
0010
0100
1000
0100
0001
0000
,
1000
0100
0010
0100
0001
0000
0100
0000
,
0000
1000
0010
0001
0000
0001
0010
1000
,
0001
0010
0100
0010
1000
0010
0100
0020
,
0001
0000
0000
0001
0000
0000
1000
0000
0000
1000
0000
0000
0130
0000
0000
0000
;

//---------------dance-single - ----------------
#NOTEDATA:;
#CHARTNAME:;
#STEPSTYPE:dance-single;
#DESCRIPTION:;
#CHARTSTYLE:;
#DIFFICULTY:Medium;
#METER:8;
#RADARVALUES:0.323742,0.359606,0.000000,0.068442,0.000000,298.000000,298.000000,0.000000,9.000000,0.000000,0.000000,0.000000,0.000000,0.000000,0.323742,0.359606,0.000000,0.068442,0.000000,298.000000,298.000000,0.000000,9.000000,0.000000,0.000000,0.000000,0.000000,0.000000;
#CREDIT:;
#NOTES:
0000
0000
0000
0000
,
0000
0000
0000
0000
,
0000
0000
0000
0000
,
0000
0000
0000
0000
,
0000
0000
0000
0000
,
0000
0000
0000
0000
,
0000
0000
0000
0000
,
0000
0000
0000
0000
,
0000
0000
0000
0000
,
1000
0000
0001
0100
0001
0000
0010
0000
,
0000
0001
1000
0001
0000
0100
0010
0100
,
0001
0000
1000
0100
1000
0000
0010
0000
,
0000
0000
1000
0000
0001
1000
0001
0000
,
1000
0000
0001
0010
0001
0000
0100
0000
,
0000
0001
1000
0001
0000
0010
0100
0010
,
0001
0000
1000
0010
1000
0000
0100
2000
,
0000
0000
0000
3001
,
1000
0000
0010
0000
1000
0100
1000
0000
,
0001
0000
0010
0000
0001
0100
0001
0000
,
1000
0000
0001
0000
1000
0001
1000
0000
,
0001
0010
0001
0000
1000
0010
1000
0000
,
0001
0000
0010
0000
0001
0100
0001
0000
,
1000
0000
0010
0000
1000
0100
1000
0000
,
0001
0000
1000
0000
0001
1000
0001
0000
,
1000
0010
1000
0000
0001
0010
0001
0000
,
2000
0000
0000
0000
3000
0001
1000
0001
,
0000
1000
0100
0000
1000
0000
0001
0000
,
0200
0000
0000
0000
0300
0001
0000
1000
,
0000
0001
0000
0010
0100
0010
0000
0000
,
0002
0000
0000
0000
0003
1000
0001
1000
,
0000
0001
0100
0000
0001
0000
1000
0000
,
0100
0010
0001
0100
,
0010
0010
0010
0000
,
1000
0000
0001
0100
0001
0000
0010
0000
,
0001
0000
1000
0010
0000
0100
0000
0000
,
0001
0010
0100
1000
,
0001
0000
0001
1000
0000
1000
0001
0000
,
1000
0000
0001
0010
0001
0000
0100
0000
,
0001
0000
1000
0100
0000
0010
0000
0000
,
0001
0000
1000
0001
2000
0000
0000
3020
,
0000
0000
0000
0130
,
0001
0000
1000
0100
1000
0000
0010
0000
,
0000
1000
0001
1000
0000
0100
0010
0100
,
1000
0000
0001
0100
0001
0000
0010
0000
,
0000
0000
0001
0000
1000
0001
1000
0000
,
0001
0000
1000
0010
1000
0000
0100
0000
,
0000
1000
0001
1000
0000
0010
0100
0010
,
1000
0000
0001
0010
0001
0000
0100
0002
,
0000
0000
0000
1003
,
0001
0000
0010
0000
0001
0100
0001
0000
,
1000
0000
0010
0000
1000
0100
1000
0000
,
0001
0000
1000
0000
0001
1000
0001
0000
,
1000
0010
1000
0000
0001
0010
0001
0000
,
1000
0000
0010
0000
1000
0100
1000
0000
,
0001
0000
0010
0000
0001
0100
0001
0000
,
1000
0000
0001
0000
1000
0001
1000
0000
,
0001
0010
0001
0000
1000
0010
1000
0000
,
0001
0000
1000
0001
0100
0000
0001
0000
,
0000
0010
0100
1000
0000
0010
0100
0001
,
1000
0000
0001
1000
0100
0000
1000
0000
,
0000
0000
0001
0000
1000
0100
1000
0000
,
0001
0000
1000
0001
0010
0000
0001
0000
,
0000
0100
0010
1000
0000
0100
0010
0001
,
1000
0000
0001
1000
0010
0000
1000
0200
,
0000
0000
0000
0300
,
1000
0000
0001
1000
0100
0000
1000
0000
,
0000
0010
0100
0001
0000
0010
0100
1000
,
0001
0000
1000
0001
0100
0000
0001
0000
,
0000
0000
1000
0000
0001
0100
0001
0000
,
1000
0000
0001
1000
0010
0000
1000
0000
,
0000
0100
0010
0001
0000
0100
0010
1000
,
0001
0000
1000
0001
0010
0000
0001
0200
,
0000
0000
0000
0310
;

//---------------dance-single - ----------------
#NOTEDATA:;
#CHARTNAME:;
#STEPSTYPE:dance-single;
#DESCRIPTION:;
#CHARTSTYLE:;
#DIFFICULTY:Easy;
#METER:5;
#RADARVALUES:0.178167,0.193634,0.000000,0.000000,0.000000,164.000000,164.000000,0.000000,0.000000,0.000000,0.000000,0.000000,0.000000,0.000000,0.178167,0.193634,0.000000,0.000000,0.000000,164.000000,164.000000,0.000000,0.000000,0.000000,0.000000,0.000000,0.000000,0.000000;
#CREDIT:;
#NOTES:
0000
0000
0000
0000
,
0000
0000
0000
0000
,
0000
0000
0000
0000
,
0000
0000
0000
0000
,
0000
0000
0000
0000
,
0000
0000
0000
0000
,
0000
0000
0000
0000
,
0000
0000
0000
0000
,
0000
0000
0000
0000
,
0001
0001
1000
0001
,
0000
1000
0000
0001
,
1000
1000
0001
1000
,
0000
0001
0000
1000
,
0010
0010
0100
0010
,
0000
0100
0000
0010
,
0100
0100
0010
0100
,
0001
0000
0000
0001
,
1000
0000
1000
0000
,
0001
0000
0001
0000
,
0010
0000
0010
0000
,
0100
0000
0100
0100
,
1000
0000
1000
0000
,
0010
0000
0010
0000
,
0100
0000
0100
0000
,
0001
0000
0001
0001
,
1000
0000
0000
0001
,
0000
1000
0000
0001
,
1000
0000
0000
0100
,
0000
0010
0000
0100
,
0010
0000
0000
0001
,
0000
1000
0000
0001
,
1000
0000
1000
0000
,
0001
0000
0001
0000
,
1000
0000
0100
0000
,
0010
0000
0001
0000
,
1000
0000
0010
0000
,
0100
0000
0001
0000
,
1000
0000
0100
0000
,
0010
0000
0001
0000
,
1000
0000
0010
0000
,
0100
0000
0000
0100
,
0001
0001
1000
0001
,
0000
1000
0000
0001
,
1000
1000
0001
1000
,
0000
0001
0000
1000
,
0100
0100
0010
0100
,
0000
0010
0000
0100
,
0010
0010
0100
0010
,
0001
0000
0000
0001
,
1000
0000
1000
0000
,
0001
0000
0001
0000
,
0100
0000
0100
0000
,
0010
0000
0010
0010
,
1000
0000
1000
0000
,
0100
0000
0100
0000
,
0010
0000
0010
0000
,
0001
0000
0001
0001
,
1000
1000
0001
1000
,
0000
0001
0000
1000
,
0001
0001
1000
0001
,
0000
1000
0000
0001
,
0010
0010
0100
0010
,
0000
0100
0000
0010
,
0100
0100
0010
0100
,
1000
0000
0000
1000
,
0001
0001
1000
0001
,
0000
1000
0000
0001
,
1000
1000
0001
1000
,
0000
0001
0000
1000
,
0100
0100
0010
0100
,
0000
0010
0000
0100
,
0010
0010
0100
0010
,
0001
0000
0000
1000
;

//---------------dance-single - ----------------
#NOTEDATA:;
#CHARTNAME:;
#STEPSTYPE:dance-single;
#DESCRIPTION:;
#CHARTSTYLE:;
#DIFFICULTY:Beginner;
#METER:1;
#RADARVALUES:0.070615,0.082986,0.000000,0.000000,0.000000,65.000000,65.000000,0.000000,0.000000,0.000000,0.000000,0.000000,0.000000,0.000000,0.070615,0.082986,0.000000,0.000000,0.000000,65.000000,65.000000,0.000000,0.000000,0.000000,0.000000,0.000000,0.000000,0.000000;
#CREDIT:;
#NOTES:
// measure 0
0000
0000
0000
0000
,  // measure 1
0000
0000
0000
0000
,  // measure 2
0000
0000
0000
0000
,  // measure 3
0000
0000
0000
0000
,  // measure 4
0000
0000
0000
0000
,  // measure 5
0000
0000
0000
0000
,  // measure 6
0000
0000
0000
0000
,  // measure 7
0000
0000
0000
0000
,  // measure 8
0000
0000
0000
0000
,  // measure 9
1000
0000
0000
0000
,  // measure 10
1000
0000
0000
0000
,  // measure 11
0001
0000
0000
0000
,  // measure 12
0001
0000
0000
0000
,  // measure 13
1000
0000
0000
0000
,  // measure 14
1000
0000
0000
0000
,  // measure 15
0001
0000
0000
0000
,  // measure 16
0001
0000
0000
0000
,  // measure 17
0100
0000
0000
0000
,  // measure 18
0100
0000
0000
0000
,  // measure 19
0010
0000
0000
0000
,  // measure 20
0010
0000
0000
0000
,  // measure 21
0100
0000
0000
0000
,  // measure 22
0100
0000
0000
0000
,  // measure 23
0010
0000
0000
0000
,  // measure 24
0010
0000
0000
0000
,  // measure 25
1000
0000
0000
0000
,  // measure 26
0001
0000
0000
0000
,  // measure 27
1000
0000
0000
0000
,  // measure 28
0001
0000
0000
0000
,  // measure 29
0010
0000
0000
0000
,  // measure 30
0100
0000
0000
0000
,  // measure 31
0010
0000
0000
0000
,  // measure 32
0100
0000
0000
0000
,  // measure 33
1000
0000
0000
0000
,  // measure 34
0001
0000
0000
0000
,  // measure 35
1000
0000
0000
0000
,  // measure 36
0001
0000
0000
0000
,  // measure 37
0100
0000
0000
0000
,  // measure 38
0010
0000
0000
0000
,  // measure 39
0100
0000
0000
0000
,  // measure 40
0010
0000
0000
0000
,  // measure 41
1000
0000
0000
0000
,  // measure 42
1000
0000
0000
0000
,  // measure 43
0001
0000
0000
0000
,  // measure 44
0001
0000
0000
0000
,  // measure 45
1000
0000
0000
0000
,  // measure 46
1000
0000
0000
0000
,  // measure 47
0001
0000
0000
0000
,  // measure 48
0001
0000
0000
0000
,  // measure 49
0010
0000
0000
0000
,  // measure 50
0010
0000
0000
0000
,  // measure 51
0100
0000
0000
0000
,  // measure 52
0100
0000
0000
0000
,  // measure 53
0010
0000
0000
0000
,  // measure 54
0010
0000
0000
0000
,  // measure 55
0100
0000
0000
0000
,  // measure 56
0100
0000
0000
0000
,  // measure 57
1000
0000
0000
0000
,  // measure 58
1000
0000
0000
0000
,  // measure 59
0001
0000
0000
0000
,  // measure 60
0001
0000
0000
0000
,  // measure 61
1000
0000
0000
0000
,  // measure 62
1000
0000
0000
0000
,  // measure 63
0001
0000
0000
0000
,  // measure 64
0001
0000
0000
0000
,  // measure 65
0100
0000
0000
0000
,  // measure 66
0100
0000
0000
0000
,  // measure 67
0010
0000
0000
0000
,  // measure 68
0010
0000
0000
0000
,  // measure 69
0100
0000
0000
0000
,  // measure 70
0100
0000
0000
0000
,  // measure 71
0010
0000
0000
0000
,  // measure 72
0010
0000
0000
1000
;
