#TITLE:Monopole.;
#SUBTITLE:;
#ARTIST:cosMo@暴走P;
#TITLETRANSLIT:;
#SUBTITLETRANSLIT:;
#ARTISTTRANSLIT:cosMo@BousouP;
#GENRE:ARTCORE ROCK;
#CREDIT:;
#BANNER:Monopole.png;
#BACKGROUND:Monopole-bg.png;
#LYRICSPATH:;
#CDTITLE:cdtitle.png;
#MUSIC:Monopole.ogg;
#OFFSET:-0.540000;
#SAMPLESTART:70.647484;
#SAMPLELENGTH:9.885376;
#SELECTABLE:YES;
#BPMS:0.000000=201.000000
,136.000000=100.500000
,152.000000=201.000000
,324.000000=100.500000
,332.000000=201.000000
;
#STOPS:
;
#BGCHANGES:;
#KEYSOUNDS:;
#ATTACKS:;

//---------------dance-single - ----------------
#NOTES:
     dance-single:
     :
     Challenge:
     17:
     0.803454,1.195652,0.041173,0.181159,0.646410,683.000000,678.000000,5.000000,22.000000,0.000000,0.000000,0.803454,1.195652,0.041173,0.181159,0.646410,683.000000,678.000000,5.000000,22.000000,0.000000,0.000000:
0000
0000
0000
0000
,
0000
0000
0000
0000
,
0000
0000
0000
0000
,
0000
0000
0000
0000
,
1000
0010
0100
0001
,
1000
0100
0001
0100
,
1000
0010
0001
0010
,
1000
0100
0010
0001
,
1000
0010
0100
0010
0001
0010
0100
0010
,
1000
0100
0010
0100
0001
0100
0010
0100
,
1000
0010
0001
0010
0100
0010
0001
0010
,
1000
0100
0001
0100
0010
0100
0001
0100
,
1000
0001
0010
1000
0010
0001
0100
0010
,
1000
0001
0100
1000
0100
0001
0010
0100
,
1000
0010
0100
0001
1000
0100
0010
0001
,
1000
0010
1000
0001
0010
0001
1000
0100
0010
0001
0100
0010
,
1000
0100
0010
0100
1000
0001
0100
0010
0100
0001
0010
0100
,
1000
0000
0000
0110
0000
0000
0001
0100
0001
1000
0100
1000
,
0010
0100
0001
0010
0001
1000
0100
0010
,
0001
1000
0010
1000
0001
0010
0100
1000
,
0010
0000
1000
0100
1000
0000
0001
0100
0001
0000
0010
0000
0001
0000
1000
0000
,
0010
0100
0010
0100
0010
0000
1000
0000
0100
0010
0100
0010
0100
0000
1000
0000
,
0001
0000
0100
0000
0001
0000
1000
0100
1000
0000
0010
0000
0100
0000
0001
0000
,
1000
0000
0100
0000
1000
0000
0001
0000
0100
0000
0001
0000
0010
0000
0000
0010
0000
0000
0100
0000
0000
1000
0000
0000
,
0010
0100
0001
0010
1000
0010
0001
0100
,
0010
0000
1000
0000
0100
0000
0010
0000
0001
0100
0001
0100
0010
1000
0010
1000
,
0001
0010
1000
0010
0001
0100
0010
1000
,
0100
0010
0100
0001
0100
0010
0100
1000
,
0001
0000
1000
0010
1000
0000
0001
0010
0001
0000
1000
0000
0010
0000
0100
0000
,
0001
0000
0010
0000
0100
0000
1000
0000
0010
0100
0010
0100
0010
0000
1000
0000
,
0001
0000
0010
0000
0001
0000
1000
0010
1000
0000
0100
0000
0010
0000
0001
0000
,
1000
0000
0010
0000
1000
0000
0001
0000
0010
0000
0001
0000
0100
0000
0000
0100
0000
0000
0010
0000
0000
1000
0000
0000
,
0100
0001
0100
0010
0100
1000
0010
0100
,
0001
0000
0010
0000
0100
0000
1000
0000
0001
1000
0001
1000
0010
0100
0010
0100
,
0002
0000
0000
0023
,
0230
0000
2300
3020
,
0230
0000
0302
0023
,
0032
0000
0000
0000
0000
0000
0000
0000
0000
0000
0000
0000
2003
0000
0000
0000
0000
0000
3010
0000
0000
1000
0001
1000
,
0001
0001
0100
0100
,
1000
1000
0100
0100
,
0001
0001
0010
0010
,
0100
0000
0000
0100
0000
0000
1000
0010
1000
0001
0010
0001
,
1000
1000
0010
0010
,
0110
0100
0001
0001
,
0011
0000
0000
0010
0000
0000
0100
0000
0000
0100
0000
1000
,
0010
1000
0001
0010
0000
0001
1000
0010
0100
0001
0010
0100
,
1000
0000
1000
0000
0001
0000
1000
0010
1000
0000
0100
0000
0010
0000
0001
0000
,
1000
0000
0010
0000
0001
0000
0010
0000
2000
0000
0000
0000
3001
0000
0000
0001
,
0020
0000
0000
0000
0130
0000
0000
0100
2000
0000
0000
0000
3002
0000
0000
0000
,
1003
0010
0100
0010
1000
0000
1000
0000
0001
0010
0100
0010
0001
0000
0001
0000
,
1000
0000
1000
0000
0001
0000
1000
0100
1000
0000
0010
0000
0100
0000
0001
0000
,
1000
0000
0100
0000
0001
0000
0100
0000
2000
0000
0000
0000
3001
0000
0000
0001
,
1000
0010
0100
0010
1000
0100
0010
0001
,
1000
0010
1000
0010
0100
0001
0100
0001
0010
0000
0000
0001
0000
0000
1000
0000
,
0000
0000
0000
0000
1001
0000
0000
0000
1000
0001
1000
0001
1000
0001
1000
0001
,
1000
0000
0001
0010
0000
0010
0100
0000
,
1000
0010
0100
0001
0000
0010
0100
0000
,
0010
0000
0000
0001
0000
0000
1000
0000
0000
0000
0100
0000
0001
0000
0100
0000
,
1000
0010
0100
0001
0000
0001
0010
0100
,
1000
0000
0001
0100
0000
0100
0010
0000
,
1000
0000
0000
0100
0000
0000
0010
0000
0000
0000
0001
0000
1000
0000
0010
0000
,
1000
0000
0000
0000
0001
0000
1000
0100
1000
0000
0001
0000
0100
0000
0010
0000
,
1000
0000
0000
0001
0000
0000
0010
0100
0010
0000
0001
0000
1000
0001
1000
0001
,
1000
0000
0100
0010
0000
0010
0001
0000
,
1000
0010
0100
0001
0000
0010
0100
0000
,
1000
0000
0000
0010
0000
0000
1000
0000
0000
0000
0001
0000
0010
0000
1000
0000
,
0010
0000
0000
0000
0000
0000
0000
0000
0000
0001
0000
0000
0000
0000
0000
0000
0000
0000
1000
0000
0000
0000
0000
0000
0001
0000
0000
0000
0100
0000
0000
0000
0010
0000
0000
0000
1000
0000
0000
0000
0010
0000
0000
0000
0100
0000
0000
0000
,
0001
0000
0000
0010
0000
0000
0001
0000
0100
0000
1000
0000
0100
0000
0010
0000
,
1000
0000
0000
0100
0000
0000
1000
0000
0001
0000
0000
0000
1000
0010
1000
0010
,
1000
0000
0001
0100
0001
0000
1000
0000
0001
0010
0001
0000
1000
0000
0100
0010
,
0001
1000
0001
1000
0010
0100
0010
0100
0001
1000
0001
1000
0100
0010
0100
0010
,
0001
0000
0100
0010
0100
0000
0001
0000
1000
0000
1000
0000
0100
0000
0010
0000
,
0001
0000
1000
0010
1000
0000
0001
0000
0010
0100
1000
0100
0010
0000
0000
0000
,
0001
0000
0001
0000
0100
0000
0010
1000
0010
0000
1000
0000
0100
0000
0000
0000
,
1000
0000
1000
0000
0100
0000
0010
0001
0010
0000
0001
0000
0100
0000
0000
0000
,
0001
0000
0001
0000
1000
0000
0100
0010
0100
0000
1000
0000
0010
0000
0000
0000
,
1000
0000
1000
0000
0001
0000
0100
0000
0001
0010
0001
0010
0001
0000
0000
0000
,
1000
0000
0010
0100
0010
0000
1000
0000
0001
0000
0010
0000
1000
0000
0010
0000
,
0001
0100
0001
0100
0001
0100
0001
0100
0010
0000
1000
0000
0100
0000
0010
0000
,
0001
0000
0000
0100
0000
0000
0010
0000
0000
0100
0000
0000
0010
0000
0000
0000
0000
0000
1000
0000
0000
0000
0000
0000
0001
0000
0000
0000
0010
0000
0000
0000
0100
0000
0000
0000
1000
0000
0000
0000
0100
0000
0000
0000
0010
0000
0000
0000
,
0001
0100
0001
0100
0010
1000
0010
1000
0100
0010
0100
0010
0001
1000
0001
1000
,
0200
0000
0320
0000
0031
0100
0010
1000
,
0200
0000
0320
0000
0230
0000
1300
0001
,
1000
0000
0100
0000
1000
0000
0010
0000
0100
0001
0100
0001
0010
0000
0001
0000
,
1000
0000
0010
0000
0100
0000
0001
1000
0100
0010
0100
0010
0001
0000
0100
0000
,
0001
0010
0001
0010
0100
1000
0100
1000
0010
0100
0010
0100
0001
1000
0001
1000
,
0100
0010
0100
0010
0001
0100
0010
1000
0001
1000
0001
1000
0001
1000
0001
1000
,
0000
2002
0000
0000
,
0000
0000
0000
0000
,
0000
0000
0000
0000
,
0003
0000
0000
3000
;

//---------------dance-single - ----------------
#NOTES:
     dance-single:
     :
     Hard:
     15:
     0.699934,0.934103,0.032938,0.205863,0.370553,595.000000,591.000000,4.000000,25.000000,0.000000,0.000000,0.699934,0.934103,0.032938,0.205863,0.370553,595.000000,591.000000,4.000000,25.000000,0.000000,0.000000:
0000
0000
0000
0000
,
0000
0000
0000
0000
,
0000
0000
0000
0000
,
0000
0000
0000
0000
,
1000
0100
0010
0001
,
1000
0010
0001
0010
,
1000
0100
0001
0100
,
1000
0010
0100
0001
,
1000
0100
1000
0010
1000
0100
0010
0001
,
1000
0010
1000
0100
1000
0010
0100
0001
,
0010
0100
0010
0100
1000
0010
0100
0001
,
1000
0100
1000
0100
1000
0010
0100
0001
,
1000
0010
0001
0010
1000
0100
0010
0001
,
1000
0100
0001
0100
1000
0010
0100
0001
,
1000
0100
0010
0100
0001
0100
0010
0100
,
2000
0000
0000
0000
,
3001
0010
0100
1000
0100
0010
0001
0100
0010
1000
0010
0100
,
0001
0000
0000
0100
0000
0000
0010
1000
0010
1000
0100
0010
,
0001
0100
0010
0100
0001
0010
0100
1000
,
0010
0100
0001
1000
0100
0010
0100
1000
,
0001
0000
1000
0010
1000
0000
0001
0010
0001
0000
0100
0000
0010
0000
1000
0000
,
0001
0010
0100
0010
0001
0001
0001
0001
,
1000
0000
0010
0000
0100
0000
0001
0010
0001
0000
1000
0000
0100
0000
0010
0000
,
0001
0000
0100
0000
0001
0000
1000
0000
0010
0000
1000
0000
0100
0000
0000
0100
0000
0000
0010
0000
0000
0001
0000
0000
,
0100
0010
1000
0100
1000
0010
1000
0001
,
0010
0000
0100
0000
0010
0000
0001
0000
1000
0010
1000
0000
0200
0000
0000
0000
,
1300
0100
0010
0100
1000
0010
0100
0001
,
0010
0100
1000
0001
0100
0010
0100
0001
,
1000
0000
0001
0010
0001
0000
1000
0010
1000
0000
0100
0000
0010
0000
0001
0000
,
1000
0000
0010
0000
0100
0000
0010
0000
1000
0100
1000
0100
1000
0000
0000
0000
,
0001
0000
0010
0000
0100
0000
1000
0010
1000
0000
0001
0000
0100
0000
0010
0000
,
1000
0000
0100
0000
1000
0000
0001
0000
0010
0000
0001
0000
0100
0000
0000
0100
0000
0000
0010
0000
0000
1000
0000
0000
,
0100
0010
0001
0100
0001
0010
0001
1000
,
0010
0100
0010
1000
0001
0010
1000
0010
,
0002
0000
0000
0203
,
0320
0000
2030
3200
,
0320
0000
0032
2003
,
3020
0000
0230
0302
,
0013
0010
0100
0100
,
1000
1000
0010
0010
,
0100
0100
0001
0001
,
1000
0000
0000
1000
0000
0000
0001
0000
0001
1000
0000
1000
,
0001
0100
0010
1000
,
1100
0100
0010
0001
,
0101
0100
0010
1000
,
0100
0000
0100
0010
0000
0000
0100
1000
0100
1000
0010
1000
,
0001
0000
0000
0000
1000
0000
0001
0010
0001
0000
1000
0000
0010
0000
0100
0000
,
0001
0000
0010
0000
1000
0000
0010
0000
0002
0000
0000
0000
1003
0000
0000
1000
,
0200
0000
0000
0000
0310
0000
0000
0010
0002
0000
0000
0000
0203
0000
0000
0000
,
0301
1000
0001
1000
0001
0000
0000
0000
1000
0001
1000
0001
1000
0000
0010
0000
,
0100
0000
0000
0000
0001
0000
1000
0010
1000
0000
0100
0000
0010
0000
0001
0000
,
1000
0000
0010
0000
0001
0000
0010
0000
2000
0000
0000
0000
3001
0000
0000
0001
,
1000
0100
0010
0100
1000
0010
0100
0001
,
0010
0100
0010
0100
0010
0100
0010
0100
0010
0000
0000
0001
0000
0000
1000
0000
,
0000
0000
0000
0000
1001
0000
0000
0000
1000
0001
1000
0001
1000
0001
1000
0001
,
1000
0000
0010
0100
0000
0100
0001
0000
,
0010
0100
1000
0001
0000
1000
0010
0000
,
0100
0000
0000
0010
0000
0000
1000
0000
0000
0000
0100
0000
0010
0000
0100
0000
,
1000
0010
0100
0001
0000
0010
0100
0010
,
0001
0000
1000
0010
0000
0010
0100
0000
,
0001
0000
0000
0010
0000
0000
0100
0000
0000
0000
1000
0000
0010
0000
0100
0000
,
0010
0000
0000
0000
1000
0000
0100
0010
0100
0000
1000
0000
0010
0000
1000
0000
,
0001
0000
0000
0100
0000
0000
0001
0000
1000
0000
0000
0000
0100
0000
0000
0000
,
0010
0000
0001
0100
0000
0100
0010
0000
,
1000
0100
0010
0001
0000
1000
0010
0000
,
0100
0000
0000
0001
0000
0000
0010
0000
0000
0000
0001
0000
0100
0000
0010
0000
,
1000
0000
0000
0000
0000
0000
0000
0000
0000
0100
0000
0000
0000
0000
0000
0000
0000
0000
1000
0000
0000
0000
0000
0000
0001
0000
0000
0000
0100
0000
0000
0000
0001
0000
0000
0000
1000
0000
0000
0000
0010
0000
0000
0000
1000
0000
0000
0000
,
0100
0000
0010
0000
0010
0000
0001
1000
,
0001
0000
0100
0000
0100
0000
0001
1000
,
0001
0010
0100
0010
0001
0100
0010
1000
,
0001
0010
0001
0010
0001
0010
0001
0010
0100
1000
0100
1000
0100
1000
0100
1000
,
0001
0100
0001
0000
1000
0100
0000
1000
,
0000
0000
0010
0000
0100
0000
0000
0000
0001
1000
0001
1000
0001
0000
0000
0000
,
1000
1000
0010
0000
0100
0001
0100
0000
,
0001
0001
0010
0000
0100
1000
0100
0000
,
1000
1000
0001
0000
0010
0100
0010
0000
,
0001
0000
0001
0000
1000
0000
0000
0000
0010
0100
0010
0100
0010
0000
0000
0000
,
1000
0100
0010
0100
0001
0100
0010
0100
,
1000
0010
0001
0010
1000
0100
0010
0001
,
1000
0000
0000
0010
0000
0000
1000
0000
0000
0010
0000
0000
1000
0000
0000
0000
0000
0000
0001
0000
0000
0000
0000
0000
0010
0000
0000
0000
0100
0000
0000
0000
0010
0000
0000
0000
0001
0000
0000
0000
1000
0000
0000
0000
0001
0000
0000
0000
,
1000
0100
0010
1000
0010
0001
0100
0010
,
2000
0000
3200
0000
0310
0001
0100
0010
,
2000
0000
3002
0000
0023
0000
0130
1000
,
0001
0100
0001
0100
0010
1000
0010
1000
,
0100
0010
0100
0010
0001
1000
0001
1000
,
0001
0100
1000
0100
0001
0010
1000
0010
,
0001
1000
0001
1000
0100
0010
0100
0010
0001
1000
0001
1000
0001
1000
0001
1000
,
0000
2002
0000
0000
,
0000
0000
0000
0000
,
0000
0000
0000
0000
,
0003
0000
0000
3000
;

//---------------dance-single - ----------------
#NOTES:
     dance-single:
     :
     Medium:
     11:
     0.508187,0.635190,0.032938,0.156456,0.082345,432.000000,428.000000,4.000000,19.000000,0.000000,0.000000,0.508187,0.635190,0.032938,0.156456,0.082345,432.000000,428.000000,4.000000,19.000000,0.000000,0.000000:
0000
0000
0000
0000
,
0000
0000
0000
0000
,
0000
0000
0000
0000
,
0000
0000
0000
0000
,
1000
0100
0010
0001
,
1000
0010
0100
0001
,
1000
0100
0010
0001
,
1000
0010
0100
0001
,
1000
0100
1000
0000
0001
0000
0100
0000
,
0001
0010
0001
0000
1000
0000
0010
0000
,
1000
0100
1000
0000
0001
0000
0100
0000
,
0001
0010
0001
0000
1000
0000
0010
0000
,
1001
0001
0010
0100
,
1001
0010
0100
0001
,
1001
1000
0001
1000
,
0000
0000
0000
0000
,
0001
0000
0001
0100
0000
0100
0010
0000
0010
1000
0000
1000
,
0100
0000
0100
0000
0010
0001
0100
0010
,
1000
0000
0100
0000
1000
0010
1000
0000
,
0001
0000
0100
0000
0001
0010
0001
0000
,
1000
0000
0000
1000
0100
0000
0000
0100
0010
0000
0001
0000
1000
0000
0000
0000
,
0001
0100
0001
0010
0100
0100
0010
0010
,
0001
0000
0100
0000
0010
1000
0010
0000
,
1000
0000
0000
0000
1000
0000
0100
0000
0000
0000
0100
0000
0010
0000
0000
0010
0000
0000
0001
0000
0000
1000
0000
0000
,
0001
0100
0001
0000
1000
0100
1000
0000
,
0001
0001
0010
0100
1000
0010
1000
0000
,
0001
0000
0100
0000
0001
0010
0001
0000
,
1000
0000
0100
0000
1000
0010
1000
0000
,
0001
0000
0000
0001
0100
0000
0000
0100
0010
0000
1000
0000
0001
0000
0000
0000
,
1000
0100
1000
0010
0100
0100
0010
0010
,
1000
0000
0100
0000
0010
0001
0010
0000
,
0001
0000
0000
0000
0001
0000
0100
0000
0000
0000
0100
0000
0010
0000
0000
0010
0000
0000
1000
0000
0000
0001
0000
0000
,
1000
0100
1000
0000
0001
0100
0001
0000
,
1000
1000
0010
0100
0001
0010
0001
1000
,
0002
0000
0000
0203
,
0320
0000
2030
3200
,
0320
0000
0032
2003
,
3020
0000
0230
0302
,
1003
1000
1000
1000
,
0010
0010
0010
0010
,
0100
0100
0100
0100
,
0001
0001
0001
0001
,
1000
0010
0100
0001
,
1000
0100
0010
0001
,
1000
0010
0001
0010
,
1000
0000
1000
0001
0000
0000
0001
0000
0001
0100
0000
0100
,
0010
0000
0000
1000
0100
1000
0010
0100
,
0001
0000
0000
0000
0010
0000
0000
0000
0001
0000
0000
0000
1000
0000
0000
1000
,
0010
0000
0000
0000
0100
0000
0000
0100
0001
0000
0000
0000
0010
0000
0000
0000
,
0100
1000
0100
0000
1000
0001
1000
0001
,
0010
0000
0010
0000
0001
0000
1000
0010
,
0100
0000
0100
0000
0001
0000
1000
0100
,
0010
0001
0010
0000
0001
1000
0001
0000
,
1000
0000
0010
0000
1000
0000
0001
0000
1000
0000
0000
0010
0000
0000
0100
0000
,
0000
0001
0020
0000
,
0130
0000
1000
0000
0000
0001
0010
0000
,
0001
0000
1000
0000
0000
0100
0010
0000
,
0001
0000
1000
0000
0000
0010
0100
0000
,
0001
0000
0010
0000
0000
0100
1000
0010
,
1000
0000
0100
0000
0000
0010
0001
0000
,
0100
0000
0010
0000
0000
1000
0001
0000
,
0010
0000
0100
0000
1000
0010
1000
0000
,
0001
0000
0100
0000
0001
0010
0001
1000
,
0001
0000
1000
0000
0000
0100
0010
0000
,
0001
0000
0100
0000
0000
0010
1000
0000
,
0100
0000
1000
0000
0000
0001
0100
0000
,
0001
0000
0000
0000
0000
0000
1000
0000
1000
0100
0000
0100
,
0010
0000
0010
0000
0001
0000
1000
0010
,
1000
0000
1000
0000
0001
0000
0010
0100
,
0010
0001
1000
0001
1000
0010
1000
0001
,
1000
0100
0010
0001
1000
0010
0100
0001
,
0000
0010
0100
0000
1000
0010
0000
0100
,
0000
0001
1000
0000
0100
0100
0010
0000
,
0001
0000
0100
0000
0000
0010
1000
0000
,
0100
0000
0010
0000
0000
0001
1000
0000
,
0010
0000
0100
0000
0000
0001
0010
0000
,
0001
0000
1000
0000
0001
1000
0001
0000
,
1000
0000
0010
0000
0100
0001
0100
0000
,
0001
0000
0010
0000
0100
1000
0100
0000
,
1000
0010
0100
0000
0001
0010
0100
1000
,
0010
0010
0100
0100
0001
0010
0100
1000
,
0020
0000
0230
0000
0301
0010
0100
0010
,
0002
0000
2003
0000
3200
0000
0310
0001
,
1000
0000
1000
0000
0010
0100
0010
0000
,
0100
0000
0100
0000
0001
0010
0001
0000
,
1000
0010
1000
0010
0100
0001
0100
0001
,
1000
0100
0010
0001
1000
0010
0100
0001
,
0000
2002
0000
0000
,
0000
0000
0000
0000
,
0000
0000
0000
0000
,
0003
0000
0000
3000
;

//---------------dance-single - ----------------
#NOTES:
     dance-single:
     :
     Easy:
     7:
     0.356437,0.448370,0.016469,0.156456,0.000000,303.000000,301.000000,2.000000,19.000000,0.000000,0.000000,0.356437,0.448370,0.016469,0.156456,0.000000,303.000000,301.000000,2.000000,19.000000,0.000000,0.000000:
0000
0000
0000
0000
,
0000
0000
0000
0000
,
0000
0000
0000
0000
,
0000
0000
0000
0000
,
0000
0000
0000
0000
,
0000
0000
0000
0000
,
0000
0000
0000
0000
,
0000
0000
0000
0000
,
1000
1000
0010
0010
,
0100
0100
0001
0001
,
1000
1000
0100
0100
,
0010
0010
0001
0001
,
1000
0010
1000
0010
,
0100
0001
0100
0001
,
1000
0100
1000
0010
,
0000
0000
0000
0000
,
1000
1000
0001
0001
,
0010
0000
0100
0000
1000
0001
1000
0001
,
1000
0100
0010
0100
,
1000
0010
0100
0001
,
1000
0010
0100
0010
,
1000
0000
0100
0000
0010
0001
0010
0000
,
0001
0100
0010
1000
,
0001
0000
0010
0000
0100
1000
0100
0000
,
1000
1000
0010
0010
,
0100
0000
0000
0110
0000
0000
0001
0000
,
1000
0010
0100
0010
,
1000
0100
0010
0001
,
1000
0100
0010
0100
,
1000
0000
0010
0000
0100
0001
0100
0000
,
0001
0010
0100
1000
,
0001
0000
0100
0000
0010
1000
0010
0000
,
1000
1000
0100
0100
,
0010
0000
0100
0000
1000
0001
1000
0000
,
0002
0000
0000
0203
,
0320
0000
2030
3200
,
0320
0000
0032
0203
,
0320
0000
2030
3002
,
1003
0000
1000
0000
,
0010
0000
0010
0000
,
0100
0000
0100
0000
,
0001
0000
0001
0000
,
0010
0100
0010
0100
,
1000
0001
1000
0001
,
0100
0010
0100
0010
,
1000
1000
0001
0001
,
0010
0000
0001
1000
,
0100
0010
0001
0100
,
0010
1000
0100
1000
,
0001
1000
0001
0000
1000
0001
1000
0000
,
0010
0010
0100
0100
,
0001
0001
0010
0010
,
0100
1000
0010
0100
,
0001
0010
0100
1000
,
0000
0001
2000
0000
,
3001
0010
0000
0001
,
1000
0100
0000
1000
,
0010
0100
0000
0001
,
1000
0010
0000
0100
,
0001
0010
0000
0001
,
1000
0100
0000
1000
,
0010
1000
0100
0010
,
0001
0100
0001
0010
,
0001
1000
0000
0100
,
0010
0100
0000
1000
,
0001
1000
0000
0010
,
0100
0000
0001
0001
,
1000
1000
0010
0010
,
0100
0100
0001
0001
,
1000
0100
0010
0001
,
1000
0010
0100
0001
,
0000
0000
0010
0000
0000
0010
0000
0000
,
0100
0000
0100
0000
1000
0001
1000
0000
,
0001
0010
0001
0001
,
1000
0010
1000
1000
,
0001
0100
0001
0001
,
1000
0000
0100
0000
1000
0010
1000
0000
,
0001
0010
0100
0010
,
0001
0100
0010
1000
,
0100
0010
0100
1000
,
0010
0100
0001
0010
,
0200
0000
2300
0000
3010
0100
0010
0100
,
0002
0000
2003
0000
3200
0000
0310
0001
,
1000
1000
0010
0010
,
0100
0100
0001
0001
,
0010
0010
0100
0100
,
1000
0001
1000
0000
0001
0010
0100
1000
,
0000
2002
0000
0000
,
0000
0000
0000
0000
,
0000
0000
0000
0000
,
0003
0000
0000
3000
;

//---------------dance-single - ----------------
#NOTES:
     dance-single:
     :
     Beginner:
     3:
     0.128223,0.336277,0.000000,0.008235,0.000000,109.000000,109.000000,0.000000,1.000000,0.000000,0.000000,0.128223,0.336277,0.000000,0.008235,0.000000,109.000000,109.000000,0.000000,1.000000,0.000000,0.000000:
// measure 0
0000
0000
0000
0000
,  // measure 1
0000
0000
0000
0000
,  // measure 2
0000
0000
0000
0000
,  // measure 3
0000
0000
0000
0000
,  // measure 4
0000
0000
0000
0000
,  // measure 5
0000
0000
0000
0000
,  // measure 6
0000
0000
0000
0000
,  // measure 7
0000
0000
0000
0000
,  // measure 8
1000
0000
0000
0000
,  // measure 9
0001
0000
0000
0000
,  // measure 10
1000
0000
0000
0000
,  // measure 11
0001
0000
0000
0000
,  // measure 12
0100
0000
0000
0000
,  // measure 13
0010
0000
0000
0000
,  // measure 14
0100
0000
0000
0000
,  // measure 15
0000
0000
0000
0000
,  // measure 16
0001
0000
0001
0000
,  // measure 17
1000
0000
1000
0000
,  // measure 18
0001
0000
0000
0000
,  // measure 19
0100
0000
0000
0000
,  // measure 20
0010
0000
0000
0000
,  // measure 21
1000
0000
0000
0000
,  // measure 22
0100
0000
0000
0000
,  // measure 23
0010
0000
0000
0000
,  // measure 24
0001
0000
0000
0000
,  // measure 25
0100
0000
0100
0000
,  // measure 26
0010
0000
0000
0000
,  // measure 27
1000
0000
0000
0000
,  // measure 28
0010
0000
0000
0000
,  // measure 29
1000
0000
0000
0000
,  // measure 30
0100
0000
0000
0000
,  // measure 31
0010
0000
0000
0000
,  // measure 32
0100
0000
0000
0000
,  // measure 33
1000
0000
0000
0000
,  // measure 34
0001
0000
0000
1000
,  // measure 35
0010
0000
1000
0100
,  // measure 36
0010
0000
0001
0100
,  // measure 37
0001
0000
0010
0100
,  // measure 38
1000
0000
0000
0000
,  // measure 39
0000
0000
0001
0000
,  // measure 40
1000
0000
0000
0000
,  // measure 41
0100
0000
0010
0000
,  // measure 42
0001
0000
0000
0000
,  // measure 43
0100
0000
0000
0000
,  // measure 44
0010
0000
0000
0000
,  // measure 45
1000
0000
1000
0000
,  // measure 46
0001
0000
0000
0000
,  // measure 47
1000
0000
0000
0000
,  // measure 48
0010
0000
0000
0000
,  // measure 49
0100
0000
0000
0000
,  // measure 50
0001
0000
0000
0000
,  // measure 51
0010
0000
0000
0000
,  // measure 52
0100
0000
0000
0000
,  // measure 53
1000
0000
0001
0000
,  // measure 54
1000
0000
0001
0000
,  // measure 55
0001
0000
0000
0100
,  // measure 56
0000
0000
0000
0010
,  // measure 57
0000
0000
0000
1000
,  // measure 58
0000
0000
0000
0100
,  // measure 59
0000
0000
0000
0010
,  // measure 60
0000
0000
0000
0001
,  // measure 61
0000
0000
0000
0100
,  // measure 62
0000
0000
0000
0010
,  // measure 63
0000
0000
0000
1000
,  // measure 64
0000
0000
0000
0100
,  // measure 65
0000
0000
0000
0010
,  // measure 66
0000
0000
0000
0000
,  // measure 67
0001
0000
0001
0000
,  // measure 68
1000
0000
1000
0000
,  // measure 69
0010
0000
0010
0000
,  // measure 70
0100
0000
0100
0000
,  // measure 71
0010
0000
0000
0000
,  // measure 72
1000
0000
0001
0000
,  // measure 73
1000
0000
0000
0000
,  // measure 74
0010
0000
0000
0000
,  // measure 75
1000
0000
0000
0000
,  // measure 76
0100
0000
0000
0000
,  // measure 77
0010
0000
0000
0000
,  // measure 78
0001
0000
0000
0000
,  // measure 79
0100
0000
0000
0000
,  // measure 80
0010
0000
0010
0000
,  // measure 81
1000
0100
0010
0100
,  // measure 82
1000
0010
0100
0001
,  // measure 83
0010
0000
0010
0000
,  // measure 84
0100
0000
0100
0000
,  // measure 85
1000
0000
1000
0000
,  // measure 86
0010
0000
0010
0000
,  // measure 87
0000
0200
0000
0000
,  // measure 88
0000
0000
0000
0000
,  // measure 89
0000
0000
0000
0000
,  // measure 90
0000
0000
0000
0300
;
