#TITLE:ミイラキラー;
#SUBTITLE:;
#ARTIST:TEMPURA KIDZ vs Charisma.com;
#TITLETRANSLIT:Miira Killer;
#SUBTITLETRANSLIT:;
#ARTISTTRANSLIT:;
#GENRE:ELECTRO POP;
#CREDIT:;
#BANNER:Miira Killer.png;
#BACKGROUND:Miira Killer-bg.png;
#LYRICSPATH:;
#CDTITLE:cdtitle.png;
#MUSIC:Miira Killer.ogg;
#OFFSET:0.180000;
#SAMPLESTART:63.750000;
#SAMPLELENGTH:15.176999;
#SELECTABLE:YES;
#BPMS:0.000000=126.999992
;
#STOPS:
;
#BGCHANGES:0.000=Miira Killer.avi=1.000=0=0=0=StretchNoLoop==CrossFade_Fastest==,
99999=-nosongbg-=1.000=0=0=0 // don't automatically add -songbackground-
;
#KEYSOUNDS:;
#ATTACKS:;

//---------------dance-single - ----------------
#NOTES:
     dance-single:
     :
     Hard:
     12:
     0.500946,0.489103,0.000000,0.157508,0.198957,423.000000,423.000000,0.000000,19.000000,0.000000,0.000000,0.500946,0.489103,0.000000,0.157508,0.198957,423.000000,423.000000,0.000000,19.000000,0.000000,0.000000:
0000
0000
0000
0000
,
0000
0000
0000
0000
,
1000
0010
1000
0010
0100
0001
0100
0001
,
1000
0100
1000
0100
0010
0001
0010
0001
,
1000
0010
0100
0010
1000
0100
0010
0100
,
1000
0001
0100
0010
0100
0001
0010
0100
,
2000
3000
0002
0003
,
0020
0230
2300
3001
,
0100
0000
0100
0000
0100
0000
0010
1000
0000
0010
0000
1000
0100
0000
0010
0000
,
0001
0000
0001
0000
0001
0000
1000
0000
0010
1000
0010
0000
0100
0000
0001
0000
,
0010
0100
0010
0001
1000
0010
0100
0001
,
2000
0000
0000
0000
3100
0000
0010
0001
0000
0010
0001
0000
0100
0000
0010
0000
,
1000
0000
1000
0000
0001
0000
0010
0100
0000
0010
0000
0001
0100
0000
0010
0000
,
1000
0001
0010
0100
1000
0001
0100
0001
,
0010
0000
0010
0000
0010
0000
0100
1000
0000
0100
0000
1000
0010
0000
0100
0000
,
0001
0001
0001
1000
0100
0010
0002
0000
,
0103
0100
0010
1000
0000
0001
1000
0000
,
0100
0100
1000
0010
0000
0100
0001
0000
,
0010
0010
0001
0100
0000
0001
1000
0000
,
0001
0000
0001
0000
0010
0000
0100
0000
0000
0000
1000
0000
0001
1000
0001
1000
,
0001
0010
0100
0010
0000
0001
1000
0000
,
0100
0100
0010
0001
0000
1000
0010
0000
,
0100
0100
0010
1000
0000
0001
0010
0001
,
1000
0000
0100
0000
0001
0000
0100
0000
1000
0000
0010
0000
0100
0001
0100
0000
,
0001
0010
0001
0010
0100
1000
0100
1000
,
0001
0100
0001
0100
0010
1000
0010
1000
,
0001
0010
0100
0010
0001
0100
0010
0100
,
0001
1000
0100
0010
0100
1000
0010
0100
,
0001
0010
0100
1000
0001
0100
0010
1000
,
0001
0010
1000
0010
0001
0100
1000
0100
,
0001
1000
0001
1000
0100
0010
0100
0010
,
0001
1000
0001
1000
0010
0100
0010
0100
,
0002
0003
2000
3000
,
0200
0000
0320
0000
0032
0000
1003
0010
,
0100
0000
0100
0000
0001
0000
0010
0000
0000
0000
0001
0100
0001
0000
0010
0000
,
0100
0000
1000
0000
0010
0000
1000
0000
0000
0000
0100
0010
0100
0000
0010
0000
,
0001
1000
0000
1000
0100
0001
0100
1000
,
0010
0000
0000
0010
0000
0000
0010
0000
0000
0000
0100
0000
0001
0000
0000
0000
,
0010
0000
0010
0000
0001
0000
0100
0000
0000
0000
0001
0010
0001
0000
0100
0000
,
0010
0000
1000
0000
0100
0000
1000
0000
0000
0000
0010
0100
0010
0000
0100
0000
,
0002
0000
0000
0000
1003
0000
0010
0100
0000
0010
0100
0000
0001
1000
0001
0000
,
2000
0000
0000
0000
3001
0000
0010
0100
0000
0010
0100
0000
1000
0001
1000
0000
,
0100
0000
0100
0000
1000
0000
0001
0000
0000
0000
1000
0100
1000
0000
0010
0000
,
0100
0000
0001
0000
0010
0000
0001
0000
0000
0000
0100
0010
0100
0000
0010
0000
,
1000
0001
0000
0001
0100
1000
0100
0001
,
0010
0000
0000
0010
0000
0000
0010
0000
0000
0000
0100
0000
1000
0000
0000
0000
,
0010
0000
0010
0000
1000
0000
0001
0000
0000
0000
1000
0010
1000
0000
0100
0000
,
0010
0000
0001
0000
0100
0000
0001
0000
0000
0000
0010
0100
0010
0000
0100
0000
,
2000
0000
0000
0000
3001
0000
0010
0100
0000
0010
0100
0000
1000
0001
1000
0000
,
0002
0000
0000
0000
1003
0000
0010
0100
0000
0010
0100
0000
0001
1000
0001
0000
,
1000
0000
1000
0000
1000
0000
0001
0100
0000
0001
0000
0010
0001
0000
1000
0000
,
0100
0000
0100
0000
0100
0000
0010
0000
0001
1000
0001
0000
0100
0000
0010
0000
,
1000
0100
0010
0100
1000
0001
0100
0010
,
0200
0000
0000
0000
0301
0000
0010
0100
0000
0010
0001
0000
1000
0000
0010
0000
,
1000
0100
0010
0001
0000
0010
0100
0000
,
0010
0010
0001
1000
0100
1000
0010
0010
,
0100
0000
0100
0000
0100
0000
0001
1000
0000
0001
0000
1000
0100
0000
0010
0000
,
0100
0000
0100
0000
0100
0000
0010
0001
0010
0000
0001
1000
0002
0000
0000
0000
,
0203
0000
0000
0000
,
0310
0000
0000
0000
;

//---------------dance-single - ----------------
#NOTES:
     dance-single:
     :
     Challenge:
     14:
     0.690429,0.733654,0.074609,0.066319,0.746089,583.000000,574.000000,9.000000,8.000000,0.000000,0.000000,0.690429,0.733654,0.074609,0.066319,0.746089,583.000000,574.000000,9.000000,8.000000,0.000000,0.000000:
0000
0000
0000
0000
,
1000
0100
1000
0000
0001
0100
0001
0000
1000
0010
1000
0010
0100
0001
0100
0001
,
1000
0010
0001
0010
1000
0100
0001
0100
,
1000
0010
0100
0001
1000
0100
0010
0001
,
1000
0010
0100
0010
0001
0010
0100
0010
,
1000
0100
0010
0100
0001
0100
0010
0100
,
1000
0010
1000
0010
1000
0000
0000
0000
0001
0010
0001
0010
0001
0000
0000
0000
,
1000
0100
1000
0000
0001
0100
0001
0000
1000
0001
1000
0001
1000
0000
0000
0000
,
0010
0000
0010
0000
0010
0000
1000
0100
0000
0010
0000
0100
1000
0100
1000
0001
,
0100
0000
0100
0000
0100
0000
0010
1000
0100
0010
0001
0000
1000
0010
1000
0010
,
0100
0000
0001
0100
0001
0000
0010
0000
0001
1000
0001
1000
0100
0000
0010
0001
,
2000
0000
0000
0000
3100
0000
0010
0100
0000
1000
0000
0010
0100
0001
0100
0001
,
0010
0000
0010
0000
0001
0000
0100
0010
0000
1000
0000
0100
0010
0000
0100
1000
,
0100
1000
0001
1000
0001
0010
0000
0001
0000
1000
0010
0000
1000
0100
1000
0100
,
0010
0001
0010
0001
0010
0000
0001
1000
0000
0001
0000
1000
0010
1000
0010
0100
,
0001
1000
0001
0000
0010
0000
0100
1000
0100
1000
0001
0000
1000
0100
0010
0100
,
1000
0000
0010
0100
0001
0010
0100
0010
0001
0000
1000
0000
0100
0010
0100
0010
,
0001
0100
0001
0100
0010
0000
1000
0001
0010
0001
1000
0001
0100
0010
0100
0000
,
0001
0000
0010
0000
1000
0000
0010
0001
0010
0000
0001
1000
0001
1000
0000
0000
,
1001
0000
0000
0001
0000
0010
0100
0000
1000
0010
0000
1000
0100
1000
0100
0010
,
0001
0000
0000
0000
0001
0000
1000
0010
0100
0001
0000
0010
0000
0100
0000
0010
,
0000
0000
0001
0100
0001
0100
0010
1000
0010
1000
0000
0100
0000
0010
0000
0001
,
0100
0000
0001
0010
0001
1000
0001
1000
0100
1000
0000
0010
0000
1000
0100
1000
,
0001
1000
0001
1000
0100
0010
0100
0010
0001
0100
0001
0100
0010
1000
0010
1000
,
0001
0010
1000
0010
0001
0100
1000
0100
,
0001
0010
0100
1000
0001
0100
0010
1000
,
0001
0010
0100
0010
1000
0010
0100
0010
,
0001
0100
0010
0100
1000
0100
0010
0100
,
0001
0010
0100
0001
0100
1000
0010
1000
,
0001
0100
0010
0001
0010
1000
0100
1000
,
0001
0010
1000
0010
0001
0010
0100
0010
,
0001
0100
1000
0100
0001
0100
0010
0100
,
0001
0010
0001
0010
0001
0000
0000
0000
1000
0010
1000
0010
1000
0000
0000
0000
,
0001
0100
0001
0000
1000
0100
1000
0000
0001
0100
0001
0000
1001
0000
1000
0000
,
0100
0000
0001
0000
0100
0000
1000
0000
0000
0000
0001
0100
0001
0000
1000
0000
,
0010
0000
0001
0000
0010
0000
1000
0000
0000
0000
0001
0010
0001
0000
1000
0000
,
0100
0110
0000
0010
0011
0001
0100
0010
,
1000
0000
1000
0100
0000
0100
0010
0000
0000
0000
1001
0000
0001
0100
0001
0100
,
0001
0000
0010
0000
0100
0000
1000
0000
0000
0000
0001
0100
0001
0000
1000
0000
,
0100
0000
0001
0000
0100
0000
1000
0000
0000
0000
0010
0100
0010
0000
0100
0000
,
0002
0000
0000
0000
1003
0000
0100
0010
0000
0100
0010
0000
0001
1000
0001
0000
,
2000
0000
0000
0000
3001
0000
0100
0010
0000
0100
0010
0000
1000
0001
1000
0000
,
0010
0000
0001
0000
0010
0000
1000
0000
0000
0000
0001
0010
0001
0000
1000
0000
,
0100
0000
0001
0000
0100
0000
1000
0000
0000
0000
0001
0100
0001
0000
1000
0000
,
0010
0110
0000
0100
0101
0001
0010
0100
,
1000
0000
1000
0010
0000
0010
0100
0000
0000
0000
1001
0000
0001
0010
0001
0010
,
0001
0000
0100
0000
0010
0000
1000
0000
0000
0000
0001
0010
0001
0000
1000
0000
,
0010
0000
0001
0000
0010
0000
1000
0000
0000
0000
0100
0010
0100
0000
0010
0000
,
0002
0000
0000
0000
1003
0000
0010
0100
0000
0010
0100
0000
0001
1000
0001
0000
,
2000
0000
0000
0000
3001
0000
0010
0100
0000
0010
0100
0000
1000
0001
1000
0000
,
0100
0010
0100
0010
0100
0000
1000
0010
0000
0100
0000
0010
1000
0010
1000
0001
,
0010
0100
0010
0000
0010
0000
0100
1000
0010
0100
0001
0000
1000
0100
1000
0100
,
0010
0000
0001
0010
0001
0000
0100
0000
0001
1000
0001
1000
0010
0000
0100
0001
,
2000
0000
0000
0000
3010
0000
0100
0010
0000
1000
0000
0100
0010
0001
0010
0001
,
0100
0000
0100
0000
0001
0000
0010
0100
0000
1000
0000
0010
0100
0000
0010
1000
,
0010
1000
0001
1000
0001
0100
0000
0001
0000
1000
0100
0000
1000
0010
1000
0010
,
0100
0001
0100
0001
0100
0000
0001
1000
0000
0001
0000
1000
0100
1000
0100
0010
,
0001
1000
0001
0000
0100
0000
0010
1000
0010
1000
0001
1000
0200
0000
0000
0000
,
0020
0000
0000
0330
,
1001
0000
0000
0000
;

//---------------dance-single - ----------------
#NOTES:
     dance-single:
     :
     Medium:
     9:
     0.375413,0.342372,0.000000,0.091189,0.000000,317.000000,317.000000,0.000000,11.000000,0.000000,0.000000,0.375413,0.342372,0.000000,0.091189,0.000000,317.000000,317.000000,0.000000,11.000000,0.000000,0.000000:
0000
0000
0000
0000
,
0000
0000
0000
0000
,
1000
0010
1000
0000
0001
0010
0001
0000
,
1000
0100
1000
0000
0001
0100
0001
0000
,
1000
0001
1000
0000
0001
1000
0001
0000
,
0010
0100
0010
0000
0100
0010
0100
0000
,
2000
3000
0002
0003
,
2000
3020
0230
0301
,
1000
0010
1000
0100
0000
1000
0001
0000
,
1000
0000
0010
0100
0000
0100
0001
0010
,
0001
0100
0001
1000
0000
0100
0010
0000
,
0001
0000
1000
0010
1000
0100
1000
0000
,
0001
1000
0001
0100
0000
0001
0010
0000
,
0100
0000
1000
0010
0000
0010
0100
0001
,
1000
0010
1000
0100
0000
1000
0001
0000
,
0010
0100
0010
0001
0000
1000
0001
0000
,
1000
0000
0100
0010
0000
0100
1000
0000
,
0001
0000
0100
0010
0000
0100
0001
0000
,
1000
0000
0001
0010
0000
0100
0010
0000
,
0001
0000
1000
0010
0000
0100
0010
0000
,
1000
0000
0001
0010
0000
0100
1000
0000
,
0001
0000
1000
0010
0000
0100
0001
0000
,
1000
0000
0100
0010
0000
0100
1000
0000
,
0001
0000
0100
0010
0000
0100
0001
0000
,
1000
0100
1000
0000
0001
0100
0001
0000
,
1000
0010
1000
0000
0001
0010
0001
0000
,
1000
0001
1000
0000
0001
1000
0001
0000
,
0100
0010
0100
0000
0010
0100
0010
0000
,
1000
0100
1000
0000
0001
0100
0001
0000
,
1000
0010
1000
0000
0001
0010
0001
0000
,
1000
0001
1000
0000
0001
1000
0001
0000
,
0100
0010
0100
0000
0010
0100
0010
0000
,
2000
3000
0002
0003
,
0020
0230
2300
3001
,
1000
0000
0010
0100
0000
0100
0001
0010
,
0001
0000
1000
0010
0000
0010
0100
0001
,
0010
0100
0000
1000
0010
1000
0010
0100
,
0001
0000
0010
0000
0001
0000
1000
0001
,
1000
0000
0100
0010
0000
0010
0001
1000
,
0001
0000
0100
0010
0000
0010
1000
0100
,
1000
0000
0001
0010
0001
0000
1000
0010
,
1000
0000
0001
0100
0001
0000
0010
0100
,
1000
0000
0010
0100
0000
0100
0001
0010
,
0100
0000
1000
0001
0000
0001
0100
0010
,
1000
0100
0000
1000
0010
1000
0001
0010
,
0001
0000
0100
0000
0010
0000
1000
0001
,
1000
0000
0001
0010
0000
0010
0100
1000
,
0100
0000
1000
0001
0000
0001
1000
0010
,
0100
0000
0001
0010
0001
0000
1000
0010
,
1000
0000
0001
0100
0001
0000
1000
0000
,
0001
0010
0001
0100
0000
0001
1000
0000
,
0001
0000
0010
0100
0000
0100
1000
0010
,
1000
0100
1000
0001
0000
0100
0010
0000
,
1000
0000
0001
0010
0001
0100
0001
0000
,
1000
0001
1000
0100
0000
1000
0010
0000
,
0100
0000
0001
0010
0000
0010
0100
1000
,
0001
0010
0001
0100
0000
0001
1000
0000
,
0010
0100
0010
1000
0000
0001
1000
0000
,
0200
0000
0000
0000
,
0310
0000
0000
0000
;

//---------------dance-single - ----------------
#NOTES:
     dance-single:
     :
     Easy:
     6:
     0.266460,0.244551,0.000000,0.091189,0.000000,225.000000,225.000000,0.000000,11.000000,0.000000,0.000000,0.266460,0.244551,0.000000,0.091189,0.000000,225.000000,225.000000,0.000000,11.000000,0.000000,0.000000:
0000
0000
0000
0000
,
0000
0000
0000
0000
,
1000
0001
1000
0001
,
0010
0000
0100
0000
0010
0100
0010
0000
,
0001
1000
0001
1000
,
0010
0000
0100
0000
0010
0100
0010
0000
,
2000
3000
0020
0030
,
0200
0302
0023
0130
,
1000
1000
0001
0001
,
0100
0100
0010
0010
,
1000
0100
0010
0001
,
0100
0001
0010
0100
,
1000
0001
0100
0010
,
1000
0100
0010
0001
,
0100
0100
0010
0010
,
1000
1000
0100
0000
,
1000
0010
1000
0001
,
1000
0100
0010
0001
,
0100
0001
0010
0100
,
0010
0001
1000
0010
,
0100
0010
1000
0100
,
0010
0001
0100
0010
,
1000
0001
0010
0100
,
0010
0001
1000
0010
,
1000
0001
1000
0001
,
0100
0000
0010
0000
0100
0010
0100
0000
,
0001
1000
0001
1000
,
0100
0000
0010
0000
0100
0010
0100
0000
,
1000
0001
1000
0001
,
0010
0000
0100
0000
0010
0100
0010
0000
,
0001
1000
0001
1000
,
0010
0000
0100
0000
0010
0100
0010
0000
,
2000
3000
0002
0003
,
2000
3020
0230
0301
,
0010
0010
0100
0100
,
1000
0010
0100
0001
,
1000
1000
0010
0010
,
1000
0100
0010
0001
,
0100
0100
0001
0001
,
0010
0100
0010
0001
,
1000
1000
0001
0001
,
1000
0010
0100
0010
,
1000
1000
0100
0100
,
0010
0001
0100
0010
,
1000
1000
0001
0001
,
0100
0010
0100
0001
,
0010
0010
0100
0100
,
1000
0010
1000
0100
,
1000
1000
0001
0001
,
1000
0001
0000
0000
,
1000
1000
0010
0010
,
0100
0100
0001
0001
,
0010
0100
0010
0001
,
0100
0010
1000
0100
,
0010
0100
1000
0010
,
0100
0001
1000
0010
,
1000
1000
0100
0100
,
0010
0010
0001
0001
,
0200
0000
0000
0000
,
0310
0000
0000
0000
;

//---------------dance-single - ----------------
#NOTES:
     dance-single:
     :
     Beginner:
     2:
     0.090004,0.146731,0.000000,0.000000,0.000000,76.000000,76.000000,0.000000,0.000000,0.000000,0.000000,0.090004,0.146731,0.000000,0.000000,0.000000,76.000000,76.000000,0.000000,0.000000,0.000000,0.000000:
// measure 0
0000
0000
0000
0000
,  // measure 1
0000
0000
0000
0000
,  // measure 2
1000
0000
1000
0000
,  // measure 3
0001
0000
0001
0000
,  // measure 4
1000
0000
1000
0000
,  // measure 5
0001
0000
0001
0000
,  // measure 6
0100
0000
0010
0000
,  // measure 7
0100
0010
0100
0000
,  // measure 8
0001
0000
0000
0000
,  // measure 9
1000
0000
0000
0000
,  // measure 10
0010
0000
0000
0000
,  // measure 11
0100
0000
0000
0000
,  // measure 12
0001
0000
0000
0000
,  // measure 13
1000
0000
0000
0000
,  // measure 14
0100
0000
0000
0000
,  // measure 15
0010
0000
0000
0000
,  // measure 16
0001
0000
0000
0000
,  // measure 17
0100
0000
0000
0000
,  // measure 18
0010
0000
0000
0000
,  // measure 19
1000
0000
0000
0000
,  // measure 20
0001
0000
0000
0000
,  // measure 21
0010
0000
0000
0000
,  // measure 22
0100
0000
0000
0000
,  // measure 23
1000
0000
0000
0000
,  // measure 24
0001
0000
0001
0000
,  // measure 25
1000
0000
1000
0000
,  // measure 26
0001
0000
0001
0000
,  // measure 27
1000
0000
1000
0000
,  // measure 28
0001
0000
0001
0000
,  // measure 29
1000
0000
1000
0000
,  // measure 30
0001
0000
0001
0000
,  // measure 31
1000
0000
1000
0000
,  // measure 32
0100
0000
0010
0000
,  // measure 33
0100
0010
0100
0000
,  // measure 34
1000
0000
0000
0000
,  // measure 35
0001
0000
0000
0000
,  // measure 36
0100
0000
0000
0000
,  // measure 37
0010
0000
0000
0000
,  // measure 38
1000
0000
0000
0000
,  // measure 39
0001
0000
0000
0000
,  // measure 40
0010
0000
0000
0000
,  // measure 41
0100
0000
0000
0000
,  // measure 42
1000
0000
0000
0000
,  // measure 43
0010
0000
0000
0000
,  // measure 44
0100
0000
0000
0000
,  // measure 45
0001
0000
0000
0000
,  // measure 46
1000
0000
0000
0000
,  // measure 47
0100
0000
0000
0000
,  // measure 48
0010
0000
0000
0000
,  // measure 49
0001
0000
0000
0000
,  // measure 50
1000
0000
0000
0000
,  // measure 51
0100
0000
0000
0000
,  // measure 52
0010
0000
0000
0000
,  // measure 53
0100
0000
0000
0000
,  // measure 54
1000
0000
0000
0000
,  // measure 55
0001
0000
0000
0000
,  // measure 56
0100
0000
0000
0000
,  // measure 57
0010
0000
0000
0000
,  // measure 58
0100
0000
0000
0000
,  // measure 59
0001
0000
0000
0000
;
