#VERSION:0.83;
#TITLE:Megaburn;
#SUBTITLE:;
#ARTIST:7 Sequence x M2U;
#TITLETRANSLIT:;
#SUBTITLETRANSLIT:;
#ARTISTTRANSLIT:;
#GENRE:UK HARDCORE;
#ORIGIN:;
#CREDIT:;
#BANNER:Megaburn.png;
#BACKGROUND:Megaburn-bg.png;
#PREVIEWVID:;
#JACKET:Megaburn-jacket.png;
#CDIMAGE:;
#DISCIMAGE:;
#LYRICSPATH:;
#CDTITLE:cdtitle.png;
#MUSIC:Megaburn.ogg;
#OFFSET:-0.240000;
#SAMPLESTART:89.036003;
#SAMPLELENGTH:11.098000;
#SELECTABLE:YES;
#BPMS:0.000=173.000;
#STOPS:;
#DELAYS:;
#WARPS:;
#TIMESIGNATURES:0.000=4=4;
#TICKCOUNTS:0.000=4;
#COMBOS:0.000=1;
#SPEEDS:0.000=1.000=0.000=0;
#SCROLLS:0.000=1.000;
#FAKES:;
#LABELS:0.000=Song Start;
#BGCHANGES:0.000=Megaburn.avi=1.000=0=0=1===CrossFade_Fastest==,
99999=-nosongbg-=1.000=0=0=0 // don't automatically add -songbackground-
;
#KEYSOUNDS:;
#ATTACKS:
;

//---------------dance-single - ----------------
#NOTEDATA:;
#CHARTNAME:;
#STEPSTYPE:dance-single;
#DESCRIPTION:;
#CHARTSTYLE:;
#DIFFICULTY:Challenge;
#METER:17;
#RADARVALUES:0.914456,0.964892,0.188501,0.062834,0.781495,815.000000,791.000000,24.000000,8.000000,0.000000,0.000000,0.000000,0.000000,0.000000,0.914456,0.964892,0.188501,0.062834,0.781495,815.000000,791.000000,24.000000,8.000000,0.000000,0.000000,0.000000,0.000000,0.000000;
#CREDIT:;
#NOTES:
0000
0000
0000
0000
,
0000
0000
0000
0000
,
0000
0000
0000
0000
,
0000
0000
0000
0000
,
0000
0000
0000
0000
,
0000
0000
0000
0000
,
0000
0000
0000
0000
,
0001
0000
0001
0000
0100
0000
0001
0010
0001
0010
0001
0000
1001
0000
0000
0000
,
1000
1000
0010
0100
0001
0100
0010
1000
,
0001
0000
0001
0000
0100
0000
0001
0010
0001
0000
1000
0010
1000
0000
0100
0000
,
0010
0010
0001
0100
0010
1000
0010
0100
,
0001
0010
0001
0000
1000
0000
0010
0100
0010
0000
1000
0100
1000
0000
0010
0000
,
0100
0100
0001
0010
0001
1000
0100
1000
,
0001
0000
1000
0001
1000
0000
0001
0010
0001
0000
0100
0010
0100
0000
0001
0000
,
0010
0010
0001
2000
3100
0010
0100
1000
,
0001
0000
0001
0000
1000
0000
0010
1000
0010
1000
0010
0000
1001
0000
0000
0000
,
1000
1000
0010
0100
0001
0010
0100
1000
,
0010
0000
0010
0000
1000
0000
0100
0010
0100
0000
1000
0001
1000
0000
0010
0000
,
0100
0100
0001
1000
0010
0100
0001
0010
,
0001
1000
0001
0000
0100
0000
0010
0100
0010
0000
1000
0100
1000
0000
0001
0000
,
0010
0010
0001
1000
0100
0001
0100
1000
,
0010
0000
0100
0001
0100
0000
0001
0010
0001
0000
1000
0010
1000
0000
0100
0000
,
1000
0001
0100
0020
0031
0010
1000
0100
,
0010
0011
1001
1100
,
0010
0000
0010
0000
1000
0000
0001
0100
0001
0000
0010
0000
0100
0000
1000
0010
,
1000
0000
0001
0100
0001
0000
1000
0100
1000
0000
0001
1000
0001
0000
1000
0000
,
0100
0000
0100
0000
0010
0000
0001
0100
0001
0000
1000
0000
0010
0000
1000
0100
,
1000
0000
0001
0100
0001
0000
0010
0001
0010
0000
0001
1000
0001
0000
0100
0000
,
0001
0000
0001
0000
0010
0000
0100
1000
0100
0000
1000
0000
0010
0000
0100
0001
,
0100
0000
0001
0010
0001
0000
1000
0010
1000
0000
0100
1000
0100
0000
0010
0000
,
0001
0000
0001
0000
0100
0000
0010
1000
0010
0000
1000
0000
0100
0000
1000
0010
,
1000
0000
0001
0010
0001
0000
1000
0100
1000
0000
0001
0100
0001
0000
0000
0000
,
1000
0000
0010
0000
1000
0000
0001
0010
0001
0000
0100
0000
0010
0000
1000
0100
,
1000
0000
0001
0000
0010
0000
0001
0100
0001
0000
1000
0000
0010
0000
0100
0010
,
0100
0000
0001
0000
0010
0000
0100
1000
0100
0000
1000
0000
0010
0000
0100
0001
,
0100
0000
0001
0010
0001
0000
1000
0010
1000
0000
0001
1000
0001
0000
0000
0000
,
1000
0000
0010
0000
1000
0000
0001
0010
0001
0000
0100
0000
0001
0000
1000
0100
,
1000
0000
0010
0000
1000
0000
0001
0010
0001
0000
0100
0000
0001
0000
1000
0100
,
1000
0010
1000
0010
0100
0001
0100
0001
0010
0100
0010
0100
1000
0001
1000
0001
,
1000
0000
0000
0010
0000
0000
1000
0000
0000
0000
0001
0000
0010
0000
0000
0000
0000
0000
1001
0000
0000
0000
0000
0000
,
0101
0000
0000
0000
0100
0000
0100
0000
0010
1000
0010
0000
1000
0000
1000
0000
,
0001
0000
0100
0000
0001
0000
0001
0000
1000
0100
1000
0000
1001
0000
0000
0000
,
1010
0000
0000
0000
0010
0000
0010
0000
0100
0001
0100
0000
0001
0000
0001
0000
,
1000
0000
0100
0000
1000
0000
1000
0000
0001
1000
0001
0000
0110
0000
0000
0000
,
0011
0000
0000
0000
0001
0000
0001
0000
1000
0010
1000
0010
0100
0000
0001
0010
,
0001
0010
0100
1000
0100
0000
0010
0000
0001
1000
0001
0000
1100
0000
0000
0000
,
1001
0000
0000
0000
0100
0000
0100
0000
0001
0010
0001
1000
0001
1000
0100
1000
,
0010
1000
0010
1000
0100
0000
0011
0000
,
1001
0000
0000
0000
0001
0000
0100
0000
0010
1000
0010
1000
0100
0010
0001
0000
,
1000
0100
0010
0100
1000
0001
0100
0000
0001
0010
0001
0000
0101
0000
0000
0000
,
1100
0000
0000
0000
1000
0000
0010
0000
1000
0001
1000
0000
0100
0000
0100
0000
,
0010
0100
0010
0100
1000
0000
0001
0000
0010
0100
0010
0000
0101
0000
0000
0000
,
1010
0000
0000
0000
0010
0000
0100
0000
0001
1000
0001
1000
0100
0010
0001
0000
,
1000
0100
1000
0100
1000
0010
0100
0000
0001
0100
0001
0000
0011
0000
0000
0000
,
1001
0000
0000
0000
0010
0000
0010
0000
1000
0100
1000
0000
0001
1000
0001
0100
,
0002
0003
0020
0030
0002
0003
0200
0300
0002
0003
2000
3000
1001
0000
0000
0000
,
1000
0100
0010
0100
,
1000
0100
0001
0100
,
1000
0100
0010
0001
,
1000
0000
0001
0100
0001
0000
1000
0000
0001
0010
0001
0010
0001
0000
0000
0000
,
1000
0100
0010
0100
0001
0100
0010
0100
,
1000
0010
0100
0010
0001
0010
0100
0010
,
1000
0100
1000
0010
1000
0001
0100
0001
0010
0001
1000
0001
0010
0100
1000
0010
,
0100
0000
0001
0010
0001
0000
1000
0010
1000
0000
0100
0000
0110
0000
0000
0000
,
0001
0000
0100
0000
0001
0010
0000
0001
1000
0000
0100
1000
0100
1000
0001
0000
,
1000
0000
0100
0000
1000
0010
0000
1000
0001
0000
0100
0001
0100
0001
1000
0000
,
0001
0000
1000
0000
0010
1000
0000
0100
0010
0000
0001
1000
0100
1000
0001
0000
,
1000
0000
0001
0100
0010
0100
0010
1000
0100
0000
0010
0001
0010
0001
1000
0000
,
0001
0000
0010
0000
0001
0100
0000
0001
1000
0000
0010
1000
0010
1000
0100
0000
,
1000
0000
0010
0000
1000
0100
0000
1000
0001
0000
0010
0001
0010
0001
1000
0000
,
0001
0000
1000
0000
0100
1000
0000
0010
0100
0000
0001
1000
0010
1000
0001
0000
,
1000
0000
0001
0010
0100
0010
0100
1000
0010
0000
0100
0001
0100
0001
1000
0000
,
0001
0000
1000
0000
0100
1000
0000
0010
0100
0000
0001
0010
0001
0010
0100
0000
,
1000
0000
0001
0000
0100
0001
0000
0010
0100
0000
1000
0010
1000
0010
0100
0000
,
0001
0000
1000
0000
0001
0100
0000
0001
0010
0000
0100
1000
0001
1000
0001
0000
,
1000
0000
0010
1000
0100
1000
0100
0010
0001
0000
0100
0001
0100
0010
1000
0000
,
0001
0000
1000
0000
0010
1000
0000
0100
0010
0000
0001
0100
0001
0100
0010
0000
,
1000
0000
0001
0000
0010
0001
0000
0100
0010
0000
1000
0100
1000
0100
0010
0000
,
0001
0000
1000
0000
0001
0010
0000
0001
0100
0000
0010
1000
0001
1000
0001
0000
,
1000
0000
0100
1000
0010
1000
0010
0100
0001
0000
0010
0001
0010
0100
1000
0000
,
1001
0000
0100
0000
1000
0000
0001
0100
0001
0000
0010
0000
0001
0000
1000
0010
,
1000
0000
0100
0000
1000
0000
0001
0100
0001
0000
0010
0000
0001
0000
1000
0010
,
1000
0000
0100
0000
1000
0000
0001
0100
0001
0000
0010
0000
0001
0000
1000
0010
,
1000
0000
0001
0010
0001
0000
1000
0100
1000
0000
0001
0100
0001
0000
0000
0000
,
1000
0000
0001
0000
1000
0000
0001
0010
0001
0000
1000
0000
0001
0000
1000
0100
,
1000
0000
0001
0000
1000
0000
0001
0010
0001
0000
1000
0000
0001
0000
1000
0100
,
1000
0010
1000
0001
0010
0100
1000
0001
0100
0010
1000
0100
0010
0001
1000
0010
,
0100
0001
0010
0001
1000
0100
0010
0000
;

//---------------dance-single - ----------------
#NOTEDATA:;
#CHARTNAME:;
#STEPSTYPE:dance-single;
#DESCRIPTION:;
#CHARTSTYLE:;
#DIFFICULTY:Hard;
#METER:15;
#RADARVALUES:0.768592,0.964892,0.157085,0.015708,0.404493,685.000000,665.000000,20.000000,2.000000,0.000000,0.000000,0.000000,0.000000,0.000000,0.768592,0.964892,0.157085,0.015708,0.404493,685.000000,665.000000,20.000000,2.000000,0.000000,0.000000,0.000000,0.000000,0.000000;
#CREDIT:;
#NOTES:
// measure 0
0000
0000
0000
0000
,  // measure 1
0000
0000
0000
0000
,  // measure 2
0000
0000
0000
0000
,  // measure 3
0000
0000
0000
0000
,  // measure 4
0000
0000
0000
0000
,  // measure 5
0000
0000
0000
0000
,  // measure 6
0000
0000
0000
0000
,  // measure 7
1000
0000
1000
0000
0001
0000
0000
0100
0000
0010
0100
0000
1001
0000
0000
0000
,  // measure 8
0001
0010
0100
1000
0000
1010
0000
1000
,  // measure 9
0100
0000
0100
0000
0010
0000
0001
0100
0001
0000
1000
0001
1000
0000
0010
0000
,  // measure 10
1000
0100
0010
0001
0000
0101
0000
0100
,  // measure 11
0000
0010
1000
0000
0100
0000
1000
0000
0010
0000
0100
0001
0100
0000
0001
0000
,  // measure 12
0010
0001
1000
0010
0010
0010
0000
1000
,  // measure 13
0100
0000
1000
0001
1000
0000
0001
0100
0001
0000
0100
0010
0100
0000
0000
0000
,  // measure 14
0001
1000
0100
0020
0000
0031
0000
0100
,  // measure 15
0010
1000
0010
0000
1000
0000
0001
0100
0001
0000
1000
0001
1000
0000
0000
0000
,  // measure 16
0001
0100
0010
1000
0000
1100
0000
1000
,  // measure 17
0010
0000
0010
0000
0100
0000
0001
0010
0001
0000
1000
0001
1000
0000
0100
0000
,  // measure 18
1000
0010
0100
0001
0000
0011
0000
1000
,  // measure 19
0000
0010
0100
0000
0010
0000
1000
0100
1000
0000
0001
0100
0001
0000
0000
0000
,  // measure 20
1000
0010
1000
0100
0100
0100
0000
0010
,  // measure 21
0001
0000
1000
0001
1000
0000
0001
0100
0001
0000
1000
0010
1000
0000
0000
0000
,  // measure 22
0100
1000
0010
0200
0000
0301
0000
0010
,  // measure 23
0001
1100
0101
1001
,  // measure 24
1000
0100
0010
0100
0001
0100
0010
0100
,  // measure 25
1000
0010
0100
0001
1000
0100
0010
0001
,  // measure 26
1000
0010
0100
0010
0001
0010
0100
0010
,  // measure 27
1000
0001
0010
0100
1000
0001
0100
0010
,  // measure 28
1000
0100
0001
0100
1000
0010
0001
0010
,  // measure 29
0100
1000
0100
0001
0010
0001
1000
0100
,  // measure 30
1000
0010
0001
0010
1000
0100
0001
0100
,  // measure 31
0010
1000
0010
0001
0100
0001
1000
0000
,  // measure 32
0001
0000
0100
0000
0001
0000
1000
0100
1000
0000
0010
0000
1000
0000
0000
0000
,  // measure 33
0001
0000
0010
0000
0001
0000
1000
0010
1000
0000
0100
0000
1000
0000
0000
0000
,  // measure 34
0001
0000
0100
0000
0001
0000
1000
0100
1000
0000
0010
0000
1000
0000
0000
0000
,  // measure 35
0001
0000
1000
0010
1000
0000
0001
0100
0001
0000
1000
0010
1000
0000
0000
0000
,  // measure 36
0001
0100
1000
0100
0010
1000
0100
0001
,  // measure 37
0100
0010
0001
1000
0010
0100
1000
0100
,  // measure 38
0001
1000
0001
1000
0001
1000
0001
1000
0001
1000
0001
1000
0001
1000
0001
1000
,  // measure 39
0001
0000
0000
1000
0000
0000
0010
0000
0000
0000
0100
0000
0010
0000
0000
0000
0000
0000
1001
0000
0000
0000
0000
0000
,  // measure 40
1100
0000
0001
0001
0010
0100
0010
0001
,  // measure 41
1000
1000
0010
0100
0001
0010
0100
0000
,  // measure 42
0011
0000
1000
1000
0010
0100
0001
0010
,  // measure 43
0100
0100
0010
0001
1000
0001
1000
0000
,  // measure 44
1010
0000
0100
0100
0001
0010
0001
1000
,  // measure 45
0010
1000
0001
0100
0010
1000
0001
0000
,  // measure 46
0011
0000
0000
0000
0010
0000
0010
0000
0100
0000
1000
0000
0001
1000
0001
1000
,  // measure 47
0001
0100
0001
1000
0100
0000
1001
0000
,  // measure 48
1100
0000
0100
0100
0010
0001
1000
1000
,  // measure 49
0001
0100
0010
0010
1000
0001
0010
0000
,  // measure 50
0101
0000
0001
0001
1000
0010
1000
1000
,  // measure 51
0100
0010
0100
0100
1000
0001
0010
0000
,  // measure 52
0101
0000
1000
1000
0100
0010
0001
0001
,  // measure 53
0100
0010
1000
1000
0001
0010
0001
0000
,  // measure 54
1001
0000
0000
0000
1000
0000
1000
0000
0010
0000
0100
0000
0001
1000
0001
1000
,  // measure 55
0001
0010
0100
1000
0100
0010
0001
0000
,  // measure 56
1000
0010
0100
0010
,  // measure 57
1000
0010
0001
0010
,  // measure 58
1000
0100
0010
0100
,  // measure 59
1000
0100
0001
1001
,  // measure 60
1000
0010
0100
0010
1000
0010
0001
0010
,  // measure 61
1000
0100
0010
0100
1000
0100
0001
0100
,  // measure 62
1000
0001
1000
0001
1000
0001
1000
0001
1000
0001
1000
0001
1000
0001
1000
0001
,  // measure 63
1000
0000
0001
1000
0001
0000
1000
0001
1000
0000
0001
0000
0101
0000
0000
0000
,  // measure 64
1000
0000
0010
0000
0100
0001
0000
0100
0001
0000
0010
0000
0100
0000
1000
0000
,  // measure 65
0001
0000
0010
0000
0100
1000
0000
0100
1000
0000
0001
0000
0100
0000
0010
0000
,  // measure 66
1000
0000
0100
0000
1000
0001
0000
0100
0001
0000
0010
0000
0001
0000
1000
0000
,  // measure 67
0001
0000
1000
0000
0010
0100
0010
0100
0010
0000
1000
0010
1000
0010
1000
0000
,  // measure 68
0001
0000
0100
0000
0010
1000
0000
0010
1000
0000
0100
0000
0010
0000
0001
0000
,  // measure 69
1000
0000
0100
0000
0010
0001
0000
0010
0001
0000
1000
0000
0010
0000
0100
0000
,  // measure 70
0001
0000
0010
0000
0001
1000
0000
0010
1000
0000
0100
0000
1000
0000
0001
0000
,  // measure 71
1000
0000
0001
0000
0100
0010
0100
0010
0100
0000
0001
0100
0001
0100
0001
0000
,  // measure 72
1000
0000
0010
0000
1000
0100
0000
1000
0001
0000
0010
0000
0100
0000
1000
0000
,  // measure 73
0001
0000
0010
0000
0001
0100
0000
0001
1000
0000
0010
0000
0100
0000
0001
0000
,  // measure 74
1000
0000
0100
0000
0010
0001
0000
1000
0001
0000
0100
0000
0010
0000
1000
0000
,  // measure 75
0001
0000
0100
0000
0001
0010
0001
0010
0001
0000
1000
0100
1000
0100
1000
0000
,  // measure 76
0001
0000
0100
0000
0001
0010
0000
0001
1000
0000
0100
0000
0010
0000
0001
0000
,  // measure 77
1000
0000
0100
0000
1000
0010
0000
1000
0001
0000
0100
0000
0010
0000
1000
0000
,  // measure 78
0001
0000
0010
0000
0100
1000
0000
0001
1000
0000
0010
0000
0100
0000
0001
0000
,  // measure 79
1000
0000
0010
0000
1000
0100
1000
0100
1000
0000
0001
0010
0001
0010
0001
0000
,  // measure 80
1000
0000
0010
0000
1000
0000
0001
0010
0001
0000
0100
0000
0001
0000
0000
0000
,  // measure 81
1000
0000
0100
0000
1000
0000
0001
0100
0001
0000
0010
0000
0001
0000
0000
0000
,  // measure 82
1000
0000
0010
0000
1000
0000
0001
0010
0001
0000
0100
0000
0001
0000
0000
0000
,  // measure 83
1000
0000
0001
0100
0001
0000
1000
0010
1000
0000
0001
0100
0001
0000
0000
0000
,  // measure 84
1000
0100
0001
0100
0010
0001
0100
1000
,  // measure 85
0100
0010
1000
0001
0010
0100
0001
0100
,  // measure 86
1000
0001
1000
0001
1000
0001
1000
0001
1000
0001
1000
0001
1000
0001
1000
0001
,  // measure 87
1000
0100
0010
0001
0010
0100
1000
0000
;

//---------------dance-single - ----------------
#NOTEDATA:;
#CHARTNAME:;
#STEPSTYPE:dance-single;
#DESCRIPTION:;
#CHARTSTYLE:;
#DIFFICULTY:Medium;
#METER:11;
#RADARVALUES:0.527355,0.551367,0.102105,0.023563,0.003927,470.000000,457.000000,13.000000,3.000000,0.000000,0.000000,0.000000,0.000000,0.000000,0.527355,0.551367,0.102105,0.023563,0.003927,470.000000,457.000000,13.000000,3.000000,0.000000,0.000000,0.000000,0.000000,0.000000;
#CREDIT:;
#NOTES:
0000
0000
0000
0000
,
0000
0000
0000
0000
,
0000
0000
0000
0000
,
0000
0000
0000
0000
,
0000
0000
0000
0000
,
0000
0000
0000
0000
,
0000
0000
0000
0000
,
1000
0000
1000
0000
0001
0000
0000
0100
0000
0000
0001
0000
1000
0000
0000
0000
,
0001
0000
0001
1000
0000
1000
0000
0010
,
0100
0010
0100
0000
0001
0010
0001
0000
,
1000
0000
1000
0001
0000
0001
0000
0010
,
0000
0100
0010
0000
0001
1000
0010
0000
,
1000
0100
1000
0001
0100
0100
0000
0001
,
1000
0001
1000
0000
0100
0010
0100
0000
,
0010
0000
0010
0200
0000
0310
0000
0001
,
0000
0100
0010
0000
1000
0000
1001
0000
,
0001
0000
0001
0100
0000
0100
0000
0010
,
1000
0010
1000
0000
0100
0010
0100
0000
,
1000
0000
1000
0010
0000
0010
0000
0100
,
0000
0001
1000
0000
0001
0010
0001
0000
,
1000
0010
1000
0001
0010
0010
0000
0100
,
1000
0001
1000
0000
0010
0100
0010
0000
,
1000
0000
1000
0200
0000
0310
0000
0001
,
1000
1010
0001
0011
,
1000
0010
1000
0000
0001
0010
0001
0000
,
1000
0100
0010
0100
1000
0010
0100
0000
,
0001
0010
0001
0000
1000
0010
1000
0000
,
0001
0100
0010
0100
0001
0010
0100
0000
,
1000
0010
0001
0000
0001
0010
1000
0000
,
1000
0100
0010
0001
0100
0010
1000
0000
,
0001
0010
1000
0000
1000
0010
0001
0000
,
0001
0100
0010
1000
0100
0010
0001
0000
,
1000
0100
0010
0000
0010
0100
1000
0000
,
0001
0100
0010
0000
0010
0100
0001
0000
,
1000
0010
0100
0000
0100
0010
1000
0000
,
0001
0010
0100
0010
0001
1000
0001
0000
,
1000
1000
0010
0000
0100
0001
0100
0000
,
0001
0001
0010
0000
0100
1000
0010
0000
,
1000
1000
0010
0100
0001
0001
0010
0100
,
1000
0000
0000
0001
,
1001
0000
1000
0000
0000
0010
0100
0000
,
0001
0000
0010
0000
0000
0001
1000
0000
,
0100
0000
0010
0000
0000
0100
1000
0000
,
0010
0000
0100
0000
0000
0001
0010
0000
,
0001
0000
1000
0000
0000
0001
0100
0000
,
0001
0000
1000
0000
0000
0100
0010
0000
,
0100
0000
1000
0000
0000
0010
0100
0001
,
1000
0100
0010
0100
1000
0000
1001
0000
,
0001
0000
0110
0000
1000
0100
0010
0000
,
0100
0000
1001
0000
1000
0010
0100
0000
,
0001
0000
0011
0000
0010
0100
1000
0000
,
0010
0000
0110
0000
0100
0001
0010
0000
,
0001
0000
1001
0000
1000
0001
0100
0000
,
0010
0000
0110
0000
0100
0001
1000
0000
,
0010
0000
1010
0000
1000
0100
1000
0001
,
0100
0100
0010
1000
0100
0010
0001
0000
,
1000
0010
0100
0010
,
1000
0100
0001
0100
,
1000
0010
0001
0010
,
1000
0100
0010
0100
,
1000
1000
0010
0000
0100
0001
0100
0000
,
0001
0001
0010
0000
0100
1000
0100
0000
,
1000
1000
0010
0100
0001
0001
0010
0100
,
1000
0001
1000
0001
0100
0000
0110
0000
,
0001
0000
0010
0000
0100
1000
0010
1000
,
0001
0000
0100
0000
0010
1000
0100
0010
,
0100
0000
1000
0000
0010
0100
0001
0010
,
0001
1000
0001
0000
1000
0010
1000
0000
,
0100
0010
0100
0000
1000
0010
1000
0001
,
0010
0001
0100
0000
0010
1000
0100
1000
,
0001
0010
0001
0000
0100
0010
1000
0001
,
1000
0100
1000
0000
0010
0100
0010
0000
,
1000
1000
0100
0010
0000
0001
0000
0100
,
0010
0100
0010
0000
1000
0001
0100
0000
,
0001
0001
0010
0100
0000
1000
0000
0010
,
0100
0010
0100
0000
0001
1000
0100
0000
,
1000
0001
1000
0000
0001
0010
0001
0000
,
1000
0010
1000
0000
0001
1000
0001
0000
,
1000
0100
0001
0000
0001
0100
1000
0000
,
1000
0010
0100
0001
0010
0001
1000
0000
,
0001
0001
0100
0000
0010
1000
0010
0000
,
1000
1000
0100
0000
0010
0001
0010
0000
,
0001
0001
0100
0000
0010
1000
0010
0000
,
1000
0100
1000
0001
1000
0010
0100
0000
,
0001
0010
1000
0000
1000
0010
0001
0000
,
0001
0100
1000
0000
1000
0100
0001
0000
,
1000
0010
1000
0010
0100
0001
0100
0001
,
0020
0000
0000
0030
;

//---------------dance-single - ----------------
#NOTEDATA:;
#CHARTNAME:;
#STEPSTYPE:dance-single;
#DESCRIPTION:;
#CHARTSTYLE:;
#DIFFICULTY:Easy;
#METER:7;
#RADARVALUES:0.319779,0.341659,0.062834,0.000000,0.000000,285.000000,277.000000,8.000000,0.000000,0.000000,0.000000,0.000000,0.000000,0.000000,0.319779,0.341659,0.062834,0.000000,0.000000,285.000000,277.000000,8.000000,0.000000,0.000000,0.000000,0.000000,0.000000,0.000000;
#CREDIT:;
#NOTES:
0000
0000
0000
0000
,
0000
0000
0000
0000
,
0000
0000
0000
0000
,
0000
0000
0000
0000
,
0000
0000
0000
0000
,
0000
0000
0000
0000
,
0000
0000
0000
0000
,
1000
1000
0001
0001
,
1000
0010
0100
0001
,
1000
0100
0010
0001
,
1000
0001
0100
0010
,
1000
0001
0010
0100
,
1000
0010
0100
0010
,
1000
0100
0010
0100
,
1000
0001
0100
0010
,
0100
0001
1000
1001
,
0001
0010
0100
1000
,
0001
0100
0010
1000
,
0001
1000
0100
0010
,
0001
1000
0010
0100
,
0001
0010
0100
0010
,
0001
0100
0010
0100
,
0001
1000
0100
0010
,
0100
1000
0001
1001
,
1000
1000
0010
0010
,
0100
0001
0010
0100
,
1000
1000
0001
0001
,
0010
0100
0010
0001
,
0100
0100
0010
0010
,
1000
0001
0010
0100
,
1000
1000
0001
0001
,
0100
0001
0010
0100
,
1000
0000
0001
0000
,
1000
0000
0100
0000
,
0010
0000
0001
0000
,
0100
0000
0010
0000
,
1000
1000
0001
0001
,
1000
1000
0001
0001
,
1000
0100
0010
0001
,
0100
0000
0000
1001
,
0001
0100
0000
0010
,
1000
0100
0000
1000
,
0001
0010
0000
0001
,
1000
0100
0000
1000
,
0010
0100
0000
0001
,
0010
0100
0000
1000
,
0001
0100
0000
0001
,
1000
0000
0000
1001
,
0001
0010
0000
0100
,
1000
0010
0000
0100
,
0001
0010
0000
0001
,
1000
0001
0000
1000
,
0010
0100
0000
0001
,
0010
0100
0000
1000
,
0100
0010
0000
0100
,
1000
0000
0000
1001
,
0001
0000
0100
0000
,
0010
0000
1000
0000
,
0100
0000
0010
0000
,
0001
0001
1000
1001
,
0001
0001
0100
0100
,
0010
0010
1000
1000
,
0001
0100
0010
1000
,
0100
0000
0000
1001
,
1000
0100
0010
0100
,
1000
0010
0100
0001
,
0010
0100
0010
0001
,
1000
0010
0100
0001
,
0010
0100
1000
0010
,
0100
0001
1000
0100
,
0010
0100
1000
0010
,
0100
0001
1000
0100
,
1000
0010
0100
0001
,
0010
0001
1000
0010
,
1000
0001
0010
0001
,
1000
0001
1000
0001
,
0010
0001
0100
0010
,
1000
0100
1000
0010
,
1000
0001
0100
0001
,
1000
0100
1000
1001
,
0001
0000
0100
0000
,
0010
0000
1000
0000
,
0100
0000
0010
0000
,
0001
0000
1000
0000
,
0001
0001
1000
1000
,
0001
0001
1000
1000
,
0100
0010
0001
0100
,
0010
0000
0000
0000
;

//---------------dance-single - ----------------
#NOTEDATA:;
#CHARTNAME:;
#STEPSTYPE:dance-single;
#DESCRIPTION:;
#CHARTSTYLE:;
#DIFFICULTY:Beginner;
#METER:4;
#RADARVALUES:0.171671,0.204995,0.000000,0.000000,0.000000,153.000000,153.000000,0.000000,0.000000,0.000000,0.000000,0.000000,0.000000,0.000000,0.171671,0.204995,0.000000,0.000000,0.000000,153.000000,153.000000,0.000000,0.000000,0.000000,0.000000,0.000000,0.000000,0.000000;
#CREDIT:;
#NOTES:
0000
0000
0000
0000
,
0000
0000
0000
0000
,
0000
0000
0000
0000
,
0000
0000
0000
0000
,
0000
0000
0000
0000
,
0000
0000
0000
0000
,
0000
0000
0000
0000
,
0001
0000
1000
0001
,
1000
0000
0001
0000
,
1000
0000
0001
0000
,
0100
0000
0010
0000
,
0100
0000
0010
0000
,
1000
0000
0001
0000
,
1000
0000
0001
0000
,
0010
0000
0100
0000
,
0010
0000
0100
0000
,
1000
0000
0010
0000
,
1000
0000
0010
0000
,
0100
0000
0001
0000
,
0100
0000
0001
0000
,
1000
0000
0100
0000
,
1000
0000
0100
0000
,
0010
0000
0001
0000
,
0010
0000
0001
1000
,
0001
0000
0100
0000
,
0010
0000
1000
0000
,
0001
0000
0010
0000
,
0100
0000
1000
0000
,
0001
0000
1000
0000
,
0010
0000
0100
0000
,
0001
0000
1000
0000
,
0100
0000
0010
0000
,
0001
0000
0000
0000
,
1000
0000
0000
0000
,
0001
0000
0000
0000
,
1000
0000
0000
0000
,
0001
0000
0001
0000
,
1000
0000
1000
0000
,
0010
0000
0010
0000
,
0100
0000
0000
0001
,
1000
0100
0000
1000
,
0000
0010
0000
1000
,
0000
0001
0000
0010
,
0000
0001
0000
0100
,
0000
0010
0000
1000
,
0000
0010
0000
1000
,
0000
0001
0000
0010
,
0001
0000
0000
1000
,
0010
1000
0000
0100
,
0000
1000
0000
0010
,
0000
0100
0000
0001
,
0000
0010
0000
0100
,
0000
1000
0000
0001
,
0000
1000
0000
0010
,
0000
0100
0000
0001
,
1000
0000
0000
0001
,
1000
0000
0000
0000
,
0001
0000
0000
0000
,
1000
0000
0000
0000
,
0001
0000
0000
0000
,
1000
0000
1000
0000
,
0010
0000
0010
0000
,
0100
0000
0100
0000
,
0001
0000
0001
0000
,
1000
0000
0001
0000
,
1000
0000
0001
0000
,
0010
0000
0100
0000
,
0010
0000
0100
0000
,
1000
0000
0001
0000
,
1000
0000
0001
0000
,
0100
0000
0010
0000
,
0100
0000
0010
0000
,
1000
0000
0100
0000
,
0010
0000
0001
0000
,
1000
0000
0010
0000
,
0100
0000
0001
0000
,
1000
0000
0001
0000
,
0010
0000
0100
0000
,
1000
0000
0001
0000
,
0100
0000
0010
0000
,
1000
0000
0000
0000
,
0001
0000
0000
0000
,
1000
0000
0000
0000
,
0001
0000
0000
0000
,
1000
0000
1000
0000
,
0100
0000
0100
0000
,
0010
0000
0010
0000
,
0001
0000
0000
0000
;
