#TITLE:Lapis Philosophorum;
#SUBTITLE:;
#ARTIST:Akhuta;
#TITLETRANSLIT:;
#SUBTITLETRANSLIT:;
#ARTISTTRANSLIT:;
#GENRE:PROGRESSIVE METAL;
#CREDIT:;
#BANNER:Lapis Philosophorum.png;
#BACKGROUND:Lapis Philosophorum-bg.png;
#LYRICSPATH:;
#CDTITLE:cdtitle.png;
#MUSIC:Lapis Philosophorum.ogg;
#OFFSET:-0.540000;
#SAMPLESTART:28.811426;
#SAMPLELENGTH:13.781427;
#SELECTABLE:YES;
#BPMS:0.000000=140.000000
;
#STOPS:
;
#BGCHANGES:;
#KEYSOUNDS:;
#ATTACKS:;

//---------------dance-single - ----------------
#NOTES:
     dance-single:
     :
     Challenge:
     15:
     0.783358,0.814104,0.140363,0.056145,1.104187,586.000000,571.000000,15.000000,6.000000,0.000000,0.000000,0.783358,0.814104,0.140363,0.056145,1.104187,586.000000,571.000000,15.000000,6.000000,0.000000,0.000000:
0000
0000
0000
0000
,
0000
0000
0000
0000
,
0000
0000
0000
0000
,
0000
0000
0000
0000
,
1000
0000
0001
0100
0001
0100
0000
0001
0010
0000
0001
0000
1000
0010
0100
0001
,
1000
0000
0001
0010
0001
0010
0000
0001
0100
0000
0001
0000
1000
0100
0010
0001
,
0100
0000
0010
1000
0010
1000
0000
0100
0010
0000
0001
0000
1000
0010
1000
0001
,
0010
0000
0000
0001
0000
0000
0100
0000
0000
0020
0000
0000
1030
0001
1000
0001
,
1000
0000
0000
1100
0000
0000
0001
0000
0010
0000
1000
0000
0010
0000
0001
0000
,
0100
0000
0000
0110
0000
0000
0010
0000
1000
0000
0100
0000
0001
0000
0100
0000
,
1000
0000
0000
1010
0000
0000
0001
0000
0100
0000
1000
0000
0100
0000
0001
0000
,
0010
0000
0000
0110
0000
0000
0100
0000
1000
0000
0010
0000
0001
0000
0010
0000
,
1000
0000
0000
1001
0000
0000
0001
0000
0100
0000
1000
0000
0100
0000
0010
0000
,
0100
0000
0000
0101
0000
0000
0001
0000
0010
0000
1000
0000
0010
0000
0001
0000
,
1000
0000
0000
1001
0000
0000
0001
0000
0010
0000
1000
0000
0010
0000
0100
0000
,
0010
0000
0000
0011
0000
0000
0001
0000
0100
0000
1000
0000
0200
0000
0000
0000
,
0000
0000
0310
0000
1000
0100
0010
0001
,
0100
0000
0010
1000
0000
1000
0001
0000
1000
0000
0001
0100
0001
0000
1000
0010
,
1000
0000
0001
0010
0000
0010
0100
0000
1000
0000
0010
0100
0000
0100
0001
0000
,
0001
0010
0000
0010
0000
0100
1000
0100
1000
0010
1000
0010
0100
0001
0100
0001
,
0010
0100
0010
0100
1000
0001
1000
0000
0001
0000
0100
0000
0010
0000
1000
0000
,
0100
0000
0010
0001
0000
0001
1000
0000
0001
0000
1000
0100
1000
0000
0001
0010
,
0001
0000
1000
0010
0000
0010
0100
0000
0001
0000
0010
0100
0000
0100
1000
0000
,
1000
0010
0000
0010
0000
0100
0001
0100
0001
0010
0001
0010
0100
1000
0100
1000
,
0010
0100
0010
0100
0001
1000
0001
1000
0100
0000
0000
1000
0010
0000
0100
0000
,
0001
0010
0001
0000
0100
0000
0010
0000
1000
0000
0000
0001
0010
0000
0100
0000
,
1000
0010
1000
0000
0100
0010
0100
0010
0001
0000
0000
1000
0001
0000
0010
0000
,
0001
0100
0001
0000
1000
0000
0100
0000
0010
0000
0000
0001
1000
0000
0010
0000
,
1000
0100
1000
0000
0001
0100
0001
0100
0010
0000
0010
1000
0000
0000
1000
0100
,
0010
0000
0000
0001
0000
0000
0000
0000
0000
0000
0000
0000
0001
0000
0000
0000
0010
0000
0000
0000
0001
0000
0000
0000
1000
0000
0000
0000
0010
0000
0000
0000
1000
0000
0000
0000
0001
0000
0000
0000
0000
0000
0000
0000
0000
0000
0000
0000
,
1000
0000
0001
0010
0001
0000
1000
0010
1000
0000
0100
0000
0010
0001
0010
0001
,
0100
0000
0010
1000
0010
0000
0100
0010
0100
0000
0001
0000
0010
0100
0010
0100
,
1000
0000
0000
1010
0000
0000
0001
0000
0000
0011
0000
0000
1001
0000
0000
0000
,
1000
0000
0000
1100
0000
0000
0001
0000
0000
0101
0000
0000
1001
0000
0000
0000
,
1000
0000
0010
0100
0010
0000
1000
0001
1000
0000
0001
0000
0010
0100
0010
0100
,
1000
0000
0100
0010
0100
0000
1000
0001
1000
0000
0001
0000
0100
0010
0100
0010
,
1000
0000
0001
0010
0001
0000
1000
0010
1000
0000
0100
0000
0010
0001
0010
0001
,
0100
0000
0010
1000
0010
0000
1000
0001
1000
0000
0001
0000
1000
0010
1000
0001
,
0100
0010
0100
0010
0100
0010
1000
0100
0010
0001
0100
0010
,
1000
0100
1000
0100
1000
0100
1000
0100
0010
0001
0010
0001
0010
0001
0010
0001
,
1000
0000
0001
0100
0000
0001
0010
0001
0000
1000
0000
0100
0010
0100
0010
0100
,
1000
0000
0001
0100
0000
0001
0000
0010
0000
0001
1000
0100
0010
0100
0010
0001
,
0100
0000
0001
0010
0000
0001
0100
0001
0000
1000
0000
0010
0100
0010
0100
0010
,
1000
0000
0001
0010
0000
0001
0000
0100
0000
0001
1000
0010
0100
0010
0100
0001
,
0010
0000
0001
1000
0000
0100
0010
0100
0000
1000
0000
0010
0100
0010
0100
0001
,
1000
0000
0001
0010
0000
0100
0000
0010
0000
0001
1000
0010
1000
0010
0100
0001
,
0010
0100
0010
0100
1000
0010
1000
0010
0100
0001
0100
0001
0020
0000
0000
0000
,
0031
0000
1000
0010
1000
0100
1000
0100
0010
0001
0100
0010
2000
0000
0000
0000
,
3001
0000
1000
0100
0000
1000
0010
1000
0000
0001
0000
0100
0010
0100
0010
0100
,
0001
0000
1000
0100
0000
1000
0000
0010
0000
1000
0001
0100
0010
0100
0010
1000
,
0100
0000
1000
0010
0000
1000
0100
1000
0000
0001
0000
0010
0100
0010
0100
0010
,
0001
0000
1000
0010
0000
1000
0000
0100
0000
1000
0001
0010
0100
0010
0100
1000
,
0010
0000
1000
0001
0000
0100
0010
0100
0000
0001
0000
0010
0100
0010
0100
1000
,
0001
0000
1000
0010
0000
0100
0000
0010
0000
1000
0001
0010
0001
0010
0100
1000
,
0020
0000
0000
1000
,
0200
0000
0330
1001
,
1000
0000
0000
0001
1000
0000
0010
0000
0100
0001
0100
0000
0001
0000
0010
0000
,
0001
0000
0000
1000
0001
0000
0010
0000
0100
1000
0100
0000
1000
0010
1000
0010
,
0100
0000
0000
0001
0010
0000
0001
0000
1000
0010
1000
0000
0001
0000
0100
0000
,
0010
0000
0000
1000
0100
0000
1000
0000
0001
0100
0001
0000
1000
0010
1000
0010
,
0100
0000
0000
0000
;

//---------------dance-single - ----------------
#NOTES:
     dance-single:
     :
     Hard:
     12:
     0.589523,0.561451,0.084218,0.056145,0.552093,441.000000,432.000000,9.000000,6.000000,0.000000,0.000000,0.589523,0.561451,0.084218,0.056145,0.552093,441.000000,432.000000,9.000000,6.000000,0.000000,0.000000:
0000
0000
0000
0000
,
0000
0000
0000
0000
,
0000
0000
0000
0000
,
0000
0000
0000
0000
,
1000
0000
0001
0000
0000
0100
0000
0000
0010
0000
1000
0000
0001
0000
0010
0000
,
0001
0000
1000
0000
0000
0100
0000
0000
0010
0000
0001
0000
1000
0000
0010
0000
,
1000
0000
0100
0000
0000
1000
0000
0000
0010
0000
0100
0000
0001
0000
0010
0000
,
0001
0000
0000
0001
0000
0000
1000
0000
0000
0020
0000
0000
1030
0001
1000
0001
,
1000
0000
0000
0001
0000
0000
1000
0000
0100
0000
0001
0000
0100
0000
1000
0000
,
0001
0000
0000
1000
0000
0000
0001
0000
0100
0000
1000
0000
0100
0000
0001
0000
,
1000
0000
0000
0001
0000
0000
1000
0000
0010
0000
0001
0000
0010
0000
1000
0000
,
0001
0000
0000
1000
0000
0000
0001
0000
0010
0000
1000
0000
0010
0000
0001
0000
,
1000
0000
0000
0100
0000
0000
1000
0000
0010
0000
0100
0000
0001
0000
0010
0000
,
0001
0000
0000
0100
0000
0000
0001
0000
0010
0000
0100
0000
1000
0000
0010
0000
,
1000
0000
0000
0001
0000
0000
1000
0000
0100
0000
0001
0000
0100
0000
0010
0000
,
0001
0000
0000
1000
0000
0000
0001
0000
0100
0000
0010
0000
2000
0000
0000
0000
,
0000
0000
3001
0000
1000
0010
0001
0010
,
1000
0000
0100
0010
0000
0010
0001
0000
0100
0000
0010
0000
0010
0000
1000
0000
,
1000
0000
0001
0010
0000
0010
0100
0000
1000
0000
0010
1000
0000
0100
1000
0000
,
0001
0100
0000
0010
0000
1000
0100
0000
1000
0000
0010
0000
0100
0000
1000
0000
,
0100
0001
0010
0100
1000
0100
0001
0100
,
1000
0000
0010
0100
0000
0100
0001
0000
0010
0000
0100
0000
0100
0000
1000
0000
,
1000
0000
0001
0100
0000
0100
0010
0000
1000
0000
0100
1000
0000
0010
1000
0000
,
0001
0010
0000
0100
0000
1000
0010
0000
1000
0000
0100
0000
0010
0000
1000
0000
,
0010
0000
0001
0000
0100
0000
0010
0000
1000
0000
0000
1000
0001
0000
0010
0000
,
0100
0000
0100
0000
1000
0000
1000
0000
0001
0000
0000
0001
1000
0000
0010
0000
,
0100
0000
0100
0000
0001
1000
0001
0000
1000
0000
0000
1000
0010
0000
0100
0000
,
0001
0000
0001
0000
0010
0000
0010
0000
0001
0000
0000
0001
0100
0000
0010
0000
,
1000
0000
1000
0000
0100
0010
0100
0000
1000
0000
0000
1001
0000
0000
0001
0000
,
0000
0000
0000
1001
0000
0000
0000
0000
0000
0000
0000
0000
1000
0000
0000
0000
0100
0000
0000
0000
1000
0000
0000
0000
0001
0000
0000
0000
0010
0000
0000
0000
0001
0000
0000
0000
1000
0000
0000
0000
0000
0000
0000
0000
0000
0000
0000
0000
,
0001
0100
1000
0100
0001
0010
0100
1000
,
0001
0100
0010
1000
0001
0010
1000
0010
,
0001
0000
0000
1001
0000
0000
1000
0000
0000
1001
0000
0000
0110
0000
0000
0000
,
1000
0000
0000
1001
0000
0000
0001
0000
0000
1001
0000
0000
0110
0000
0000
0000
,
1000
0100
0001
0100
1000
0010
0100
0001
,
1000
0100
0010
0001
1000
0010
0001
0010
,
1000
0100
0010
1000
0010
0001
0100
0010
,
1000
0010
0100
1000
0100
0001
0010
0100
,
1000
0001
1000
0001
1000
0001
0100
0010
0100
0010
0100
0010
,
0000
0000
0000
0000
,
1000
0000
0001
0100
0000
0010
0000
1000
0000
0100
0000
1000
0010
0000
1000
0000
,
0001
0000
1000
0100
0000
0010
0000
0001
0000
0100
0001
0000
0010
0000
0100
0000
,
1000
0000
0010
0100
0000
0010
0000
1000
0000
0100
0000
1000
0010
0000
0100
0000
,
0001
0000
0010
0100
0000
0010
0000
0001
0000
1000
0100
0000
1000
0000
0010
0000
,
1000
0000
0001
0010
0000
0100
0000
1000
0000
0010
0000
1000
0100
0000
1000
0000
,
0001
0000
1000
0010
0000
0100
0000
0001
0000
0010
0001
0000
0100
0000
0010
0000
,
1000
0100
0001
0100
1000
0010
0200
0000
,
0300
0001
0010
0100
0001
0100
2000
0000
,
3001
0000
1000
0100
0000
0010
0000
0001
0000
0100
0000
0001
0010
0000
0001
0000
,
1000
0000
0001
0100
0000
0010
0000
1000
0000
0100
1000
0000
0010
0000
0100
0000
,
0001
0000
0010
0100
0000
0010
0000
0001
0000
0100
0000
0001
0010
0000
0100
0000
,
1000
0000
0010
0100
0000
0010
0000
1000
0000
0001
0100
0000
0001
0000
0010
0000
,
0001
0000
1000
0010
0000
0100
0000
0001
0000
0010
0000
0001
0100
0000
0001
0000
,
1000
0000
0001
0010
0000
0100
0000
1000
0000
0010
1000
0000
0100
0000
0010
0000
,
0002
0000
0000
0000
,
2000
0000
3003
0110
,
1000
0000
0000
1000
0001
0000
0100
0000
0010
0000
0010
0000
1000
0000
1000
0000
,
0001
0000
0000
0001
1000
0000
0100
0000
0010
0000
0010
0000
0001
1000
0001
0000
,
1000
0000
0000
1000
0100
0000
0010
0000
0001
0000
0001
0000
0100
0000
0100
0000
,
0001
0000
0000
0001
0100
0000
0010
0000
1000
0000
1000
0000
0100
0010
0100
0010
,
0100
0000
0000
0000
;

//---------------dance-single - ----------------
#NOTES:
     dance-single:
     :
     Medium:
     9:
     0.422425,0.421088,0.084218,0.093575,0.116969,316.000000,307.000000,9.000000,10.000000,0.000000,0.000000,0.422425,0.421088,0.084218,0.093575,0.116969,316.000000,307.000000,9.000000,10.000000,0.000000,0.000000:
// measure 0
0000
0000
0000
0000
,  // measure 1
0000
0000
0000
0000
,  // measure 2
0000
0000
0000
0000
,  // measure 3
0000
0000
0000
0000
,  // measure 4
1000
0000
1000
0000
0000
0001
0000
0000
1000
0000
0001
0000
0000
0000
1000
0000
,  // measure 5
0001
0000
0001
0000
0000
1000
0000
0000
0001
0000
1000
0000
0000
0000
0001
0000
,  // measure 6
0100
0000
0100
0000
0000
0010
0000
0000
0100
0000
0010
0000
0000
0000
0100
0000
,  // measure 7
0001
0000
0000
0010
0000
0000
0100
0000
0000
1000
0000
0000
0002
0000
0000
0000
,  // measure 8
1003
0000
0000
0010
0000
0000
0000
0000
1000
0000
0100
0000
1000
0000
0000
0000
,  // measure 9
0001
0000
0000
0010
0000
0000
0000
0000
0001
0000
0100
0000
0001
0000
0000
0000
,  // measure 10
1000
0000
0000
0100
0000
0000
0000
0000
1000
0000
0010
0000
1000
0000
0000
0000
,  // measure 11
0001
0000
0000
0100
0000
0000
0000
0000
0001
0000
0010
0000
0001
0000
0000
0000
,  // measure 12
1000
0000
0000
0001
0000
0000
0000
0000
1000
0000
0010
0000
1000
0000
0000
0000
,  // measure 13
0001
0000
0000
1000
0000
0000
0000
0000
0001
0000
0010
0000
0001
0000
0000
0000
,  // measure 14
1000
0000
0000
0001
0000
0000
0000
0000
1000
0000
0100
0000
1000
0000
0000
0000
,  // measure 15
0001
0000
0000
1000
0000
0000
0000
0000
0001
0000
0100
0000
0002
0000
0000
0000
,  // measure 16
0000
1003
0001
1001
,  // measure 17
0001
0000
0000
0010
0000
0000
0100
0000
1000
0000
0000
0000
0110
0000
0000
0000
,  // measure 18
1000
0000
0000
0010
0000
0000
0100
0000
0001
0000
0000
0000
1001
0000
0000
0000
,  // measure 19
0010
0000
0000
0100
0000
0000
0001
0000
0010
0000
0100
0000
0010
0000
0000
0000
,  // measure 20
0001
1000
0001
0000
1000
0000
1001
0000
,  // measure 21
1000
0000
0000
0010
0000
0000
0100
0000
0001
0000
0000
0000
0110
0000
0000
0000
,  // measure 22
0001
0000
0000
0010
0000
0000
0100
0000
1000
0000
0000
0000
1001
0000
0000
0000
,  // measure 23
0010
0000
0000
0100
0000
0000
1000
0000
0010
0000
0100
0000
0010
0000
0000
0000
,  // measure 24
1000
0001
1000
0000
0001
0000
1000
0000
,  // measure 25
0100
0010
0001
0000
1000
0000
0001
0000
,  // measure 26
0100
0010
0100
0001
1000
0000
0010
0000
,  // measure 27
1000
0100
0010
0000
0100
0000
1000
0000
,  // measure 28
0010
0000
0100
0000
0010
0000
0100
0000
0001
0000
0000
0001
0000
0000
1000
0000
,  // measure 29
0000
1000
0000
0000
0002
0000
0000
0000
0023
0000
0000
0000
0130
0000
0000
0000
,  // measure 30
1000
0001
0100
0000
0001
0010
0001
0000
,  // measure 31
1000
0100
0010
0000
0100
1000
0100
0000
,  // measure 32
1000
0000
0000
1000
0000
0000
0001
0000
0000
0001
0000
0000
1001
0000
0000
0000
,  // measure 33
0100
0000
0000
0100
0000
0000
0010
0000
0000
0010
0000
0000
0110
0000
0000
0000
,  // measure 34
1000
0001
0010
0000
0001
0100
0001
0000
,  // measure 35
1000
0100
0010
0000
0001
1000
0001
0000
,  // measure 36
0100
0010
0100
0000
0010
1000
0100
0000
,  // measure 37
0010
0001
1000
0000
0001
0100
0001
0000
,  // measure 38
2000
3200
0320
0032
,  // measure 39
0003
0000
0000
0000
,  // measure 40
1000
0010
1000
0000
0001
0100
0001
0100
,  // measure 41
0010
1000
0010
0000
1000
0100
1000
0100
,  // measure 42
0010
0001
0010
0000
0001
0100
0001
0100
,  // measure 43
0010
1000
0010
0000
1000
0001
1000
0001
,  // measure 44
0010
0100
0010
0000
0001
1000
0001
1000
,  // measure 45
0010
0100
0010
0000
1000
0100
1000
0100
,  // measure 46
0010
0001
0010
0000
0001
1000
0001
0000
,  // measure 47
0000
1000
0001
1000
0001
0010
0100
0000
,  // measure 48
1000
0100
1000
0000
0001
0010
0001
0010
,  // measure 49
0100
1000
0100
0000
1000
0010
1000
0010
,  // measure 50
0100
0001
0100
0000
0001
0010
0001
0010
,  // measure 51
0100
1000
0100
0000
1000
0001
1000
0001
,  // measure 52
0100
0010
0100
0000
0001
1000
0001
1000
,  // measure 53
0100
0010
0100
0000
1000
0010
1000
0010
,  // measure 54
0200
0000
0000
0000
,  // measure 55
0020
0000
0330
1001
,  // measure 56
1000
0000
0001
0000
0100
0010
1000
0000
,  // measure 57
0001
0000
1000
0000
0100
0010
0100
1000
,  // measure 58
0001
0000
0010
0000
0001
0100
0010
0000
,  // measure 59
0100
0000
0001
0000
0010
0100
0010
0100
,  // measure 60
1000
0000
0000
0000
;

//---------------dance-single - ----------------
#NOTES:
     dance-single:
     :
     Easy:
     5:
     0.245969,0.280725,0.028073,0.065503,0.000000,184.000000,181.000000,3.000000,7.000000,0.000000,0.000000,0.245969,0.280725,0.028073,0.065503,0.000000,184.000000,181.000000,3.000000,7.000000,0.000000,0.000000:
0000
0000
0000
0000
,
0000
0000
0000
0000
,
0000
0000
0000
0000
,
0000
0000
0000
0000
,
1000
0000
0000
0001
,
0001
0000
0000
1000
,
1000
0000
0000
0010
,
0020
0000
0000
0130
,
0001
0000
1000
0010
,
1000
0000
0001
0010
,
0001
0000
1000
0100
,
1000
0000
0001
0100
,
0001
0000
1000
0001
,
1000
0000
0001
1000
,
0001
0000
0100
0010
,
0100
0000
0010
0200
,
0000
0301
1000
0100
,
0010
0100
1000
0010
,
0100
0010
1000
0100
,
0010
0001
0100
0010
,
1000
0001
1000
0010
,
0100
0010
1000
0100
,
0010
0100
1000
0010
,
0100
0001
0010
0100
,
1000
0001
0100
0000
,
0010
1000
0100
0000
,
1000
0001
0100
0000
,
0001
1000
0010
0000
,
1000
0001
0010
0000
,
0000
0200
2300
3001
,
1000
1000
0001
0100
,
0001
0001
1000
0100
,
1000
0000
0000
1001
,
0001
0000
0000
1001
,
1000
1000
0010
0100
,
0001
0001
0010
0100
,
1000
1000
0001
0010
,
0001
0001
1000
0010
,
0200
0000
0000
0000
,
0300
0000
0000
0000
,
0001
1000
0001
0010
,
0001
1000
0001
0100
,
0010
1000
0100
0010
,
0100
1000
0010
0100
,
0001
0010
0100
1000
,
0001
0100
0010
0100
,
0001
1000
0100
0010
,
0000
0001
0100
0010
,
1000
0100
1000
0010
,
0100
0001
0010
0100
,
1000
0010
0100
0001
,
0010
0001
1000
0001
,
0010
0100
1000
0010
,
0100
0001
0010
0001
,
2000
0000
0000
0000
,
0020
0000
3030
1001
,
1000
0000
0100
1000
,
0010
0000
1000
0001
,
0010
0000
0001
1000
,
0100
0000
1000
0001
,
0100
0000
0000
0000
;

//---------------dance-single - ----------------
#NOTES:
     dance-single:
     :
     Beginner:
     2:
     0.116301,0.140363,0.000000,0.018715,0.000000,87.000000,87.000000,0.000000,2.000000,0.000000,0.000000,0.116301,0.140363,0.000000,0.018715,0.000000,87.000000,87.000000,0.000000,2.000000,0.000000,0.000000:
0000
0000
0000
0000
,
0000
0000
0000
0000
,
0000
0000
0000
0000
,
0000
0000
0000
0000
,
1000
0000
0000
0000
,
0001
0000
0000
0000
,
1000
0000
0000
0000
,
0001
0000
0000
0000
,
1000
0000
1000
0000
,
0001
0000
0001
0000
,
0100
0000
0100
0000
,
0010
0000
0010
0000
,
1000
0000
1000
0000
,
0001
0000
0001
0000
,
0010
0000
0010
0000
,
0100
0000
0100
0000
,
0000
0000
1000
0000
,
0000
0000
0001
0000
,
0000
0000
0100
0000
,
0000
0000
0010
0000
,
0100
0000
0001
0000
,
0000
0000
1000
0000
,
0000
0000
0001
0000
,
0000
0000
0100
0000
,
0010
0000
1000
0000
,
0000
0000
0010
0000
,
0000
0000
1000
0000
,
0000
0000
0100
0000
,
0000
0000
1000
0000
,
0000
0001
0000
0001
,
1000
0000
1000
0000
,
0010
0000
0010
0000
,
0100
0000
0000
0000
,
0010
0000
0000
0000
,
1000
0000
1000
0000
,
0001
0000
0001
0000
,
0010
0000
0010
0000
,
0100
0000
0100
0000
,
2000
0000
0000
0000
,
3000
0000
0000
0000
,
0001
0000
0001
0000
,
0100
0000
0100
0000
,
0010
0000
0010
0000
,
1000
0000
1000
0000
,
0001
0000
0001
0000
,
0010
0000
0010
0000
,
0100
0000
0100
0000
,
1000
0000
1000
0000
,
0001
0000
0001
0000
,
1000
0000
1000
0000
,
0100
0000
0100
0000
,
0010
0000
0010
0000
,
0001
0000
0001
0000
,
1000
0000
1000
0000
,
0020
0000
0000
0000
,
0000
0000
0000
0130
,
0001
0000
0000
0000
,
1000
0000
0000
0000
,
0100
0000
0000
0000
,
0010
0000
0000
0000
,
0001
0000
0000
0000
;
