#TITLE:Into UR Heart;
#SUBTITLE:;
#ARTIST:Sota Fujimori;
#TITLETRANSLIT:;
#SUBTITLETRANSLIT:;
#ARTISTTRANSLIT:;
#GENRE:ELECTRO HOUSE POP;
#CREDIT:;
#BANNER:Into UR Heart.png;
#BACKGROUND:Into UR Heart-bg.png;
#LYRICSPATH:;
#CDTITLE:cdtitle.png;
#MUSIC:[ROUND F] - Into UR Heart.ogg;
#OFFSET:-0.017000;
#SAMPLESTART:54.839851;
#SAMPLELENGTH:13.781437;
#SELECTABLE:YES;
#BPMS:0.000000=140.000000
;
#STOPS:
;
#BGCHANGES:;
#KEYSOUNDS:;
#ATTACKS:;

//---------------dance-single - ----------------
#NOTES:
     dance-single:
     :
     Challenge:
     15:
     0.682037,0.881419,0.309378,0.119532,0.643365,679.000000,635.000000,44.000000,17.000000,0.000000,0.000000,0.682037,0.881419,0.309378,0.119532,0.643365,679.000000,635.000000,44.000000,17.000000,0.000000,0.000000:
// measure 0
0000
0000
0000
0000
,  // measure 1
0000
0000
0000
0000
,  // measure 2
0000
0000
0000
0000
,  // measure 3
0001
0000
0000
0000
0011
0000
0000
0000
1000
0000
0000
0000
1010
0000
0000
1001
,  // measure 4
0000
0000
0001
0100
0010
0000
0100
0001
,  // measure 5
1000
0000
0000
0001
0010
0001
0000
1000
0000
0010
0000
0100
0000
0000
0002
0000
,  // measure 6
0000
0000
0000
0000
0013
0000
0001
0100
0001
0100
0010
1000
0010
1000
0001
0000
,  // measure 7
1000
0000
0000
0000
1100
0000
0000
0000
0001
0000
0000
0000
0101
0000
0000
1001
,  // measure 8
0000
1000
0001
0000
0100
0010
1000
0000
,  // measure 9
0100
0000
0010
0000
0001
0100
0000
1000
0000
0000
0000
0100
0001
0000
1000
0001
,  // measure 10
1000
0000
0000
0000
0110
0000
0000
0010
1000
0000
0000
0100
0010
0000
0001
0000
,  // measure 11
1000
0000
0000
0000
1010
0000
0000
0000
0001
0000
0000
0000
0011
0000
0000
1001
,  // measure 12
0000
0000
1000
0100
0010
0000
0100
1000
,  // measure 13
0001
0000
0000
1000
0010
1000
0000
0001
0000
0010
0000
0100
0000
0000
2000
0000
,  // measure 14
0000
0000
0000
0000
3010
0000
1000
0100
1000
0100
0010
0001
0010
0000
0000
0000
,  // measure 15
0101
1100
1010
0011
,  // measure 16
1001
0000
1000
0000
0001
0000
1000
0010
1000
0000
0100
0000
0010
0000
0002
0000
,  // measure 17
0000
0103
0010
0200
0000
0301
0010
0100
,  // measure 18
1000
0000
0010
0000
1000
0001
0000
0010
0000
0100
1000
0000
0001
0000
0020
0000
,  // measure 19
0000
0031
0200
0000
1300
0100
0001
1000
,  // measure 20
0100
0000
1000
0000
0001
0000
1000
0010
1000
0000
0100
0000
0010
0000
0002
0000
,  // measure 21
0000
0103
0010
2000
0000
3001
0010
0100
,  // measure 22
1000
0000
0010
0000
1000
0001
0000
0010
0000
0001
1000
0000
0100
0000
0020
0000
,  // measure 23
0000
0130
2000
0000
3010
0001
0010
0000
,  // measure 24
1000
0000
0000
0000
0100
0000
0000
1000
0010
0000
1000
0000
0001
0000
0010
0000
,  // measure 25
0001
0000
0000
0000
0100
0000
0000
0001
0010
0000
0001
0000
1000
0000
0010
0000
,  // measure 26
1000
0000
0000
0000
0100
0000
0000
0010
0001
0000
0100
0000
0010
0000
1000
0000
,  // measure 27
0001
0000
0000
0000
0010
0000
0000
0100
1000
0000
0010
0000
0100
0000
0001
0000
,  // measure 28
1000
0000
0000
0000
0100
0000
0000
1000
0010
0000
0001
0000
0010
0000
1000
0000
,  // measure 29
0001
0000
0000
0000
0100
0000
0000
0001
0010
0000
1000
0000
0010
0000
0001
0000
,  // measure 30
1000
0000
0000
0000
0001
0000
0000
0010
0001
0000
0100
0000
0010
0000
1000
0000
,  // measure 31
0001
0010
0001
0010
0100
0000
1000
0010
1000
0010
0100
0000
0001
0000
0000
0000
,  // measure 32
1000
0000
0000
0000
1001
0000
0000
0001
0000
0000
0010
0000
0100
0000
1000
0000
,  // measure 33
0000
0000
0001
0000
0100
0000
0010
0000
0100
0000
1000
0000
0100
0000
0001
1000
,  // measure 34
0001
0000
0000
0000
1001
0000
1000
0010
0000
0000
1000
0000
0100
0000
0001
0000
,  // measure 35
0100
0000
1000
0000
0010
0000
0001
0000
0010
0000
0000
0000
1000
0000
0001
1000
,  // measure 36
0001
0000
0000
0000
1001
0000
0000
1000
0000
0000
0010
0000
0100
0000
0001
0000
,  // measure 37
0000
0000
1000
0000
0100
0000
0010
0000
0100
0000
0001
0000
0100
0000
1000
0001
,  // measure 38
1000
0000
0000
0000
1001
0000
0001
0010
0000
0000
0001
0000
0100
0000
1000
0000
,  // measure 39
0100
0000
0001
0000
0010
0000
1000
0000
0010
0000
0001
1000
0001
0000
1000
0100
,  // measure 40
1000
0000
0001
0100
0000
0001
0010
0001
1000
0100
1000
0100
0010
0001
0010
0001
,  // measure 41
0200
0000
0000
0000
0000
0000
0000
0010
0000
0000
0310
0000
1000
0100
0010
0001
,  // measure 42
0000
1000
0010
1000
0000
0001
0100
0001
0010
0100
0010
0001
0000
1000
0001
1000
,  // measure 43
0001
0000
0000
0000
0101
0000
0000
0000
1100
0000
0000
0000
1000
0010
0100
0010
,  // measure 44
2000
0000
0000
0000
0000
0000
3001
0010
0001
0100
0001
0100
0010
1000
0100
0010
,  // measure 45
0000
0000
0001
1000
0001
0000
1000
0001
0200
0000
0000
0000
0320
0000
0000
0000
,  // measure 46
0030
0000
1000
0100
1000
0000
0001
0000
0010
0100
0010
0001
1000
0010
1000
0001
,  // measure 47
1000
0100
1000
0100
0010
0001
0010
0001
0100
0010
0100
0010
1000
0001
1000
0001
,  // measure 48
0000
1000
0000
0100
0000
1000
0001
1000
0001
0100
0000
0010
0000
1000
0001
1000
,  // measure 49
0001
0000
1000
0100
1000
0000
0001
0010
0001
0000
0010
0100
0020
0000
0000
0000
,  // measure 50
0031
0000
1000
0000
0010
0100
0010
1000
0000
0100
0010
0001
0000
1000
0010
1000
,  // measure 51
0000
0000
0001
0100
0010
0000
1000
0100
0020
0000
0000
0000
0100
0000
0000
0130
,  // measure 52
0000
0000
1000
0001
1000
0010
1000
0010
0100
0001
0100
0001
0010
0100
0010
0100
,  // measure 53
1000
0001
1000
0001
1000
0100
0010
0100
1000
0010
0100
0001
0010
0100
0010
0001
,  // measure 54
2000
0000
0000
0000
3010
0000
0001
0010
0001
0010
0100
1000
0100
0000
0000
0000
,  // measure 55
1010
0000
0000
0000
0011
0000
0000
0000
0101
0000
0000
0000
1000
0100
1000
0100
,  // measure 56
1000
0010
0000
0000
1001
0000
0000
0000
0001
0010
0000
0000
1001
0000
0000
0000
,  // measure 57
1000
0100
0000
0000
1001
0000
0000
0000
0001
0100
0000
0000
1001
0000
0000
0000
,  // measure 58
1000
0010
0000
0000
0010
0001
0000
0000
0001
0010
0000
0000
0010
1000
0000
0000
,  // measure 59
1000
0000
0001
0100
0001
0100
0000
0010
1000
0010
1000
0000
0100
0010
0100
0010
,  // measure 60
0001
0100
0001
0100
0010
0000
1000
0100
1000
0100
0010
0000
0001
0000
0000
0000
,  // measure 61
1000
0000
0000
0000
1001
0000
0000
0001
0000
0000
0100
0000
0010
0000
1000
0000
,  // measure 62
0000
0000
0001
0000
0010
0000
0100
0000
0010
0000
1000
0000
0010
0000
0001
1000
,  // measure 63
0001
0000
0000
0000
1001
0000
1000
0100
0000
0000
1000
0000
0010
0000
0001
0000
,  // measure 64
0010
0000
1000
0000
0100
0000
0001
0000
0100
0000
0000
0000
1000
0000
0001
1000
,  // measure 65
0001
0000
0000
0000
1001
0000
0000
1000
0000
0000
0100
0000
0010
0000
0001
0000
,  // measure 66
0000
0000
1000
0000
0010
0000
0100
0000
0010
0000
0001
0000
0010
0000
1000
0001
,  // measure 67
1000
0000
0000
0000
1001
0000
0001
0100
0000
0000
0001
0000
0010
0000
1000
0000
,  // measure 68
0010
0000
0000
0000
1001
0000
0000
0000
0110
0000
0000
0000
1000
0001
1000
0001
,  // measure 69
1000
0000
0100
0000
0010
0000
0001
0100
0000
0000
0010
0000
1000
0000
0100
0000
,  // measure 70
1000
0000
0010
0000
0100
0000
0001
0010
0000
0000
0001
0000
0100
0000
0001
1000
,  // measure 71
0001
0000
0010
0000
0100
0000
1000
0010
0000
0000
0100
0000
0001
0000
0010
0000
,  // measure 72
0001
1000
0001
0000
0100
0000
0000
0000
0010
0000
1000
0100
0000
1000
0001
1000
,  // measure 73
0001
0000
0010
0000
0100
0000
0010
0001
0000
0000
1000
0000
0010
0000
0100
0000
,  // measure 74
0001
0000
0010
0000
0100
0000
1000
0010
0000
0000
1000
0000
0100
0000
1000
0001
,  // measure 75
1000
0000
0010
0000
0100
0000
0010
1000
0000
0000
0001
0000
0010
0000
0100
0000
,  // measure 76
1000
0000
0000
0000
0110
0000
0000
0000
1001
0000
0000
0000
0001
1000
0001
1000
,  // measure 77
0001
0000
0000
0000
0011
0000
0000
0000
0101
0000
0000
1010
0000
0000
1100
0000
,  // measure 78
0000
1000
0001
0000
1000
0000
0010
0000
0100
0000
0001
0010
0001
0000
1000
0001
,  // measure 79
1000
0000
0000
0000
1010
0000
0000
0000
1100
0000
0000
0011
0000
0000
0101
0000
,  // measure 80
0000
0001
1000
0000
0001
0000
1000
0010
1000
0000
0001
0100
0001
0000
0010
0000
;

//---------------dance-single - ----------------
#NOTES:
     dance-single:
     :
     Hard:
     11:
     0.481143,0.511792,0.210939,0.196877,0.168751,479.000000,449.000000,30.000000,28.000000,0.000000,0.000000,0.481143,0.511792,0.210939,0.196877,0.168751,479.000000,449.000000,30.000000,28.000000,0.000000,0.000000:
0000
0000
0000
0000
,
0000
0000
0000
0000
,
0000
0000
0000
0000
,
1000
0000
0000
0000
1001
0000
0000
0000
0001
0000
0000
0000
1001
0000
0000
0110
,
0000
0000
1000
0000
0100
0010
0001
0000
,
0100
0000
0000
0001
1000
0000
0000
0000
0010
0000
0100
0000
0010
0000
2000
0000
,
0000
0000
0000
3001
0010
0100
1000
0001
,
1000
0000
0000
0000
1001
0000
0000
0000
0001
0000
0000
0000
1001
0000
0000
0110
,
0000
0000
0001
0000
0100
0010
1000
0000
,
0100
0000
0000
0000
1000
0010
0000
1000
0000
0000
0000
0001
1000
0000
0000
0000
,
1001
0000
0001
0000
1000
0100
0010
0000
,
0001
0000
0000
0000
1001
0000
0000
0000
1000
0000
0000
0000
1001
0000
0000
0110
,
0000
0000
0001
0000
0100
0010
1000
0000
,
0100
0000
0000
1000
0001
0000
0000
0000
0010
0000
0100
0000
0010
0000
0002
0000
,
0000
0000
0000
1003
0010
0100
0001
0000
,
1000
1100
0001
0101
,
1000
0000
0001
0000
0010
0100
0010
0001
,
0000
1000
0010
1000
0000
0001
0010
0100
,
1000
0010
1000
0100
0010
0000
0100
1000
,
0000
1000
0001
0000
0000
1000
0100
0010
,
0001
0000
0100
0000
0010
0100
0001
1000
,
0000
0100
0010
0100
0000
0010
0001
1000
,
0001
0010
0100
1000
0010
0000
0100
0001
,
0000
0001
1000
0000
0001
0010
0100
0000
,
1000
0000
0001
0100
0000
0010
1000
0200
,
0000
0000
1300
0001
0000
0100
0010
0200
,
0000
0000
0301
0010
0000
0000
0001
2000
,
0000
0000
3010
0000
1000
0001
1000
0000
,
0001
0000
0010
0100
0000
0010
0001
2000
,
0000
0000
3001
0100
0000
0010
1000
0002
,
0000
0000
1003
0100
0000
1000
0010
0100
,
0001
0010
0001
1000
0010
1000
0001
0000
,
1000
0000
0000
0000
0001
0000
0000
1000
0000
0000
0100
0000
0010
0000
0001
0000
,
0000
1000
0010
0001
0010
0000
1000
0000
,
0001
0000
0000
0000
0100
0000
0001
0010
0000
0000
0001
0000
1000
0000
0010
0000
,
0200
0320
2030
3001
,
1000
0000
0000
0000
0001
0000
0000
1000
0000
0000
0010
0000
0100
0000
0001
0000
,
0000
0000
1000
0100
0001
0100
1000
0000
,
0001
0000
0000
0000
0010
0000
0001
0100
0000
0000
0001
0000
1000
0000
0100
0000
,
0020
0230
2300
3001
,
1000
0000
0001
1000
0000
0000
0001
0000
0100
0000
0010
0000
0100
0000
0001
0000
,
2000
0000
0000
0000
0000
0000
0000
0100
0000
0000
3100
0000
0010
0000
0001
0000
,
1000
0000
0000
1000
0010
0000
0100
0000
0001
0000
0010
0000
0001
0000
1000
0000
,
0001
0000
0000
0000
0101
0000
0000
0000
1000
0000
0000
0000
1100
0000
0000
1001
,
0000
0000
1000
0100
0010
0001
0100
0010
,
1000
0000
0000
1000
0001
0000
0000
0001
0020
0000
0000
0000
0230
0000
0000
0000
,
0300
1000
0001
1000
0010
0100
0010
1000
,
0001
0000
0000
0000
0011
0000
0000
0000
1000
0000
0000
0000
1010
0000
0000
1001
,
0000
0000
0001
0000
0010
0000
1000
0000
0010
0001
0000
1000
0000
0000
0100
0000
,
0010
0000
0000
0010
0001
0000
0000
0001
0100
0000
0000
0100
0020
0000
0000
0000
,
0000
1030
0100
1000
0001
0010
1000
0010
,
0001
0000
0000
0000
0101
0000
0000
0000
1000
0000
0000
0000
1100
0000
0000
1001
,
0000
0001
1000
0010
1000
0001
0010
0100
,
1000
0001
0100
0001
1000
0100
0001
0100
,
2000
3020
0230
0301
,
1000
1001
0001
1001
,
1000
0001
0000
0000
0011
0000
0000
0000
0001
1000
0000
0000
1010
0000
0000
0000
,
1000
0001
0000
0000
0101
0000
0000
0000
0001
1000
0000
0000
1100
0000
0000
0000
,
1000
0001
0000
0000
0001
0100
0000
0000
0100
0010
0000
0000
0010
1000
0000
0000
,
1000
0000
0100
0000
0010
0100
0000
0000
2000
0000
0000
0000
3002
0000
0000
0000
,
1003
0010
1000
0001
0010
0001
1000
0000
,
0001
0000
0000
0000
1000
0000
0000
0001
0000
0000
0100
0000
0010
0000
1000
0000
,
0000
0001
0010
1000
0010
0000
0001
0000
,
1000
0000
0000
0000
0100
0000
1000
0010
0000
0000
1000
0000
0001
0000
0010
0000
,
0200
0320
0032
1003
,
0001
0000
0000
0000
1000
0000
0000
0001
0000
0000
0010
0000
0100
0000
1000
0000
,
0000
0000
0001
0100
1000
0100
0001
0000
,
1000
0000
0000
0000
0010
0000
1000
0100
0000
0000
1000
0000
0001
0000
0100
0000
,
0020
0000
0230
0000
0302
0000
1003
0100
,
0010
0000
0000
0000
0100
0000
0000
1000
0000
0000
0001
0000
1000
0000
0000
0000
,
0001
0100
0010
0000
1000
0100
1000
0001
,
0010
0000
0000
0000
0001
0000
0000
1000
0000
0000
0100
0000
0010
0000
0000
0000
,
0001
1000
0001
0000
1000
0010
0100
0000
,
0001
0000
0010
0000
0001
0000
0000
1000
0000
0000
0010
0000
1000
0000
0000
0000
,
0100
0010
0001
0000
0100
0010
1000
0000
,
0001
0000
0010
0000
0100
0000
0000
1000
0000
0000
0001
0000
1000
0000
0000
0000
,
1010
0000
0011
0000
1001
0000
0000
1000
,
0001
0000
0000
0000
0001
0000
0000
0000
1000
0000
0000
0100
0000
0000
0010
0000
,
0000
0001
0100
0000
0001
0000
1000
0000
0010
0000
0100
0010
0100
0000
0010
0000
,
1000
0000
0000
0000
1000
0000
0000
0000
0001
0000
0000
0010
0000
0000
0100
0000
,
0000
1000
0010
0000
1000
0000
0001
0000
0100
0000
0010
0100
0010
0000
1000
0000
;

//---------------dance-single - ----------------
#NOTES:
     dance-single:
     :
     Medium:
     8:
     0.331476,0.341194,0.049219,0.042188,0.017578,330.000000,323.000000,7.000000,6.000000,0.000000,0.000000,0.331476,0.341194,0.049219,0.042188,0.017578,330.000000,323.000000,7.000000,6.000000,0.000000,0.000000:
0000
0000
0000
0000
,
0000
0000
0000
0000
,
0000
0000
0000
0000
,
1000
0000
0000
0000
1000
0000
0000
0000
0001
0000
0000
0000
0001
0000
0000
0010
,
0000
0000
0001
0000
1000
0010
1000
0000
,
0100
0000
0010
0000
0001
1000
0001
0000
,
1000
0000
0010
0000
0100
0001
0100
0000
,
0001
0000
0000
0000
0001
0000
0000
0000
1000
0000
0000
0000
1000
0000
0000
0010
,
0000
0000
1000
0000
0100
0010
0100
0000
,
1000
0001
0100
0001
,
0010
0000
0100
0000
1000
0001
1000
0000
,
0001
0000
0000
0000
0001
0000
0000
0000
1000
0000
0000
0000
1000
0000
0000
0010
,
0000
0000
1000
0000
0001
0010
0001
0000
,
0100
0000
0010
0000
1000
0001
1000
0000
,
0001
0000
0010
0000
0100
1000
0100
0000
,
1000
1000
0001
0001
,
1000
0100
0010
0001
,
0100
0010
1000
0000
,
0001
0010
0100
1000
,
0010
0100
0000
0000
,
0001
0001
1000
0100
,
1000
1000
0001
0100
,
0001
0010
0100
1000
,
0010
0000
0100
0000
0000
0001
1000
0000
,
0001
0000
0001
1000
0000
1000
0100
0010
,
0000
0000
0100
1000
0000
0001
1000
0001
,
0000
0000
0100
0010
0000
0000
0100
0001
,
0000
0000
0010
0000
0100
1000
0100
0000
,
1000
0000
1000
0001
0000
0001
0100
0010
,
0000
0000
0100
0001
0000
1000
0001
1000
,
0000
0000
0100
0010
0000
0100
1000
0001
,
2000
0000
0000
3002
0000
0000
1003
0000
,
0001
0000
0001
0000
1000
0100
1000
0010
,
0000
0100
0001
0010
0001
0000
1000
0000
,
0001
0100
0010
0100
,
0001
1001
1000
0001
,
1000
0000
1000
0000
0001
0100
0001
0010
,
0000
0000
0100
1000
0010
1000
0001
0000
,
1000
0100
0010
0100
,
1000
1001
0001
0000
,
1000
0010
0100
0001
,
0020
0000
0030
0001
,
1000
0010
1000
0001
,
0010
0010
0100
0100
,
2000
3000
0001
0010
,
0001
0100
1000
0100
,
0000
0001
1000
0010
,
1000
1000
0001
0001
,
0010
0000
0100
0000
,
1000
0010
0001
0010
,
0000
1000
0001
0100
,
0001
0001
1000
1000
,
0100
0010
0001
0100
,
0010
1000
0001
0010
,
0100
0010
0001
1000
,
0010
0010
0100
0100
,
0001
0000
1001
0000
,
1000
0000
1001
0000
,
0001
0010
0100
1000
,
0001
0100
0001
0000
1000
0001
1000
0000
,
0002
0000
0000
2003
0000
0000
3001
0000
,
1000
0000
1000
0000
0001
0010
0001
0100
,
0000
0010
1000
0100
1000
0000
0001
0000
,
1000
0010
0100
0010
,
1000
1001
0001
1000
,
0001
0000
0001
0000
1000
0010
1000
0100
,
0000
0000
0010
0001
0100
0001
1000
0000
,
0001
0010
0100
0010
,
0001
1001
1000
0000
,
0001
0010
0001
0000
,
1000
0010
1000
0000
,
0100
0010
0001
0000
,
0100
0010
1000
0000
,
0001
1000
0001
0000
0010
0000
0100
0000
,
1000
0010
1000
0001
,
0010
0001
0100
0010
,
1000
1001
0001
0000
,
1000
0000
0000
0000
0001
0000
0000
0000
1000
0000
0000
0001
0000
0000
1000
0000
,
0000
0001
0000
0100
0010
0000
1000
0000
,
0001
0000
0000
0000
1000
0000
0000
0000
0001
0000
0000
1000
0000
0000
0001
0000
,
0000
1000
0000
0100
0010
0001
1000
0010
;

//---------------dance-single - ----------------
#NOTES:
     dance-single:
     :
     Easy:
     6:
     0.266185,0.283889,0.056250,0.014063,0.000000,265.000000,257.000000,8.000000,2.000000,0.000000,0.000000,0.266185,0.283889,0.056250,0.014063,0.000000,265.000000,257.000000,8.000000,2.000000,0.000000,0.000000:
0000
0000
0000
0000
,
0000
0000
0000
0000
,
0000
0000
0000
0000
,
1000
1000
0001
0001
,
0000
1000
0000
0010
,
1000
0100
0010
0001
,
0000
0100
0001
0100
,
0001
0001
1000
1000
,
0000
0001
0000
0100
,
0010
1000
0100
0010
,
0001
0000
1000
0000
,
0001
0001
1000
1000
,
0000
0001
0000
0010
,
0001
0100
0010
1000
,
0000
0100
1000
0100
,
1000
1000
0001
0001
,
1000
0000
0010
0000
,
0100
0000
0001
0000
,
1000
0001
1000
0000
,
0001
0000
0010
0000
,
0100
0000
1000
0000
,
0010
0000
0100
0000
,
0001
1000
0001
0000
,
1000
0000
0100
0000
,
1000
0010
1000
0000
,
0001
0010
0001
0000
,
1000
0001
1000
0000
,
0001
0100
0001
0000
,
1000
0100
1000
0000
,
0001
1000
0001
0000
,
0100
0010
0100
0000
,
0001
0000
0000
1000
0000
0000
0000
0000
,
0001
0001
1000
0010
,
1000
1000
0100
0010
,
0001
0001
0100
0010
,
1000
0001
1001
0000
,
1000
1000
0010
0100
,
0001
0001
1000
0100
,
1000
1000
0001
0100
,
0001
1000
1001
0000
,
1000
0010
1000
0010
,
0100
0001
0100
0001
,
0010
0100
0010
0100
,
1000
0001
1000
0001
,
1000
0100
1000
0100
,
0010
0001
0010
0001
,
0100
0010
0100
0010
,
1000
0001
1000
0001
,
1000
0100
0010
0001
,
1000
0010
0100
0001
,
0010
0100
1000
0001
,
0100
0010
1000
0001
,
1000
0100
0010
0100
,
1000
0001
0100
0010
,
0100
0001
1000
0001
,
1000
1000
0001
0001
,
0000
1001
0000
0110
,
0000
1001
0000
0110
,
1000
0100
0010
0001
,
1000
1000
0002
0203
,
0301
0000
0000
1000
0000
0000
0000
0000
,
0001
0001
1000
0100
,
1000
1000
0010
0100
,
0001
0001
0010
0100
,
1000
0001
1001
0000
,
1000
1000
0100
0010
,
0001
0001
1000
0010
,
1000
1000
0001
0010
,
0001
1000
1001
0000
,
0001
1000
0001
0000
,
1000
0010
1000
0000
,
0001
0100
0001
0000
,
1000
0001
1000
0000
,
0001
1000
0001
0000
,
1000
0100
1000
0000
,
0001
0010
0001
0000
,
1000
0001
1000
0000
,
0001
0001
1000
0000
,
0000
0001
0100
0010
,
1000
1000
0001
0000
,
0000
1000
0100
0010
;

//---------------dance-single - ----------------
#NOTES:
     dance-single:
     :
     Beginner:
     3:
     0.100447,0.141945,0.000000,0.000000,0.000000,100.000000,100.000000,0.000000,0.000000,0.000000,0.000000,0.100447,0.141945,0.000000,0.000000,0.000000,100.000000,100.000000,0.000000,0.000000,0.000000,0.000000:
0000
0000
0000
0000
,
0000
0000
0000
0000
,
0000
0000
0000
0000
,
0000
0000
0000
0000
,
1000
0000
0000
0000
,
0001
0000
0000
0000
,
1000
0000
0000
0000
,
0001
0000
0000
0000
,
0100
0000
0000
0000
,
0010
0000
0000
0000
,
0100
0000
0000
0000
,
0010
0000
0000
0000
,
1000
0000
0000
0000
,
0001
0000
0000
0000
,
1000
0000
0000
0000
,
0001
0000
0000
0000
,
0010
0000
0000
0000
,
0100
0000
0000
0000
,
0010
0000
0000
0000
,
0100
0000
0000
0000
,
1000
0000
0000
0000
,
0010
0000
0000
0000
,
1000
0000
0000
0000
,
0010
0000
0000
0000
,
0100
0000
0000
0000
,
0001
0000
0000
0000
,
0100
0000
0000
0000
,
0001
0000
0000
0000
,
1000
0000
0000
0000
,
0100
0000
0000
0000
,
1000
0000
0000
0000
,
0100
0000
0000
0000
,
1000
0000
1000
0000
,
0001
0000
0001
0000
,
1000
0000
1000
0000
,
0001
0000
0001
0000
,
0100
0000
0100
0000
,
0010
0000
0010
0000
,
0100
0000
0100
0000
,
0010
0000
0010
0000
,
1000
0000
0000
0000
,
0001
0000
0000
0000
,
1000
0000
0000
0000
,
0001
0000
0000
0000
,
0100
0000
0000
0000
,
0010
0000
0000
0000
,
0100
0000
0000
0000
,
0010
0000
0000
0000
,
1000
0000
0000
0000
,
0001
0000
0000
0000
,
1000
0000
0000
0000
,
0001
0000
0000
0000
,
0010
0000
0000
0000
,
0100
0000
0000
0000
,
0010
0000
0000
0000
,
0100
0000
0000
0000
,
1000
0000
1000
0000
,
1000
0000
1000
0000
,
0001
0000
0001
0000
,
0001
0000
0001
0000
,
1000
0000
0000
0000
,
0001
0000
0001
0000
,
1000
0000
1000
0000
,
0001
0000
0001
0000
,
1000
0000
1000
0000
,
0100
0000
0100
0000
,
0010
0000
0010
0000
,
0100
0000
0100
0000
,
0010
0000
0010
0000
,
0001
0000
0000
0000
,
0100
0000
0000
0000
,
0001
0000
0000
0000
,
0100
0000
0000
0000
,
0010
0000
0000
0000
,
1000
0000
0000
0000
,
0010
0000
0000
0000
,
1000
0000
0000
0000
,
0001
0000
1000
0000
,
0000
0000
0001
0000
,
1000
0000
0001
0000
,
0000
0000
1000
0001
;
