#VERSION:0.83;
#TITLE:Illegal Infection;
#SUBTITLE:;
#ARTIST:Majestic Infection;
#TITLETRANSLIT:;
#SUBTITLETRANSLIT:;
#ARTISTTRANSLIT:;
#GENRE:TRANCECORE;
#ORIGIN:;
#CREDIT:;
#BANNER:Illegal Infection.png;
#BACKGROUND:Illegal Infection-bg.png;
#PREVIEWVID:;
#JACKET:Illegal Infection-jacket.png;
#CDIMAGE:;
#DISCIMAGE:;
#LYRICSPATH:;
#CDTITLE:cdtitle.png;
#MUSIC:Illegal Infection.ogg;
#OFFSET:-1.040000;
#SAMPLESTART:74.187721;
#SAMPLELENGTH:10.267593;
#SELECTABLE:YES;
#BPMS:0.000=187.000;
#STOPS:;
#DELAYS:;
#WARPS:;
#TIMESIGNATURES:0.000=4=4;
#TICKCOUNTS:0.000=4;
#COMBOS:0.000=1;
#SPEEDS:0.000=1.000=0.000=0;
#SCROLLS:0.000=1.000;
#FAKES:;
#LABELS:0.000=Song Start;
#BGCHANGES:;
#KEYSOUNDS:;
#ATTACKS:
;

//---------------dance-single - ----------------
#NOTEDATA:;
#CHARTNAME:;
#STEPSTYPE:dance-single;
#DESCRIPTION:;
#CHARTSTYLE:;
#DIFFICULTY:Challenge;
#METER:15;
#RADARVALUES:0.760685,0.859036,0.454882,0.080273,0.655565,597.000000,546.000000,51.000000,9.000000,0.000000,0.000000,0.000000,0.000000,0.000000,0.760685,0.859036,0.454882,0.080273,0.655565,597.000000,546.000000,51.000000,9.000000,0.000000,0.000000,0.000000,0.000000,0.000000;
#CREDIT:;
#NOTES:
0000
0000
0000
0000
,
0000
0000
0000
0000
,
0000
0000
0000
0000
,
0000
0000
0000
0000
,
0000
0000
0000
0000
,
0000
0000
0000
0000
,
0000
0000
0000
0000
,
0000
0000
0000
0000
,
0000
0000
0000
0000
,
1000
1100
0001
0101
,
1000
0000
1010
0000
0001
0010
0100
1000
,
0001
0011
1000
1010
,
0001
0000
0101
0000
1000
0100
0010
0001
,
0100
0110
0001
1001
,
0100
0000
0110
0000
0001
0010
0100
1000
,
0010
0110
1000
1001
,
0001
0010
0001
0000
0100
0000
0010
1000
0010
0000
1000
0100
0000
0000
1001
0000
,
0001
0000
0010
0000
0001
0000
1000
0010
1000
0000
0100
0010
0000
0010
0001
0000
,
1000
0000
0010
0000
1000
0000
0001
0010
0001
0000
0100
0010
0000
0010
1000
0000
,
0001
0000
0100
0000
0001
0000
1000
0100
1000
0000
0010
0100
0000
0100
0001
0000
,
1000
0000
0100
0000
1000
0000
0001
0100
0001
0000
0010
0100
0000
0100
1000
0000
,
0001
0000
1000
0000
0010
0000
1000
0100
1000
0000
0001
0010
0000
0010
0100
0000
,
1000
0000
0001
0000
0010
0000
0001
0100
0001
0000
1000
0010
0000
0010
0100
0000
,
0001
0000
1000
0000
0100
0000
1000
0010
1000
0000
0001
0010
0000
0010
0100
0000
,
1100
0000
1001
0001
0000
0101
0100
0000
,
0001
0000
0010
0000
0100
0000
1000
0010
1000
0000
0001
1000
0000
1000
0100
0000
,
1000
0000
0010
0000
0100
0000
0001
0010
0001
0000
1000
0001
0000
0001
0100
0000
,
0001
0000
1000
0000
0100
0000
1000
0001
1000
0000
0001
0100
0000
0100
0010
0000
,
1000
0000
0001
0000
0100
0000
0001
1000
0001
0000
1000
0100
0000
0100
0010
0000
,
0001
0000
0100
0000
0001
0000
1000
0010
1000
0000
0100
0010
0000
0010
0001
0000
,
1000
0000
0100
0000
1000
0000
0001
0010
0001
0000
0100
0010
0000
0010
1000
0000
,
0001
0000
0100
0000
0001
0000
0100
0000
0001
0000
0010
0000
0100
0000
1000
0001
,
1000
0000
1000
0000
0010
0000
0010
0000
0110
0000
0000
0110
0000
0000
0110
0000
,
1002
0000
0000
0000
,
0010
0000
0000
0000
,
0203
0000
0000
0000
,
0010
0000
0000
0000
,
0320
0000
0000
0000
,
0100
0000
0000
0000
,
2030
0000
0000
0000
,
0100
0000
0000
0000
,
3001
0000
0001
0000
0100
0000
0010
1000
0010
1000
0100
0000
1000
0000
0001
0000
,
1000
0010
0100
0010
1000
0000
0100
0000
0010
0001
0010
0000
0001
0000
0100
0000
,
0010
0000
0010
0000
1000
0000
0001
0010
0001
0010
0100
0000
0010
0000
0001
0000
,
1000
0001
0100
0001
0100
0000
0010
0000
1000
0100
1000
0000
0010
0000
1000
0001
,
1000
0000
1000
0000
0100
0000
0010
0001
0010
0001
0100
0000
0001
0000
1000
0000
,
0001
0010
0100
0010
0001
0000
0100
0000
0010
1000
0010
0000
1000
0000
0100
0000
,
0010
0000
0010
0000
0001
0000
1000
0010
1000
0010
0100
0000
0010
0000
1000
0000
,
0001
1000
0100
1000
0100
0000
0010
0000
0001
0000
0001
0000
1000
0000
1000
0000
,
0001
0000
0100
0000
1000
0000
0100
0000
0101
0000
0000
0110
0000
0000
1010
0000
,
0000
1100
0000
0000
1001
0000
0000
0000
0110
0000
0000
0101
0000
0000
0001
0000
,
1000
0000
0100
0000
0001
0000
0100
0000
1100
0000
0000
1010
0000
0000
1000
0001
,
1000
0000
0000
0011
0000
0000
1001
0000
0000
1100
0000
0000
0100
0000
0000
0000
,
1000
0000
0000
1010
0000
0000
0010
0000
0100
0000
0000
0101
0000
0000
0001
0000
,
0010
0000
0000
0110
0000
0000
0100
0000
1000
0000
0000
1001
0000
0000
0001
1000
,
0001
0000
1000
0010
1000
0000
0001
0010
0001
0000
1000
0100
1000
0000
0001
0100
,
0001
0000
0001
0000
1000
0000
0100
0010
0100
0000
1000
0000
1001
0000
0000
0000
,
0001
0000
0010
0000
1000
0000
0010
0000
0001
0000
0100
0010
0000
1000
0100
1000
,
0100
0000
1000
0010
0000
0100
0001
0000
0010
0100
0000
1000
0010
0100
0010
0100
,
0001
0000
0100
0000
1000
0000
0100
0000
0001
0000
0010
0100
0000
1000
0010
1000
,
0010
0000
1000
0100
0000
0010
0001
0000
0100
0000
0010
0000
1000
0001
0010
0001
,
0020
0000
0000
0000
0000
0000
0000
0000
0030
0000
0001
1000
0010
0100
0010
0100
,
0001
0000
1000
0001
0000
0001
0010
0000
0100
0000
0010
0001
0000
1000
0001
0000
,
0200
0000
0000
0000
0000
0000
0000
0000
0300
0000
0001
1000
0010
0100
0010
0100
,
0001
0000
0000
1001
0000
0000
1000
0000
0100
0000
0000
0110
0000
0000
0010
0000
,
0001
0000
0100
0000
1000
0000
0100
0000
0001
0000
0010
0100
0000
1000
0010
1000
,
0010
0000
1000
0100
0000
0010
0001
0000
0100
0010
0000
1000
0100
0010
0100
0010
,
0001
0000
0010
0000
1000
0000
0010
0000
0001
0000
0100
0010
0000
1000
0100
1000
,
0100
0000
1000
0010
0000
0100
0001
0000
0010
0000
0100
0000
1000
0001
0100
0001
,
0200
0000
0000
0000
0000
0000
0000
0000
0300
0000
0001
1000
0100
0010
0100
0010
,
0001
0000
1000
0001
0000
0001
0100
0000
0010
0000
0100
0001
0000
1000
0001
0000
,
0010
0000
0000
0110
0000
0000
1100
0000
0000
1001
0000
0000
1000
0100
0010
0001
,
0100
0000
0000
0110
0000
0000
0001
0000
0010
0000
0000
0100
0000
0000
1000
0000
,
0001
0100
0010
1000
0001
0010
1000
0001
,
0100
1000
0001
0010
1000
0001
0100
1000
,
0001
0010
0100
1000
0001
0100
1000
0001
,
0010
0000
1000
0000
0001
0000
0100
0000
1000
0000
0001
0000
0010
1000
0010
1000
,
0100
0000
0000
0110
0000
0000
0011
0000
0000
1001
0000
0000
1000
0000
0010
0000
,
0100
0000
0000
0110
0000
0000
1010
0000
0000
1001
0000
0000
0001
0000
1000
0100
,
1000
0000
0001
0000
0000
0101
0000
0000
1000
0000
0010
0000
0000
0110
0000
0000
,
2002
0000
0000
0000
,
0000
0000
0000
0000
,
0000
0000
0000
0000
,
0000
0000
0000
3003
;

//---------------dance-single - ----------------
#NOTEDATA:;
#CHARTNAME:;
#STEPSTYPE:dance-single;
#DESCRIPTION:;
#CHARTSTYLE:;
#DIFFICULTY:Hard;
#METER:13;
#RADARVALUES:0.569558,0.709638,0.142708,0.115950,0.280957,447.000000,431.000000,16.000000,13.000000,0.000000,0.000000,0.000000,0.000000,0.000000,0.569558,0.709638,0.142708,0.115950,0.280957,447.000000,431.000000,16.000000,13.000000,0.000000,0.000000,0.000000,0.000000,0.000000;
#CREDIT:;
#NOTES:
0000
0000
0000
0000
,
0000
0000
0000
0000
,
0000
0000
0000
0000
,
0000
0000
0000
0000
,
0000
0000
0000
0000
,
0000
0000
0000
0000
,
0000
0000
0000
0000
,
0000
0000
0000
0000
,
0000
0000
0000
0000
,
1000
1001
0001
1001
,
1000
0000
1001
0000
0001
0010
0100
1000
,
0001
1001
1000
1001
,
0001
0000
1001
0000
1000
0100
0010
0001
,
1000
1010
0001
0011
,
1000
0000
1010
0000
0001
0010
0100
1000
,
0001
0101
1000
1100
,
0001
1000
0001
0000
0100
0000
0001
1000
0001
0000
1000
0100
0000
0000
1000
0000
,
0010
0000
0100
0000
0001
0000
0010
0000
0100
0000
0000
0010
0000
0000
0001
0000
,
1000
0000
0010
0000
0100
0000
0001
0000
0010
0000
0000
0100
0000
0000
1000
0000
,
0010
0000
0100
0000
0010
0000
0001
0000
0010
0000
0000
0100
0000
0000
0001
0000
,
0010
0000
0100
0000
0010
0000
1000
0000
0010
0000
0000
0001
0000
0000
0100
0000
,
0010
0000
1000
0000
0100
0000
0010
0000
0001
0000
0000
0100
0000
0000
0010
0000
,
0100
0000
0001
0000
0010
0000
0100
0000
1000
0000
0000
0010
0000
0000
0100
0000
,
0010
0000
1000
0000
0100
0000
0010
0000
0001
0000
0000
0100
0000
0000
0010
0000
,
1000
0000
1001
0001
0000
1001
1000
0000
,
0001
0000
0100
0000
0010
0000
1000
0000
0100
0000
1000
0010
0000
1000
0001
0000
,
1000
0000
0100
0000
0010
0000
0001
0000
0100
0000
0001
0010
0000
0001
1000
0000
,
0100
0000
0010
0000
0100
0000
1000
0000
0010
0000
0100
0001
0000
0010
0001
0000
,
0100
0000
0010
0000
0100
0000
0001
0000
0010
0000
0100
1000
0000
0010
1000
0000
,
0001
0000
0010
0000
0001
0000
1000
0000
0010
0000
0100
0010
0000
0100
0001
0000
,
1000
0000
0010
0000
1000
0000
0001
0000
0010
0000
0100
0010
0000
0100
1000
0000
,
0001
0100
0001
0100
0010
1000
0010
1000
,
0100
0000
0010
0000
0100
0000
0010
0000
0001
0000
0000
0001
0000
0000
0001
0000
,
2000
0000
0000
0000
,
0000
0000
0000
0000
,
3020
0000
0000
0000
,
0000
0000
0000
0000
,
0230
0000
0000
0000
,
0000
0000
0000
0000
,
0302
0000
0000
0000
,
0000
0000
0000
0000
,
1003
0010
1000
0001
0010
0001
1000
0100
,
1000
0001
0100
0001
1000
0100
0010
0000
,
0001
0100
0001
1000
0100
1000
0001
0010
,
0001
1000
0010
1000
0001
0010
0100
0000
,
1000
1000
0010
0100
0100
0001
0010
0010
,
0100
1000
1000
0010
0100
0001
1000
0000
,
0001
0001
0010
0100
0100
1000
0010
0010
,
0100
0001
0001
0010
0100
1000
0001
0000
,
2002
0000
0000
0000
3003
0000
0000
0000
1000
0000
0000
0010
0000
0000
0100
0000
,
0000
0010
0000
0000
1000
0000
0000
0000
0001
0000
0000
0010
0000
0000
0100
0000
,
2000
0000
0000
0000
3000
0000
0000
0000
0001
0000
0000
0100
0000
0000
0010
0100
,
0010
0000
0000
1000
0000
0000
0100
0000
0000
0010
0000
0000
0001
0000
0000
0000
,
1000
0000
0000
1000
0000
0000
1000
0000
0010
0000
0000
0010
0000
0000
0010
0000
,
0100
0000
0000
0100
0000
0000
0100
0000
0001
0000
0000
0001
0000
0000
0001
0000
,
0010
0100
0010
0100
1000
0001
1000
0001
,
2000
0000
3001
0110
,
0001
0000
0100
0000
1000
0000
0100
0000
0001
0000
0010
0100
0000
0000
1000
0000
,
0010
0000
0100
0001
0000
0000
0010
0000
0000
0100
0000
0000
0010
0000
0001
0000
,
1000
0000
0100
0000
0001
0000
0100
0000
1000
0000
0010
0100
0000
0000
0001
0000
,
0010
0000
0100
1000
0000
0000
0010
0000
0100
0000
0001
0000
0010
0000
0001
0000
,
0020
0000
0000
0000
0030
0001
0100
0001
,
1000
0000
0000
0100
0000
0000
0010
0000
0001
0000
0000
0100
0000
0000
0010
0000
,
0200
0000
0000
0000
0300
0001
1000
0100
,
0010
0000
0000
0100
0000
0000
1000
0000
0010
0000
0000
0100
0000
0000
0001
0000
,
1000
0000
0100
0000
0001
0000
0100
0000
1000
0000
0010
0100
0000
0000
0001
0000
,
0010
0000
0100
1000
0000
0000
0010
0000
0000
0100
0000
0000
0010
0000
1000
0000
,
0001
0000
0100
0000
1000
0000
0100
0000
0001
0000
0010
0100
0000
0000
1000
0000
,
0010
0000
0100
0001
0000
0000
0010
0000
0100
0000
1000
0000
0010
0000
1000
0000
,
0020
0000
0000
0000
0030
1000
0100
1000
,
0001
0000
0000
0100
0000
0000
0010
0000
1000
0000
0000
0100
0000
0000
0010
0000
,
0001
0000
0000
0001
0000
0000
1000
0000
0000
1000
0000
0000
0010
0100
0010
0100
,
0001
0000
0000
0010
0000
0000
0100
0000
0010
0000
0000
0001
0000
0000
1000
0000
,
0001
0100
0010
1000
0001
0010
0001
1000
,
0010
1000
0001
0100
0001
1000
0100
1000
,
0001
0010
0100
1000
0001
0100
0001
1000
,
0100
1000
0001
0010
0001
1000
0010
1000
,
0001
0000
0000
0001
0000
0000
0010
0000
0000
0010
0000
0000
0100
0000
1000
0000
,
0010
0000
0000
0010
0000
0000
0100
0000
0000
0100
0000
0000
0001
0000
1000
0001
,
1000
0000
0100
0000
0000
0100
0000
0000
0010
0000
0001
0000
0000
0001
0000
0000
,
2002
0000
0000
0000
,
0000
0000
0000
0000
,
0000
0000
0000
0000
,
0000
0000
0000
3003
;

//---------------dance-single - ----------------
#NOTEDATA:;
#CHARTNAME:;
#STEPSTYPE:dance-single;
#DESCRIPTION:;
#CHARTSTYLE:;
#DIFFICULTY:Medium;
#METER:9;
#RADARVALUES:0.396270,0.485542,0.035677,0.080273,0.107031,311.000000,307.000000,4.000000,9.000000,0.000000,0.000000,0.000000,0.000000,0.000000,0.396270,0.485542,0.035677,0.080273,0.107031,311.000000,307.000000,4.000000,9.000000,0.000000,0.000000,0.000000,0.000000,0.000000;
#CREDIT:;
#NOTES:
0000
0000
0000
0000
,
0000
0000
0000
0000
,
0000
0000
0000
0000
,
0000
0000
0000
0000
,
0000
0000
0000
0000
,
0000
0000
0000
0000
,
0000
0000
0000
0000
,
0000
0000
0000
0000
,
0000
0000
0000
0000
,
1000
1000
0001
0001
,
0100
0000
0100
0000
0010
1000
0010
0000
,
1000
1000
0001
0001
,
0010
0000
0010
0000
0100
1000
0100
0000
,
1000
1000
0010
0010
,
0100
0000
0100
0000
0001
1000
0001
0000
,
0010
0010
0100
0100
,
1000
0001
0000
1000
0001
1000
0000
0001
,
1000
0000
0100
0000
1000
0010
1000
0000
,
0001
0000
0100
0000
0001
0010
0001
0000
,
1000
0000
0001
0000
1000
0100
1000
0000
,
0001
0000
1000
0000
0001
0100
0001
0010
,
0001
0000
0100
0000
0001
1000
0001
0000
,
1000
0000
0100
0000
1000
0001
1000
0000
,
0001
0000
0010
0000
0001
1000
0001
0000
,
1001
0000
0100
0010
0000
0010
0100
0000
,
1001
0000
1000
0000
0010
0100
0010
0000
,
0100
0000
0001
0000
0010
0100
0010
0000
,
0001
0000
1000
0000
0001
0100
0001
0000
,
1000
0000
0000
0000
0100
0000
0000
0000
1000
0000
0000
1000
0000
0000
0001
0000
,
1000
0000
0010
0000
1000
0001
1000
0000
,
0001
0000
0010
0000
0001
1000
0001
0000
,
1000
0010
1000
0000
0001
0010
0001
0000
,
1000
0000
0001
0000
1000
0000
0000
0000
0100
0000
0000
0100
0000
0000
0100
0000
,
0020
0000
0000
0000
,
0000
0000
0000
0000
,
0230
0000
0000
0000
,
0000
0000
0000
0000
,
2300
0000
0000
0000
,
0000
0000
0000
0000
,
3002
0000
0000
0000
,
0000
0000
0000
0000
,
1003
0100
1000
0000
0000
1000
0000
0000
,
0010
0000
0000
0010
0000
0000
0100
0000
,
0001
0010
0001
0000
0000
0001
0000
0000
,
0100
0000
0000
0100
0000
0000
0010
0000
,
1000
0001
1000
0000
0000
1000
0000
0000
,
0100
0000
0000
0100
0000
0000
0010
0000
,
0001
1000
0001
0000
0000
0001
0000
0000
,
0100
0000
0000
0100
0000
0000
0010
0000
,
1001
0000
0000
0000
0000
0000
0000
0000
1000
0000
0000
1000
0000
0000
1000
0000
,
0000
1000
0000
0000
1000
0000
0000
0000
0001
0000
0000
0001
0000
0000
0001
0000
,
0100
0000
0000
0000
0000
0000
0000
0000
0010
0000
0000
0010
0000
0000
0010
0000
,
0100
0000
0000
0100
0000
0000
0100
0000
0000
0100
0000
0000
0000
0000
0000
0000
,
0001
0000
0000
0001
0000
0000
0001
0000
1000
0000
0000
1000
0000
0000
1000
0000
,
0100
0000
0000
0100
0000
0000
0100
0000
0010
0000
0000
0010
0000
0000
0010
0000
,
0001
0001
1000
1000
,
1002
0000
0000
0000
0003
1000
0010
0000
,
1000
0100
1000
0000
0010
0000
0100
0000
,
0001
0010
0001
0000
1000
0010
1000
0000
,
0001
0000
0010
0000
0001
1000
0001
0000
,
1000
0000
0010
0000
0100
0000
0001
0010
,
0200
0000
0000
0000
0300
1000
0010
1000
,
0001
0000
0100
0000
0010
0000
1000
0100
,
0020
0000
0000
0000
0030
0001
0100
0001
,
1000
0000
0000
1000
0000
0000
1000
0000
0001
0000
0000
0001
0000
0000
0001
0000
,
1000
0010
1000
0000
0100
0000
0010
0000
,
0001
0100
0001
0000
1000
0100
1000
0000
,
0001
0000
0100
0000
0001
1000
0001
0000
,
1000
0000
0100
0000
0010
0000
0001
0100
,
0020
0000
0000
0000
0030
1000
0100
1000
,
0001
0010
0100
1000
,
0010
0000
0000
0010
0000
0000
0010
0000
0000
0010
0000
0000
0100
0000
0000
0000
,
0001
0000
0000
0001
0000
0000
0001
0000
1000
0000
0000
1000
0000
0000
1000
0000
,
0100
0010
0001
1000
,
0001
0010
0001
0000
1000
0010
1000
0000
,
0001
0010
0100
1000
,
0010
0100
0010
0000
1000
0001
1000
0000
,
0001
0000
0000
0001
0000
0000
0001
0000
0000
0001
0000
0000
0001
0000
1000
0000
,
0100
0000
0000
0100
0000
0000
0100
0000
0000
0100
0000
0000
0100
0000
0010
0000
,
0001
0000
1000
0000
0000
1000
0000
0000
1000
0000
0010
0000
0000
0010
0000
0000
,
0020
0000
0000
0000
,
0000
0000
0000
0000
,
0000
0000
0000
0000
,
0000
0000
0000
0030
;

//---------------dance-single - ----------------
#NOTEDATA:;
#CHARTNAME:;
#STEPSTYPE:dance-single;
#DESCRIPTION:;
#CHARTSTYLE:;
#DIFFICULTY:Easy;
#METER:6;
#RADARVALUES:0.267578,0.373494,0.160547,0.071354,0.000000,210.000000,192.000000,18.000000,8.000000,0.000000,0.000000,0.000000,0.000000,0.000000,0.267578,0.373494,0.160547,0.071354,0.000000,210.000000,192.000000,18.000000,8.000000,0.000000,0.000000,0.000000,0.000000,0.000000;
#CREDIT:;
#NOTES:
0000
0000
0000
0000
,
0000
0000
0000
0000
,
0000
0000
0000
0000
,
0000
0000
0000
0000
,
0000
0000
0000
0000
,
0000
0000
0000
0000
,
0000
0000
0000
0000
,
0000
0000
0000
0000
,
0000
0000
0000
0000
,
1001
0000
0110
0000
,
1001
0000
1000
0001
,
1001
0000
0110
0000
,
1001
0000
0001
1000
,
1001
0000
0110
0000
,
1001
0000
1000
0001
,
1001
0000
0110
0000
,
1001
0000
0000
0000
,
1000
0100
0010
0100
,
1000
0010
0100
0001
,
1000
0100
0010
0001
,
1000
0010
0100
0010
,
1000
0001
0010
0001
,
1000
0010
0100
0010
,
1000
0100
0010
0100
,
1000
0000
0000
0001
0000
0000
1000
0000
,
0001
0010
0100
0010
,
0001
0100
0010
1000
,
0001
0010
0100
1000
,
0001
0100
0010
0100
,
0001
1000
0100
1000
,
0001
0100
0001
1000
,
0001
0001
1000
1000
,
0100
0100
0010
0000
,
0020
0000
0000
0000
,
0000
0000
0000
0000
,
0230
0000
0000
0000
,
0000
0000
0000
0000
,
2300
0000
0000
0000
,
0000
0000
0000
0000
,
3002
0000
0000
0000
,
0000
0000
0000
0000
,
1003
0000
0010
0000
,
1000
0000
0010
0000
,
0100
0000
0001
0000
,
0100
0000
0001
0000
,
1000
0000
0100
0000
,
1000
0000
0100
0000
,
0010
0000
0001
0000
,
0010
0000
0001
0000
,
1000
0000
1001
0000
,
0110
0000
1001
0000
,
0001
0000
1001
0000
,
0110
0000
1001
0000
,
1000
0000
1000
0000
,
0001
0000
0001
0000
,
0010
0010
0100
0100
,
1000
0000
0000
0000
,
0001
0001
0100
0010
,
1000
1000
0100
0010
,
0001
0001
0010
0100
,
1000
1000
0010
0100
,
0002
0000
0003
1000
,
0100
0010
0100
1000
,
0020
0000
0030
0100
,
0001
0000
1000
0000
,
0001
0001
0010
0100
,
1000
1000
0010
0100
,
0001
0001
0100
0010
,
1000
1000
0100
0010
,
0002
0000
0003
1000
,
0010
0100
0010
1000
,
0100
0000
0010
0000
,
0001
0000
0100
0000
,
0001
1000
0100
0100
,
0010
0010
0001
0001
,
1000
0010
0100
0100
,
0001
0001
0010
0010
,
0001
0000
0100
0000
,
0010
0000
1000
0000
,
0100
0000
0010
0000
,
0002
0000
0000
0000
,
0000
0000
0000
0000
,
0000
0000
0000
0000
,
0000
0000
0000
0003
;

//---------------dance-single - ----------------
#NOTEDATA:;
#CHARTNAME:;
#STEPSTYPE:dance-single;
#DESCRIPTION:;
#CHARTSTYLE:;
#DIFFICULTY:Beginner;
#METER:4;
#RADARVALUES:0.128692,0.186747,0.000000,0.008919,0.000000,101.000000,101.000000,0.000000,1.000000,0.000000,0.000000,0.000000,0.000000,0.000000,0.128692,0.186747,0.000000,0.008919,0.000000,101.000000,101.000000,0.000000,1.000000,0.000000,0.000000,0.000000,0.000000,0.000000;
#CREDIT:;
#NOTES:
// measure 0
0000
0000
0000
0000
,  // measure 1
0000
0000
0000
0000
,  // measure 2
0000
0000
0000
0000
,  // measure 3
0000
0000
0000
0000
,  // measure 4
0000
0000
0000
0000
,  // measure 5
0000
0000
0000
0000
,  // measure 6
0000
0000
0000
0000
,  // measure 7
0000
0000
0000
0000
,  // measure 8
0000
0000
0000
0000
,  // measure 9
1000
0000
0000
0000
,  // measure 10
0001
0000
0000
0000
,  // measure 11
1000
0000
0000
0000
,  // measure 12
0001
0000
0000
0000
,  // measure 13
0010
0000
0000
0000
,  // measure 14
0100
0000
0000
0000
,  // measure 15
0010
0000
0000
0000
,  // measure 16
0100
0000
0000
0000
,  // measure 17
1000
0000
1000
0000
,  // measure 18
0001
0000
0001
0000
,  // measure 19
1000
0000
1000
0000
,  // measure 20
0001
0000
0001
0000
,  // measure 21
0100
0000
0100
0000
,  // measure 22
0010
0000
0010
0000
,  // measure 23
0100
0000
0100
0000
,  // measure 24
0010
0000
0000
0000
,  // measure 25
1000
0000
1000
0000
,  // measure 26
0001
0000
0001
0000
,  // measure 27
1000
0000
1000
0000
,  // measure 28
0001
0000
0001
0000
,  // measure 29
0010
0000
0010
0000
,  // measure 30
0100
0000
0100
0000
,  // measure 31
0010
0000
0010
0000
,  // measure 32
0100
0000
0100
0000
,  // measure 33
1000
0000
0000
0000
,  // measure 34
0000
0000
0000
0000
,  // measure 35
0001
0000
0000
0000
,  // measure 36
0000
0000
0000
0000
,  // measure 37
1000
0000
0000
0000
,  // measure 38
0000
0000
0000
0000
,  // measure 39
0001
0000
0000
0000
,  // measure 40
0000
0000
0000
0000
,  // measure 41
1000
0000
0000
0000
,  // measure 42
0010
0000
0000
0000
,  // measure 43
0100
0000
0000
0000
,  // measure 44
0001
0000
0000
0000
,  // measure 45
1000
0000
0000
0000
,  // measure 46
0100
0000
0000
0000
,  // measure 47
0010
0000
0000
0000
,  // measure 48
0001
0000
0000
0000
,  // measure 49
1000
0000
0000
0000
,  // measure 50
1000
0000
0000
0000
,  // measure 51
0001
0000
0000
0000
,  // measure 52
0001
0000
0000
0000
,  // measure 53
0100
0000
0000
0000
,  // measure 54
0100
0000
0000
0000
,  // measure 55
0010
0000
0100
0000
,  // measure 56
0010
0000
0000
0000
,  // measure 57
1000
0000
1000
0000
,  // measure 58
0010
0000
0010
0000
,  // measure 59
1000
0000
1000
0000
,  // measure 60
0010
0000
0010
0000
,  // measure 61
0100
0000
0000
0000
,  // measure 62
0001
0000
0001
0000
,  // measure 63
0100
0000
0000
0000
,  // measure 64
0001
0000
0001
0000
,  // measure 65
1000
0000
1000
0000
,  // measure 66
0001
0000
0001
0000
,  // measure 67
0010
0000
0010
0000
,  // measure 68
0100
0000
0100
0000
,  // measure 69
1000
0000
0000
0000
,  // measure 70
0001
0000
0001
0000
,  // measure 71
0100
0000
0000
0000
,  // measure 72
0010
0000
0010
0000
,  // measure 73
1000
0000
1000
0000
,  // measure 74
0001
0000
0001
0000
,  // measure 75
1000
0000
1000
0000
,  // measure 76
0001
0000
0001
0000
,  // measure 77
1000
0000
0000
0000
,  // measure 78
1000
0000
0000
0000
,  // measure 79
0010
0000
0010
0000
,  // measure 80
0200
0000
0000
0000
,  // measure 81
0000
0000
0000
0000
,  // measure 82
0000
0000
0000
0000
,  // measure 83
0000
0000
0000
0300
;
