#TITLE:イイナヅケブルー;
#SUBTITLE:;
#ARTIST:Charisma.com;
#TITLETRANSLIT:Iinazuke Blue;
#SUBTITLETRANSLIT:;
#ARTISTTRANSLIT:;
#GENRE:ELECTRO POP;
#CREDIT:;
#BANNER:Iinazuke Blue.png;
#BACKGROUND:Iinazuke Blue-bg.png;
#LYRICSPATH:;
#CDTITLE:cdtitle.png;
#MUSIC:Iinazuke Blue.ogg;
#OFFSET:-0.080000;
#SAMPLESTART:61.890663;
#SAMPLELENGTH:15.077188;
#SELECTABLE:YES;
#BPMS:0.000000=128.000000
;
#STOPS:
;
#BGCHANGES:0.000=Iinazuke Blue.avi=1.000=0=0=0=StretchNoLoop==CrossFade_Fastest==,
99999=-nosongbg-=1.000=0=0=0 // don't automatically add -songbackground-
;
#KEYSOUNDS:;
#ATTACKS:;

//---------------dance-single - ----------------
#NOTES:
     dance-single:
     :
     Hard:
     11:
     0.525944,0.542918,0.021159,0.179849,0.444332,348.000000,346.000000,2.000000,17.000000,0.000000,0.000000,0.525944,0.542918,0.021159,0.179849,0.444332,348.000000,346.000000,2.000000,17.000000,0.000000,0.000000:
0000
0000
0000
0000
,
1000
0000
0001
0000
1000
0010
0000
0100
0001
0000
0010
0100
0000
1000
0001
0000
,
0010
0000
0001
0000
1000
0001
0000
0010
0100
0000
1000
0010
0000
0100
0001
0000
,
0010
0000
0010
0000
0100
0000
1000
0001
0000
1000
0001
0000
0000
0000
0100
0000
,
0010
0000
0010
0000
0100
0000
0001
1000
0000
0001
1000
0000
0000
0000
0000
0000
,
0100
0000
0100
0010
0000
0010
0001
1000
0001
1000
0001
1000
,
0001
0000
0000
0000
0010
0000
0000
0000
0100
0000
0000
0000
1000
0000
0000
0000
0000
0000
0001
0000
0000
0100
0000
0000
0000
0000
0000
0100
0000
0000
0010
0000
0000
0000
0000
0000
1000
0000
0000
0000
0000
0000
0100
0000
0000
0000
0000
0000
,
0000
1000
0010
0001
0010
0100
0001
0000
,
2002
0000
0000
0000
0000
0000
0000
0000
0000
0000
0000
3003
0000
0000
0000
0000
,
1000
0000
0100
0000
0001
0000
0100
1000
0000
0010
0000
0100
0001
0000
0010
0000
,
0001
0000
0100
0000
1000
0000
0100
0001
0000
0010
0000
0100
1000
0000
0010
0000
,
0200
0000
0310
1000
0000
1000
0000
1000
,
0020
0000
0130
0001
0010
0000
0100
0000
,
1000
0000
0010
0000
0001
0000
0010
1000
0000
0100
0000
0010
0001
0000
0100
0000
,
0001
0000
0010
0000
1000
0000
0010
0001
0000
0100
0000
0010
1000
0000
0100
0000
,
0020
0000
0130
1000
0000
1000
0000
1000
,
0200
0000
0000
0300
0000
0000
0000
0000
,
2000
0000
3010
0000
0100
0001
0010
0100
,
0020
0000
0031
0000
0100
0010
1000
0100
,
0020
0000
0130
0000
1000
0010
0100
0001
,
0010
0100
1000
0001
0010
0001
1000
0010
,
0200
0000
0301
0000
0010
0100
1000
0001
,
0200
0000
0310
0000
1000
0100
0001
0100
,
1000
0010
0100
0001
0010
0100
0010
0001
,
1000
0010
0100
0010
1000
0001
1000
0000
,
0000
0000
0000
0000
0001
0000
0100
0001
0000
0010
0000
0100
1000
0000
0010
0000
,
0100
0000
0001
0000
0010
0000
0001
0100
0000
0001
0000
1000
0100
0000
1000
0000
,
0000
0000
0000
0000
0010
0000
1000
0010
0000
1000
0000
0001
0010
0000
0001
0000
,
1000
0000
0001
0000
0100
0000
0001
0010
0000
0100
0000
1000
0010
0000
0100
0000
,
0001
0000
0010
0000
0010
0000
0000
0100
0000
1000
0000
0010
0100
0000
0000
0001
,
0000
1000
0001
1000
0000
0001
0100
0000
0001
0010
0000
0100
1000
0000
0000
0000
,
0001
1000
0100
1000
0001
1000
0010
1000
,
0001
0000
0010
0000
0100
0000
0010
0000
0001
0000
1000
0000
0010
0000
1000
0001
,
1000
0000
0100
0000
0001
0000
0100
1000
0000
0010
0000
0100
0001
0000
0010
0000
,
0001
0000
0100
0000
1000
0000
0100
0001
0000
0010
0000
0100
1000
0000
0010
0000
,
0200
0000
0301
0010
0000
0010
0000
0010
,
0200
0000
1300
0010
1000
0000
0001
0000
,
1000
0000
0010
0000
0001
0000
0010
1000
0000
0100
0000
0010
0001
0000
0100
0000
,
0001
0000
0010
0000
1000
0000
0010
0001
0000
0100
0000
0010
1000
0000
0100
0000
,
0020
0000
0000
0000
0031
0000
0100
0000
0000
0000
0100
0000
0010
0100
0010
0000
,
2002
0000
0000
3003
,
1000
0000
0100
0000
0010
0000
0100
1000
0000
0001
0000
0100
0010
0000
1000
0000
,
0001
0000
0100
0000
0010
0000
0100
0001
0000
1000
0000
0100
0010
0000
0001
0000
,
1000
0010
1000
0001
0000
0001
0000
0001
,
0010
0100
0010
0001
1000
0000
0100
0000
,
1000
0000
0010
0000
0100
0000
0010
1000
0000
0001
0000
0010
0100
0000
1000
0000
,
0001
0000
0010
0000
0100
0000
0010
0001
0000
1000
0000
0010
0100
0000
0001
0000
,
1000
0000
0010
0000
1000
0000
0001
0000
0000
0000
0001
0010
0001
0010
0100
1000
,
0200
0000
0000
0000
0000
0000
0000
0300
;

//---------------dance-single - ----------------
#NOTES:
     dance-single:
     :
     Challenge:
     13:
     0.664986,0.698037,0.169269,0.158690,0.899243,440.000000,424.000000,16.000000,15.000000,0.000000,0.000000,0.664986,0.698037,0.169269,0.158690,0.899243,440.000000,424.000000,16.000000,15.000000,0.000000,0.000000:
0000
0000
0000
0000
,
1000
0000
0010
0000
1000
0100
0000
1000
0001
0000
0010
0100
0000
1000
0010
1000
,
0010
0000
0100
0000
0001
0010
0000
0001
1000
0000
0100
0010
0000
0001
0100
0000
,
0010
0000
0010
0000
1000
0000
0100
0010
0000
0100
0010
0000
0000
0000
0001
0000
,
0010
0000
0010
0000
0001
0000
0100
0010
0000
0100
0010
0000
0000
0000
1000
0000
,
0100
0000
0100
1000
0000
1000
0001
0010
0001
1000
0010
1000
,
0100
0000
0000
0000
0010
0000
0000
0000
0001
0000
0000
0000
0100
0000
0000
0000
0000
0000
0001
0000
0000
0100
0000
0000
0000
0000
0000
0010
0000
0000
1000
0000
0000
0010
0000
0000
1000
0000
0000
0000
0000
0000
0100
0000
0000
0000
0000
0000
,
0010
0000
0001
1000
0001
1000
0001
0000
0100
0000
0010
0100
0010
0000
0000
0000
,
1000
0000
1000
0000
0001
0000
0100
0001
0100
0010
0100
0010
0000
0000
0000
0000
,
1000
0000
1000
0000
0010
0000
0100
0001
0000
0010
0000
0100
0010
0000
0011
0000
,
0001
0000
0001
0000
0010
0000
0100
1000
0000
0010
0000
0100
0010
0000
1010
0000
,
2000
0000
3100
0010
0000
0101
0000
1010
,
0200
0000
1300
0010
0100
0000
0001
0000
,
1000
0000
1000
0000
0100
0000
0010
0100
0000
1000
0000
0001
0100
0000
0110
0000
,
0001
0000
0001
0000
0100
0000
0010
0100
0000
0001
0000
1000
0100
0000
0110
0000
,
0020
0000
0000
0000
0031
0000
1000
0000
0000
0000
0001
0010
0001
0010
0001
0010
,
0200
0000
0000
0000
0000
0000
0300
0000
0000
1000
0000
1000
0010
0000
0100
0001
,
0200
0000
0000
0000
0301
0000
0000
0010
0000
0100
0000
1000
0000
0010
0100
0000
,
0002
0000
0000
0000
0013
0000
0000
0001
0000
1000
0000
0100
1000
0000
0010
1000
,
0020
0000
0000
0000
0130
0000
0000
0001
0000
0100
0000
0010
1000
0010
0000
1000
,
0100
0000
0010
0001
0010
0001
1000
0001
0000
0100
0001
0100
0010
1000
0010
0100
,
0020
0000
0000
0000
1030
0000
0000
0001
0000
0100
0001
0000
0010
0100
0010
0100
,
2000
0000
0000
0000
3010
0000
0000
0100
0000
0001
0000
0010
0100
0000
0010
0000
,
0001
0000
1000
0000
0010
0000
0100
1000
0000
0100
0000
0001
1000
0000
0100
0010
,
0100
0010
0001
0000
1000
0010
1000
0010
0100
0001
0100
0001
0010
0100
0000
1000
,
0001
0000
0100
0010
0100
0000
0001
0010
0000
0001
0000
1000
0010
0000
1000
0100
,
0000
1000
0000
0001
0100
0000
0010
1000
0000
0100
0000
0010
0001
0000
0100
0000
,
0010
0000
0010
1000
0010
0000
0100
0001
0000
0010
0000
0100
1000
0000
0010
0100
,
0000
0001
0000
0010
0001
0000
1000
0100
0000
0001
0000
0100
1000
0100
0000
0010
,
0100
0000
0100
0000
1000
0000
0000
0001
0000
0001
0000
0001
0100
0000
0000
0010
,
0000
1000
0010
1000
0000
0001
0010
0000
0001
1000
0000
0001
0100
0000
0000
0000
,
0010
1000
0000
0100
0010
0100
0000
0010
0000
0001
1000
0001
1000
0001
0000
1000
,
0000
0010
0100
0010
0100
0000
0001
0010
0001
0010
0100
1000
0100
0000
1000
0001
,
1000
0000
1000
0000
0100
0000
0010
0100
0000
1000
0000
0010
0100
0000
0101
0000
,
0001
0000
0001
0000
0100
0000
0010
0100
0000
0001
0000
0010
0100
0000
1100
0000
,
2000
0000
3010
0100
0000
0110
0000
1001
,
0002
0000
0013
0100
0010
0000
0001
0000
,
1000
0000
1000
0000
0010
0000
0100
0010
0000
1000
0000
0100
0010
0000
0011
0000
,
0001
0000
0001
0000
0010
0000
0100
0010
0000
0001
0000
0100
0010
0000
1010
0000
,
2000
0000
0000
0000
3100
0000
0010
0000
0000
0000
0110
0000
0010
0100
0010
0000
,
2002
0000
0000
0000
0000
0000
0000
3003
,
1000
0010
1000
0000
0001
0000
0010
0100
0000
1000
0000
0010
0100
0000
0001
0000
,
0010
0001
0010
0000
0100
0000
1000
0010
0000
0100
0000
0001
1000
0000
0010
0000
,
1000
0100
1000
0000
0001
0000
0010
0000
0000
0000
0011
0000
0000
0000
0101
0000
,
0001
1000
0001
0000
0100
0000
0010
0000
1000
0000
0100
0000
0010
0000
0000
0000
,
0001
0100
0001
0000
0010
0000
0100
1000
0000
0010
0000
0100
0001
0000
1000
0000
,
0010
0100
0010
0000
1000
0000
0100
0010
0000
0001
0000
0100
0010
0000
1000
0000
,
0001
0010
0001
0010
0100
1000
0100
1000
0001
0100
0001
0100
0010
1000
0010
1000
,
0200
0000
0000
0000
0000
0000
0000
0300
;

//---------------dance-single - ----------------
#NOTES:
     dance-single:
     :
     Medium:
     8:
     0.398992,0.380856,0.095214,0.116373,0.000000,264.000000,255.000000,9.000000,11.000000,0.000000,0.000000,0.398992,0.380856,0.095214,0.116373,0.000000,264.000000,255.000000,9.000000,11.000000,0.000000,0.000000:
0000
0000
0000
0000
,
1000
0100
1000
0001
0100
0001
0010
0000
,
0001
0100
0001
1000
0100
1000
0010
0000
,
1000
1000
0001
0100
0001
0010
0000
0000
,
0001
0001
0100
0010
1000
0100
0000
0000
,
2000
3020
0230
0302
,
0023
0000
0230
0000
1300
0010
1000
0100
,
0000
1000
0001
1000
0001
0010
0100
0000
,
1001
0000
0000
0000
,
0001
0100
0010
0000
1000
0100
0010
0100
,
1000
0010
0100
0000
0001
0010
0100
0010
,
0001
0000
1000
0000
0010
0100
0010
0000
,
1000
0000
0001
0000
0010
0100
0010
0000
,
0001
0010
0100
0000
1000
0010
0100
0010
,
1000
0100
0010
0000
0001
0100
0010
0100
,
0001
0000
1000
0000
0100
0010
0100
0000
,
1000
0000
0000
0000
,
0002
0000
1003
0000
0010
0100
0010
0000
,
2000
0000
3001
0000
0100
0001
0010
0000
,
0002
0000
1003
0000
0100
1000
0010
0000
,
1000
0100
0010
0100
1000
0010
0100
0000
,
0002
0000
1003
0000
0100
0010
0001
0000
,
2000
0000
3001
0000
0100
0010
1000
0000
,
0001
0100
0001
0000
0010
0100
1000
0000
,
0010
0100
0010
1000
0100
0010
0001
1000
,
0000
0110
0010
0110
,
1000
1001
0001
1001
,
0000
1100
0001
0101
,
1000
1010
0001
0011
,
1000
0100
0010
0000
0100
1000
0001
0000
,
0100
0010
1000
0010
0100
0001
0010
0000
,
0001
0100
0001
0000
1000
0100
1000
0000
,
0010
0100
0001
0000
1000
0001
1000
0000
,
0001
0100
0010
0000
1000
0100
0010
0100
,
1000
0010
0100
0000
0001
0010
0100
0010
,
0001
0000
1000
0000
0010
0100
0010
0000
,
1000
0000
0001
0000
0010
0100
0010
0000
,
0001
0010
0100
0000
1000
0010
0100
0010
,
1000
0100
0010
0000
0001
0100
0010
0100
,
0001
0000
1000
0000
0100
0010
0100
0000
,
1000
0000
0000
0000
,
0001
0000
1000
0000
0010
0100
0010
0000
,
1000
0000
0100
0000
1000
0010
1000
0000
,
0001
1000
0001
1000
0000
0010
0000
0100
,
0001
0010
0001
0010
0000
0000
0001
0000
,
1000
0000
0010
0000
0100
0001
0100
0000
,
0001
0000
0010
0000
0100
1000
0100
0000
,
1000
0010
1000
0010
0000
0100
0001
0010
,
0001
0000
0000
0000
;

//---------------dance-single - ----------------
#NOTES:
     dance-single:
     :
     Easy:
     4:
     0.219143,0.228513,0.000000,0.000000,0.000000,145.000000,145.000000,0.000000,0.000000,0.000000,0.000000,0.219143,0.228513,0.000000,0.000000,0.000000,145.000000,145.000000,0.000000,0.000000,0.000000,0.000000:
0000
0000
0000
0000
,
1000
0001
1000
0010
,
0100
0001
0010
0100
,
1000
0010
1000
0000
,
0001
0010
0001
0000
,
0100
0100
0010
0010
,
1000
1000
0001
0001
,
0000
1000
0010
1000
,
0001
0000
0000
0000
,
1000
1000
0001
0001
,
1000
1000
0001
0001
,
0100
0000
0000
0000
,
0100
0000
0000
0000
,
0001
0001
1000
1000
,
0001
0001
1000
1000
,
0010
0000
0000
0000
,
0010
0000
0000
0000
,
1000
0001
0100
0010
,
1000
0001
0010
0100
,
1000
0001
1000
0100
,
1000
0010
0100
0001
,
1000
0001
0010
0100
,
1000
0001
1000
0100
,
0000
1000
0010
0100
,
0001
0010
0100
1000
,
0000
0001
0100
0010
,
1000
0100
0010
0001
,
0000
1000
0010
0100
,
0001
0010
0100
1000
,
0001
0001
1000
1000
,
0010
0100
0010
0010
,
1000
0000
0001
0000
,
1000
0010
0100
0001
,
1000
1000
0001
0001
,
1000
1000
0001
0001
,
0100
0000
0000
0000
,
0100
0000
0000
0000
,
0001
0001
1000
1000
,
0001
0001
1000
1000
,
0010
0000
0000
0000
,
0010
0000
0000
0000
,
1000
1000
0001
0100
,
0001
0001
1000
0100
,
1000
0000
0000
0000
,
0001
0000
0000
0000
,
1000
1000
0001
0010
,
0001
0001
1000
0010
,
1000
0000
0000
0000
,
0001
0000
0000
0000
;

//---------------dance-single - ----------------
#NOTES:
     dance-single:
     :
     Beginner:
     1:
     0.072544,0.076171,0.000000,0.000000,0.000000,48.000000,48.000000,0.000000,0.000000,0.000000,0.000000,0.072544,0.076171,0.000000,0.000000,0.000000,48.000000,48.000000,0.000000,0.000000,0.000000,0.000000:
// measure 0
0000
0000
0000
0000
,  // measure 1
1000
0000
0000
0000
,  // measure 2
0001
0000
0000
0000
,  // measure 3
1000
0000
0000
0000
,  // measure 4
0001
0000
0000
0000
,  // measure 5
0100
0000
0000
0000
,  // measure 6
0010
0000
0000
0000
,  // measure 7
0100
0000
0000
0000
,  // measure 8
0010
0000
0000
0000
,  // measure 9
1000
0000
0000
0000
,  // measure 10
1000
0000
0000
0000
,  // measure 11
0001
0000
0000
0000
,  // measure 12
0001
0000
0000
0000
,  // measure 13
1000
0000
0000
0000
,  // measure 14
1000
0000
0000
0000
,  // measure 15
0001
0000
0000
0000
,  // measure 16
0001
0000
0000
0000
,  // measure 17
1000
0000
0000
0000
,  // measure 18
0010
0000
0000
0000
,  // measure 19
1000
0000
0000
0000
,  // measure 20
0010
0000
0000
0000
,  // measure 21
0100
0000
0000
0000
,  // measure 22
0001
0000
0000
0000
,  // measure 23
0100
0000
0000
0000
,  // measure 24
0001
0000
0000
0000
,  // measure 25
1000
0000
0000
0000
,  // measure 26
0100
0000
0000
0000
,  // measure 27
1000
0000
0000
0000
,  // measure 28
0100
0000
0000
0000
,  // measure 29
0010
0000
0000
0000
,  // measure 30
0001
0000
0000
0000
,  // measure 31
0010
0000
0000
0000
,  // measure 32
0001
0000
0000
0000
,  // measure 33
1000
0000
0000
0000
,  // measure 34
1000
0000
0000
0000
,  // measure 35
0001
0000
0000
0000
,  // measure 36
0001
0000
0000
0000
,  // measure 37
1000
0000
0000
0000
,  // measure 38
1000
0000
0000
0000
,  // measure 39
0001
0000
0000
0000
,  // measure 40
0001
0000
0000
0000
,  // measure 41
1000
0000
0000
0000
,  // measure 42
0001
0000
0000
0000
,  // measure 43
0100
0000
0000
0000
,  // measure 44
0010
0000
0000
0000
,  // measure 45
1000
0000
0000
0000
,  // measure 46
0001
0000
0000
0000
,  // measure 47
0010
0000
0000
0000
,  // measure 48
0100
0000
0000
0000
;
