#VERSION:0.83;
#TITLE:I Need You -Nu Platinum Mix-;
#SUBTITLE:;
#ARTIST:Supa Fova feat. Jenny F.;
#TITLETRANSLIT:;
#SUBTITLETRANSLIT:;
#ARTISTTRANSLIT:;
#GENRE:ELECTRO HOUSE POP;
#ORIGIN:;
#CREDIT:;
#BANNER:I Need You -Nu Platinum Mix-.png;
#BACKGROUND:I Need You -Nu Platinum Mix--bg.png;
#PREVIEWVID:;
#JACKET:I Need You -Nu Platinum Mix--jacket.png;
#CDIMAGE:;
#DISCIMAGE:;
#LYRICSPATH:;
#CDTITLE:cdtitle.png;
#MUSIC:I Need You -Nu Platinum Mix-.ogg;
#OFFSET:-0.040000;
#SAMPLESTART:61.868000;
#SAMPLELENGTH:14.546000;
#SELECTABLE:YES;
#BPMS:0.000=132.000;
#STOPS:;
#DELAYS:;
#WARPS:;
#TIMESIGNATURES:0.000=4=4;
#TICKCOUNTS:0.000=4;
#COMBOS:0.000=1;
#SPEEDS:0.000=1.000=0.000=0;
#SCROLLS:0.000=1.000;
#FAKES:;
#LABELS:0.000=Song Start;
#BGCHANGES:;
#KEYSOUNDS:;
#ATTACKS:
;

//---------------dance-single - ----------------
#NOTEDATA:;
#CHARTNAME:;
#STEPSTYPE:dance-single;
#DESCRIPTION:;
#CHARTSTYLE:;
#DIFFICULTY:Hard;
#METER:10;
#RADARVALUES:0.480411,0.499881,0.102864,0.087039,0.221554,425.000000,412.000000,13.000000,11.000000,0.000000,0.000000,0.000000,0.000000,0.000000,0.480411,0.499881,0.102864,0.087039,0.221554,425.000000,412.000000,13.000000,11.000000,0.000000,0.000000,0.000000,0.000000,0.000000;
#CREDIT:;
#NOTES:
0000
0000
0000
0000
,
0000
0000
0000
0000
,
0000
0000
0000
0000
,
0000
0000
0000
0000
,
1000
0100
0000
1000
0000
0001
0000
0010
0000
0000
0100
0000
1000
0000
0001
0000
,
0100
0010
0000
0100
0000
0001
0000
1000
0000
0000
0001
0100
0000
0000
0000
0000
,
0010
0000
0000
0010
0000
0000
0100
0000
0000
0001
1000
0000
0100
0000
0010
0000
,
0100
0000
0000
0100
0000
0000
0000
1000
0001
0000
0100
0000
0001
0010
0000
0000
,
0100
0100
0100
0100
,
0100
0100
0200
1300
,
1001
0001
0010
0100
0000
0100
0010
0001
,
0000
0001
1000
0020
0000
0000
0130
0000
,
1000
1000
0001
0100
0000
0100
0001
0010
,
0000
0010
0100
2000
0000
0000
3001
0100
,
0001
0001
0010
0100
0000
0100
1000
0010
,
0000
0010
0100
0002
0000
0000
0013
0000
,
1000
1000
0100
0001
0000
0001
0100
1000
,
0000
1000
0001
0100
0001
0010
1000
0010
,
0001
0001
1000
0100
0000
0100
0010
0001
,
0000
0001
0010
0200
0000
0000
1300
0000
,
0010
0010
0001
0100
0000
0100
0010
1000
,
0000
1000
0001
0020
0000
0000
0130
1000
,
0100
0100
0010
0001
0000
0001
1000
0010
,
0000
0010
0100
2000
0000
0000
3100
0000
,
0010
0010
1000
0010
0000
0010
0001
0010
,
0000
0010
1000
0100
0010
0001
0010
0000
,
1001
0000
0101
0000
0001
0010
0100
1000
,
0000
0001
0100
0010
0000
1000
0001
1000
,
0010
0000
0110
0000
1000
0100
0010
0001
,
0000
1000
0001
1000
0000
0001
0100
0010
,
0100
0000
0101
0000
0001
1000
0100
0010
,
0000
0100
1000
0001
0000
1000
0010
0001
,
0010
0000
1010
0000
1000
0001
0010
0100
,
0000
0000
0010
0000
0001
0000
1000
0000
0001
0100
0000
0010
0000
1000
0000
0100
,
0020
0000
0001
0000
1000
0000
0130
1000
,
0001
0000
1000
0000
0100
0000
0010
0000
0000
0000
0100
0000
1000
0000
0001
1000
,
0001
0000
0101
0100
0010
1000
0100
0010
,
0000
0010
0001
0100
0000
0010
0010
1000
,
0100
0001
0100
0010
0100
0000
0010
0001
,
1000
0001
0100
0010
0000
1000
0100
0010
,
0010
0100
1000
0001
0100
0010
0100
0002
,
1000
0000
0100
0000
0013
0000
0100
0001
,
1000
0010
0100
0010
1000
0000
0001
0000
,
0100
0001
0010
0100
0010
0000
0001
1000
,
0001
0010
0100
0010
1000
0000
0010
0000
,
0001
1000
0010
0100
0001
0000
1000
0100
,
0010
1000
0010
0001
0100
0000
0010
0000
,
1000
0001
0010
0100
0010
0000
0001
1000
,
0001
0010
0100
0001
0100
0000
0010
0000
,
0001
0000
1000
0000
0001
0000
0000
0100
0010
0100
0001
0000
1000
0000
0000
0000
,
1100
0000
0000
0000
1001
0000
0000
0001
0100
0000
0010
0000
0100
0000
0001
0000
,
0010
0000
0100
1000
0100
0000
0010
0000
0100
0000
1000
0000
0001
0000
0100
0000
,
0010
0000
0000
0000
1010
0000
0000
1000
0001
0000
0100
0010
0100
0000
0001
0000
,
0010
1000
0010
0100
0010
0001
0010
0100
,
1000
0000
0000
0000
1010
0000
0000
0010
0100
0000
0001
0000
1000
0000
0100
0000
,
0010
0000
0001
0100
0001
0000
0010
0000
0100
0000
1000
0000
0001
0000
0100
0000
,
0010
0000
0000
0000
1010
0000
0000
1000
0100
0000
0010
0100
0010
0000
0001
0000
,
0100
0010
1000
0010
1000
0100
0010
0001
,
1000
0010
0000
0100
0000
0001
0000
0010
0000
0000
0100
0000
1000
0000
0001
0000
,
0100
0001
0000
1000
0000
0010
0000
0100
0000
0000
0001
0100
0000
0000
0000
0010
,
0100
0000
0001
0000
1000
0100
0000
0000
1000
0000
0010
0000
0100
0000
0001
0000
,
0010
0000
0000
0000
0010
0000
0000
0100
0000
1000
0100
0000
0010
0000
0000
0000
,
0001
1000
0000
0010
0000
0100
0000
0001
0000
0000
0010
0000
0100
0000
1000
0000
,
0010
0100
0000
0001
0000
1000
0000
0100
0000
0000
0010
0001
0000
0000
0000
0000
,
1000
0000
0000
1000
0000
0000
0001
0000
0000
0100
0010
0000
0100
0000
0001
0000
,
0010
0000
0000
0010
0000
0000
0000
0100
1000
0000
0001
0000
1000
0001
0000
0000
,
2002
0000
3003
0000
;

//---------------dance-single - ----------------
#NOTEDATA:;
#CHARTNAME:;
#STEPSTYPE:dance-single;
#DESCRIPTION:;
#CHARTSTYLE:;
#DIFFICULTY:Medium;
#METER:7;
#RADARVALUES:0.318767,0.342024,0.023738,0.213641,0.000000,282.000000,279.000000,3.000000,27.000000,0.000000,0.000000,0.000000,0.000000,0.000000,0.318767,0.342024,0.023738,0.213641,0.000000,282.000000,279.000000,3.000000,27.000000,0.000000,0.000000,0.000000,0.000000,0.000000;
#CREDIT:;
#NOTES:
// measure 0
0000
0000
0000
0000
,  // measure 1
0000
0000
0000
0000
,  // measure 2
0000
0000
0000
0000
,  // measure 3
0000
0000
0000
0000
,  // measure 4
1000
0100
1000
0000
0001
0000
0100
0000
,  // measure 5
0001
0010
0001
0000
1000
0001
1000
0000
,  // measure 6
0100
0100
0010
0010
,  // measure 7
0001
0000
0000
0100
,  // measure 8
0100
0100
0100
0100
,  // measure 9
0100
0100
0200
0310
,  // measure 10
1001
0000
0001
0020
0000
0000
0130
2000
,  // measure 11
0000
0000
3010
0200
0000
0000
0301
0000
,  // measure 12
1000
0000
0100
0020
0000
0000
0031
2000
,  // measure 13
0000
3001
0100
0001
0000
0000
1000
0001
,  // measure 14
1000
0000
0001
0020
0000
0000
0031
0200
,  // measure 15
0000
0000
0310
2000
0000
0000
3100
0000
,  // measure 16
0010
0000
0100
2000
0000
0000
3100
0020
,  // measure 17
0000
0031
1000
0001
1000
0010
1000
0000
,  // measure 18
0001
0000
1000
0020
0000
0000
0130
0002
,  // measure 19
0000
0000
0013
0200
0000
0000
1300
0000
,  // measure 20
0001
0000
0100
0020
0000
0000
1030
0002
,  // measure 21
0000
1003
0100
1000
0000
0000
0001
1000
,  // measure 22
0001
0000
1000
0020
0000
0000
1030
0200
,  // measure 23
0000
0000
0310
0002
0000
0000
0103
0000
,  // measure 24
0010
0000
0100
0002
0000
0000
0103
0020
,  // measure 25
0000
1030
0001
1000
0001
0010
0001
0000
,  // measure 26
1001
1000
0100
0010
,  // measure 27
0100
1000
0010
0100
,  // measure 28
0001
0010
0100
1000
,  // measure 29
0010
0000
0100
0000
0010
0000
1000
0001
,  // measure 30
1000
0100
0010
0001
,  // measure 31
0100
0010
0100
0001
,  // measure 32
0010
0100
1000
0010
,  // measure 33
1000
0000
0001
0000
1000
0010
1000
0001
,  // measure 34
1000
0000
0001
0000
1000
0000
0001
0200
,  // measure 35
0000
0000
0310
2000
0000
0000
3100
0010
,  // measure 36
0001
0000
0100
0000
0010
0000
1000
0100
,  // measure 37
0000
0100
0010
0001
0000
0000
0100
0010
,  // measure 38
1000
0000
0100
0000
0010
0000
0100
2000
,  // measure 39
0000
0000
3001
0100
0000
0010
0000
1000
,  // measure 40
0100
0000
1000
0000
0001
0000
0010
0002
,  // measure 41
0000
0103
0010
1000
,  // measure 42
0001
0001
0100
0010
,  // measure 43
1000
0000
1000
0000
0100
0000
1000
0010
,  // measure 44
1000
0000
0001
0010
0001
0000
1000
0001
,  // measure 45
1000
0010
0100
0001
,  // measure 46
0010
0000
0010
0000
0001
0000
1000
0001
,  // measure 47
1000
0000
1000
0000
0010
0000
0100
0001
,  // measure 48
0100
0001
0010
0100
,  // measure 49
1000
0000
0001
0000
1000
0001
1000
0000
,  // measure 50
0001
0010
0100
0010
,  // measure 51
0001
0100
0010
1000
,  // measure 52
0100
0010
0001
0100
,  // measure 53
0010
1000
0001
1000
,  // measure 54
0001
0100
0010
0100
,  // measure 55
0001
0010
0100
1000
,  // measure 56
0010
0100
0001
1000
,  // measure 57
0001
0000
0010
0000
0100
1000
0100
0000
,  // measure 58
1000
1000
0001
0001
,  // measure 59
1000
0000
0100
0000
0010
0100
1000
0000
,  // measure 60
0001
0001
1000
1000
,  // measure 61
0001
0000
0100
0000
0010
0100
0001
0000
,  // measure 62
1000
1000
0010
0010
,  // measure 63
0100
0000
0001
0000
0010
0100
0010
0000
,  // measure 64
0001
0000
1000
0000
0010
1000
0010
0000
,  // measure 65
0100
0000
0001
0000
0010
0010
0100
0000
,  // measure 66
2002
0000
3003
0000
;

//---------------dance-single - ----------------
#NOTEDATA:;
#CHARTNAME:;
#STEPSTYPE:dance-single;
#DESCRIPTION:;
#CHARTSTYLE:;
#DIFFICULTY:Easy;
#METER:4;
#RADARVALUES:0.218163,0.263095,0.015825,0.205729,0.000000,193.000000,191.000000,2.000000,26.000000,0.000000,0.000000,0.000000,0.000000,0.000000,0.218163,0.263095,0.015825,0.205729,0.000000,193.000000,191.000000,2.000000,26.000000,0.000000,0.000000,0.000000,0.000000,0.000000;
#CREDIT:;
#NOTES:
0000
0000
0000
0000
,
0000
0000
0000
0000
,
0000
0000
0000
0000
,
0000
0000
0000
0000
,
1000
1000
0001
0001
,
0100
0100
0010
0010
,
1000
1000
0001
0001
,
0010
0000
0000
0000
,
0100
0100
0100
0100
,
0100
0100
0200
1300
,
1001
0002
0000
2003
,
0000
3200
0000
0310
,
0001
0200
0000
0320
,
0000
2030
0000
3010
,
0100
0002
0000
0023
,
0000
0230
0000
1300
,
0010
2000
0000
3200
,
0000
0320
0000
0031
,
1000
0002
0000
0203
,
0000
0320
0000
0130
,
0001
0020
0000
0230
,
0000
2300
0000
3010
,
1000
0200
0000
0320
,
0000
0230
0000
1300
,
0001
0200
0000
0320
,
0000
1030
0001
0001
,
1000
0100
0000
0010
,
0000
0001
0000
0100
,
0010
1000
0000
0001
,
0000
0000
0010
0100
,
0010
0001
0000
1000
,
0000
0010
0000
1000
,
0100
1000
0000
0010
,
0000
0100
0001
0010
,
0001
0001
1000
0010
,
0100
0100
0010
0000
,
1000
0100
0010
0100
,
1000
0010
0000
0100
,
0001
0001
0010
0100
,
1000
0010
1000
0000
,
0001
0001
1000
0100
,
0010
0100
1000
0001
,
1000
0010
0000
0010
,
0100
0001
0000
0001
,
0010
0100
0000
0100
,
1000
0010
0000
0010
,
1000
0100
0000
0100
,
0010
0001
0000
0001
,
1000
0001
0010
0100
,
1000
1000
0001
0001
,
1000
0100
0010
0001
,
0010
0100
1000
0000
,
0001
0100
0010
1000
,
0010
0100
0001
0000
,
1000
0100
0010
0100
,
1000
0001
1000
0000
,
0001
0100
0010
0100
,
0001
1000
0001
0000
,
1000
0000
0100
0000
,
0010
0000
0001
1000
,
0001
0000
0100
0000
,
0010
0000
1000
0001
,
1000
1000
0001
0000
,
0001
0001
1000
0000
,
1000
0010
0100
0001
,
0010
0100
1000
0001
,
2002
0000
3003
0000
;

//---------------dance-single - ----------------
#NOTEDATA:;
#CHARTNAME:;
#STEPSTYPE:dance-single;
#DESCRIPTION:;
#CHARTSTYLE:;
#DIFFICULTY:Beginner;
#METER:2;
#RADARVALUES:0.116429,0.131548,0.000000,0.007913,0.000000,103.000000,103.000000,0.000000,1.000000,0.000000,0.000000,0.000000,0.000000,0.000000,0.116429,0.131548,0.000000,0.007913,0.000000,103.000000,103.000000,0.000000,1.000000,0.000000,0.000000,0.000000,0.000000,0.000000;
#CREDIT:;
#NOTES:
0000
0000
0000
0000
,
0000
0000
0000
0000
,
0000
0000
0000
0000
,
0000
0000
0000
0000
,
1000
0000
1000
0000
,
0001
0000
0001
0000
,
1000
0000
0000
0000
,
0001
0000
0000
0000
,
0000
0000
0000
0000
,
0000
0000
0000
0000
,
1000
0000
0010
0000
,
1000
0000
0010
0000
,
0100
0000
0001
0000
,
0100
0000
0001
0000
,
0010
0000
0100
0000
,
0010
0000
0100
0000
,
1000
0000
0001
0000
,
1000
0000
0001
0000
,
1000
0000
0100
0000
,
1000
0000
0100
0000
,
0010
0000
0001
0000
,
0010
0000
0001
0000
,
0100
0000
0010
0000
,
0100
0000
0010
0000
,
1000
0000
0001
0000
,
1000
0000
0001
0000
,
1000
0000
0000
0000
,
0001
0000
0000
0000
,
1000
0000
0000
0000
,
0001
0000
0000
0000
,
0100
0000
0000
0000
,
0010
0000
0000
0000
,
0100
0000
0000
0000
,
0010
0000
0000
0000
,
1000
0000
1000
0000
,
0001
0000
0001
0000
,
1000
0000
1000
0000
,
0001
0000
0001
0000
,
0100
0000
0100
0000
,
0010
0000
0010
0000
,
0100
0000
0100
0000
,
0010
0000
0010
0000
,
1000
0000
1000
0000
,
0001
0000
0001
0000
,
1000
0000
1000
0000
,
0001
0000
0001
0000
,
0010
0000
0010
0000
,
0100
0000
0100
0000
,
0010
0000
0010
0000
,
0100
0000
0100
0000
,
1000
0000
0000
0000
,
0001
0000
0000
0000
,
0100
0000
0000
0000
,
0010
0000
0000
0000
,
1000
0000
0000
0000
,
0100
0000
0000
0000
,
0010
0000
0000
0000
,
0001
0000
0000
0000
,
1000
0000
1000
0000
,
0010
0000
0010
0000
,
1000
0000
1000
0000
,
0001
0000
0001
0000
,
0100
0000
0100
0000
,
0001
0000
0001
0000
,
0010
0000
0010
0000
,
0100
0000
0100
0000
,
2000
0000
3000
0000
;
