#VERSION:0.83;
#TITLE:Holdin' On (Skrillex & Nero Remix);
#SUBTITLE:;
#ARTIST:MONSTA;
#TITLETRANSLIT:;
#SUBTITLETRANSLIT:;
#ARTISTTRANSLIT:;
#GENRE:DRUMSTEP;
#ORIGIN:;
#CREDIT:;
#BANNER:Holdin' On (Skrillex & Nero Remix).png;
#BACKGROUND:Holdin' On (Skrillex & Nero Remix)-bg.png;
#PREVIEWVID:;
#JACKET:Holdin' On (Skrillex & Nero Remix)-jacket.png;
#CDIMAGE:;
#DISCIMAGE:;
#LYRICSPATH:;
#CDTITLE:cdtitle.png;
#MUSIC:Holdin' On (Skrillex & Nero Remix).ogg;
#OFFSET:0.000000;
#SAMPLESTART:33.092999;
#SAMPLELENGTH:11.015000;
#SELECTABLE:YES;
#BPMS:0.000=174.000;
#STOPS:;
#DELAYS:;
#WARPS:;
#TIMESIGNATURES:0.000=4=4;
#TICKCOUNTS:0.000=4;
#COMBOS:0.000=1;
#SPEEDS:0.000=1.000=0.000=0;
#SCROLLS:0.000=1.000;
#FAKES:;
#LABELS:0.000=Song Start;
#BGCHANGES:;
#KEYSOUNDS:;
#ATTACKS:
;

//---------------dance-single - ----------------
#NOTEDATA:;
#CHARTNAME:;
#STEPSTYPE:dance-single;
#DESCRIPTION:;
#CHARTSTYLE:;
#DIFFICULTY:Hard;
#METER:12;
#RADARVALUES:0.579165,0.709477,0.238964,0.041201,0.123602,492.000000,463.000000,29.000000,5.000000,0.000000,0.000000,0.000000,0.000000,0.000000,0.579165,0.709477,0.238964,0.041201,0.123602,492.000000,463.000000,29.000000,5.000000,0.000000,0.000000,0.000000,0.000000,0.000000;
#CREDIT:;
#NOTES:
0000
0000
0000
0000
,
0000
0000
0000
0000
,
0000
0000
0000
0000
,
0000
0000
0000
0000
,
1000
0001
1000
0010
,
1000
0100
0010
0001
,
1000
0001
1000
0010
,
0100
0000
0001
0000
1000
0010
0100
0000
,
1001
0000
0001
0000
,
0000
0000
0100
0000
0010
1000
0000
0000
,
0010
0000
1001
0000
,
0000
0000
1000
0000
0100
0010
0000
0000
,
0100
0000
1010
0000
,
0000
0000
0100
0000
0001
0010
0000
0000
,
0001
0000
1001
0000
,
1000
0000
1000
0000
0001
0100
0000
0100
,
0010
0000
0000
0010
1000
0000
0001
0000
1000
0000
0000
0000
1000
0000
0100
0000
,
0010
0000
0000
0010
0001
0000
0100
0000
0010
0000
0000
0000
0010
0000
1000
0000
,
0001
0000
0000
0001
0100
0000
0010
0000
1000
0000
0000
0000
1000
0000
0100
0000
,
0010
0000
0100
1000
0001
0000
0001
1000
,
0100
0000
0000
0100
0010
0000
0001
0000
0100
0000
0001
0000
0010
0000
0100
0000
,
1000
0000
0000
1000
0001
0000
0100
0000
0010
0000
1000
0000
0100
0000
0010
0000
,
0001
1000
0100
1000
0001
1000
0010
1000
,
0001
0000
0010
0000
0100
0000
1000
0000
0001
0100
0001
0100
0010
1000
0010
1000
,
0100
0000
0011
0000
1000
0010
0100
0100
,
1000
0100
0010
1000
0001
0001
0100
0010
,
1000
0000
1010
0000
0001
0100
0010
0010
,
1000
0100
0001
1000
0010
0010
0100
1000
,
0010
0000
0101
0000
0010
0001
1000
1000
,
0100
0010
1000
0010
0001
0001
0100
0010
,
1000
0000
1100
0000
0001
0100
0010
0010
,
1000
0000
0100
0001
0000
0100
1000
0000
,
0110
0000
1001
0000
0001
0100
0010
0010
,
0001
0010
1000
0100
0010
0010
1000
0010
,
0001
0000
0110
0000
1000
0010
0100
0100
,
1000
0100
0001
0010
0100
0100
0001
0100
,
1000
0000
0101
0000
0001
0010
1000
1000
,
0001
0100
0010
0001
1000
0010
0100
0001
,
1000
0000
1100
0000
0001
0010
1000
0010
,
0001
0000
0000
0100
0000
0000
0010
0000
1000
0000
0100
0000
0100
0000
0000
0000
,
1001
0000
0000
0000
0100
0010
1000
0000
,
0000
0000
0000
0100
0010
0000
0001
1000
,
0001
0000
0000
0010
0100
0000
1000
0000
,
0000
0000
0000
0001
1000
0000
0100
0000
,
0110
0000
0000
0000
0100
0010
0001
0000
,
0000
0000
0000
1000
0010
0000
0000
0000
,
0100
0000
0000
0001
0100
0000
0010
1000
,
0010
0000
0000
0000
0000
0000
1000
0100
1000
0000
0001
0000
0000
0000
1000
0000
,
0010
0000
0000
0010
0100
0000
0001
0000
0010
0000
0000
0000
0010
0000
0100
0000
,
1000
0000
0000
1000
0010
0000
0100
0000
0001
0000
0000
0000
0001
0000
0010
0000
,
0100
0000
0000
0100
0010
0000
0001
0000
1000
0000
0000
0000
1000
0000
0100
0000
,
0010
0000
0001
0100
0001
0000
1000
0001
,
0100
0000
0000
0100
0010
0000
1000
0000
0001
0000
0010
0000
0100
0000
1000
0000
,
0010
0000
0000
0010
0100
0000
0001
0000
1000
0000
0010
0000
0100
0000
0001
0000
,
1000
0100
0001
0100
1000
0010
0001
0010
,
1000
0000
0001
0000
0100
0000
0001
0000
0010
0100
0010
0100
1000
0001
1000
0001
,
0010
0000
0000
0000
0110
0000
0000
0000
0100
1000
0100
0000
0010
0000
0001
0000
,
0010
1000
0001
0100
1000
1000
0010
0100
,
0001
0000
0011
0000
1000
0010
0100
0100
,
1000
0001
1000
0100
0010
0010
1000
0100
,
0010
0000
0000
0000
0011
0000
0000
0000
0001
1000
0001
0000
0100
0000
0010
0000
,
1000
0010
0001
1000
0100
0100
0001
1000
,
0001
0000
1010
0000
0100
0001
0010
0010
,
0100
0000
0000
1000
0000
0000
0010
0000
0110
0000
0110
0000
,
1001
0000
1100
0000
0010
1000
0100
0100
,
0010
0001
1000
1000
0001
0100
0010
1000
,
0100
0000
0011
0000
0100
0001
0010
0010
,
1000
0010
0001
0001
0100
0010
1000
0100
,
0010
0000
1001
0000
0001
1000
0100
0100
,
0010
1000
0010
0010
0001
0100
0010
1000
,
0001
0000
1000
0000
0000
0001
0100
0000
,
0001
0010
0001
0010
0100
1000
0100
1000
0001
0100
0001
0100
0010
0000
0000
0000
,
0110
0000
0000
0000
1000
0010
0001
1000
,
0001
0010
1000
0100
0010
0001
0010
0000
,
1001
0000
0000
0000
0001
0010
1000
0001
,
1000
0010
0001
1000
0020
0000
0130
0000
,
1001
0000
0000
0000
1000
0010
0100
1000
,
0100
0001
1000
0010
0001
0010
1000
0000
,
1002
0003
0000
2000
3000
0000
0002
0003
,
1000
0100
0000
0100
0010
0000
0001
1000
,
0002
0000
0000
0000
,
0000
0000
0000
0000
,
0003
0000
0000
0000
;

//---------------dance-single - ----------------
#NOTEDATA:;
#CHARTNAME:;
#STEPSTYPE:dance-single;
#DESCRIPTION:;
#CHARTSTYLE:;
#DIFFICULTY:Medium;
#METER:9;
#RADARVALUES:0.450854,0.506769,0.206004,0.107122,0.008240,383.000000,358.000000,25.000000,13.000000,0.000000,0.000000,0.000000,0.000000,0.000000,0.450854,0.506769,0.206004,0.107122,0.008240,383.000000,358.000000,25.000000,13.000000,0.000000,0.000000,0.000000,0.000000,0.000000;
#CREDIT:;
#NOTES:
0000
0000
0000
0000
,
0000
0000
0000
0000
,
0000
0000
0000
0000
,
0000
0000
0000
0000
,
0000
0000
0000
0000
,
0000
0000
0000
0000
,
0000
0000
0000
0000
,
0000
0000
0000
0000
1000
0010
0100
0000
,
1001
0000
0101
0000
,
0000
0000
0001
0000
0010
0100
0000
0000
,
1000
0000
1010
0000
,
0000
0000
0100
0000
0001
0010
0000
0000
,
0001
0000
0110
0000
,
0000
0000
0010
0000
1000
0100
0000
0000
,
0010
0000
1001
0000
,
0000
0000
0010
0000
0100
0001
0000
0000
,
1000
0000
0001
0100
0001
0000
1000
0000
,
0010
0000
1000
0100
1000
0000
0001
0000
,
0010
0000
0100
1000
0100
0000
1000
0000
,
0001
0000
0100
0010
0100
0000
0001
0000
,
1000
0100
0001
0100
,
1000
0010
0001
0010
,
1000
0100
1000
0000
0001
0100
0001
0000
,
1000
0010
1000
0010
0100
0001
0100
0001
,
0010
0000
1001
0000
0001
0100
0001
0000
,
0010
0000
0100
0000
1000
0010
1000
0010
,
0100
0000
0101
0000
1000
0010
1000
0000
,
0001
0100
0010
0000
1000
1000
0001
1000
,
0010
0000
0110
0000
1000
0100
1000
0000
,
0001
0000
0100
0000
0010
1000
0100
1000
,
0001
0000
0011
0000
1000
0010
1000
0000
,
0001
0000
1000
0001
0000
0001
1000
0000
,
1100
0000
0101
0000
0100
1000
0010
0000
,
0100
0000
0001
0000
0010
0001
1000
0001
,
0100
0000
0110
0000
0010
1000
0100
0000
,
0010
0001
0100
0000
0010
0010
1000
0100
,
0010
0000
1001
0000
0001
0100
0010
0000
,
1000
0000
0010
0000
1000
0001
0100
0001
,
0100
0000
1010
0000
0100
0001
0010
0000
,
0100
0000
1000
0000
0000
1000
0001
0000
,
2000
0000
0000
0000
3010
0100
0020
0000
,
0000
0000
0000
0130
0001
0000
0010
0100
,
2000
0000
0000
3001
0010
0000
0002
0000
,
0000
0000
0000
0103
0010
0000
1000
0000
,
0200
0000
0000
0000
0310
0001
0020
0000
,
0000
0000
0000
0031
2000
0000
0000
0000
,
3200
0000
0000
0310
0001
0000
1000
0001
,
1000
0000
0000
0001
0100
0001
0000
0000
,
1001
0000
1000
0010
1000
0000
0001
0000
,
0100
0000
0010
1000
0010
0000
0100
0000
,
0001
0000
0010
0100
0010
0000
0001
0000
,
1000
0000
0100
1000
0100
0000
0010
0000
,
0001
0100
1000
0100
,
0001
0010
1000
0010
,
0001
0100
0001
0000
1000
0100
1000
0000
,
0001
0010
0001
0010
0100
1000
0100
1000
,
0010
0000
0110
0000
1000
0100
1000
0000
,
0001
0000
0100
0000
0010
1000
0010
1000
,
0100
0000
0011
0000
1000
0100
1000
0000
,
0001
0010
0100
0000
0010
0010
0001
1000
,
0001
0000
1001
0000
0100
0010
0100
0000
,
0001
0000
1000
0000
0010
1000
0010
1000
,
0001
0000
1010
0000
1000
0010
0100
0010
,
1000
0000
0000
0001
0000
0000
1000
0000
0100
0000
0010
0000
,
0001
0000
0110
0000
0001
0100
0001
0000
,
1000
0000
0010
0000
1000
0001
1000
0001
,
0100
0000
0110
0000
0010
1000
0100
0000
,
1000
0000
0001
0000
0010
0001
1000
0010
,
1000
0000
0101
0000
0010
0001
1000
0000
,
0010
0000
0100
0000
0010
1000
0010
0100
,
0001
0000
1000
0000
0000
0001
1000
0000
,
0001
0010
0100
1000
0010
0100
0001
0000
,
1000
0000
0000
0000
0100
0010
0100
0010
,
0100
0010
0100
0010
0100
0010
0001
0000
,
1001
0000
0000
0000
0010
0100
0010
0100
,
0010
0100
0010
0100
0020
0000
0130
0000
,
0110
0000
0000
0000
1000
0001
1000
0001
,
1000
0001
1000
0001
1000
0001
1000
0000
,
0120
0030
0000
0020
0030
0000
0020
0030
,
1000
0001
0000
0010
0100
0000
1000
0001
,
0200
0000
0000
0000
,
0000
0000
0000
0000
,
0300
0000
0000
0000
;

//---------------dance-single - ----------------
#NOTEDATA:;
#CHARTNAME:;
#STEPSTYPE:dance-single;
#DESCRIPTION:;
#CHARTSTYLE:;
#DIFFICULTY:Easy;
#METER:5;
#RADARVALUES:0.223661,0.304062,0.000000,0.049441,0.000000,190.000000,190.000000,0.000000,6.000000,0.000000,0.000000,0.000000,0.000000,0.000000,0.223661,0.304062,0.000000,0.049441,0.000000,190.000000,190.000000,0.000000,6.000000,0.000000,0.000000,0.000000,0.000000,0.000000;
#CREDIT:;
#NOTES:
0000
0000
0000
0000
,
0000
0000
0000
0000
,
0000
0000
0000
0000
,
0000
0000
0000
0000
,
0000
0000
0000
0000
,
0000
0000
0000
0000
,
0000
0000
0000
0000
,
0000
0000
0000
0000
,
1000
0000
0001
0000
,
0000
0000
1000
0000
,
0010
0000
0100
0000
,
0001
0000
0010
0000
,
0100
0000
1000
0000
,
0010
0000
1000
0000
,
0001
0000
1000
0000
,
0100
0000
0010
0000
,
0001
0000
0000
0000
,
0001
0000
0000
0000
,
1000
0000
0000
0000
,
1000
0000
0000
0000
,
0010
0010
0100
0100
,
0001
0010
0100
1000
,
0001
1000
0010
0100
,
0001
1000
0010
0010
,
1000
0100
0000
1000
,
0001
1000
0000
0010
,
1000
0010
0000
0100
,
0001
0100
0000
0010
,
0100
0010
0000
1000
,
0100
0010
0000
0001
,
0100
0001
0000
1000
,
0010
0000
0000
0100
0000
0000
0010
0000
,
1000
0100
0000
1000
,
0001
0010
0000
0001
,
1000
0001
0000
0100
,
0001
0010
0000
0100
,
1000
0100
0000
1000
,
0010
1000
0000
0001
,
0100
0010
0000
1000
,
0100
0010
0000
0001
,
2000
0000
3010
0000
,
0000
0000
0100
0000
,
0002
0000
0013
0000
,
0000
0000
0001
0000
,
0200
0000
0310
0000
,
0000
0000
1000
0000
,
0020
0000
0130
0000
,
0001
0000
1000
0000
,
0001
0000
0000
0000
,
0001
0000
0000
0000
,
1000
0000
0000
0000
,
1000
0000
0000
0000
,
0010
0010
0100
0100
,
0001
0010
0100
1000
,
0001
1000
0010
0100
,
0001
1000
0100
0010
,
0010
0001
0000
1000
,
0100
1000
0000
0010
,
1000
0010
0000
0100
,
0001
0010
0000
0001
,
0100
0010
0000
1000
,
0010
1000
0000
0100
,
1000
0001
0000
0100
,
0001
0000
1000
0001
,
0100
0010
0000
1000
,
0001
0100
0000
0010
,
0100
0010
0000
1000
,
0001
1000
0000
0001
,
0100
0010
0000
0100
,
0001
0010
0000
0100
,
1000
0010
0000
1000
,
0010
0000
0000
0100
0000
0000
0010
0000
,
1000
0000
0010
0010
,
0100
0100
0010
0010
,
1000
0000
0001
0001
,
1000
1000
0002
0000
,
0103
0000
0010
0010
,
1000
1000
0010
0010
,
0100
0000
0000
0100
0000
0000
0100
0000
,
0001
0000
1000
0000
,
0020
0000
0000
0000
,
0000
0000
0000
0000
,
0030
0000
0000
0000
;

//---------------dance-single - ----------------
#NOTEDATA:;
#CHARTNAME:;
#STEPSTYPE:dance-single;
#DESCRIPTION:;
#CHARTSTYLE:;
#DIFFICULTY:Beginner;
#METER:3;
#RADARVALUES:0.096527,0.236492,0.024720,0.008240,0.000000,82.000000,79.000000,3.000000,1.000000,0.000000,0.000000,0.000000,0.000000,0.000000,0.096527,0.236492,0.024720,0.008240,0.000000,82.000000,79.000000,3.000000,1.000000,0.000000,0.000000,0.000000,0.000000,0.000000;
#CREDIT:;
#NOTES:
// measure 0
0000
0000
0000
0000
,  // measure 1
0000
0000
0000
0000
,  // measure 2
0000
0000
0000
0000
,  // measure 3
0000
0000
0000
0000
,  // measure 4
0000
0000
0000
0000
,  // measure 5
0000
0000
0000
0000
,  // measure 6
0000
0000
0000
0000
,  // measure 7
0000
0000
0000
0000
,  // measure 8
1000
0000
0000
0000
,  // measure 9
0000
0000
0000
0000
,  // measure 10
0001
0000
0000
0000
,  // measure 11
0000
0000
1000
0000
,  // measure 12
0010
0000
0000
0000
,  // measure 13
0000
0000
0000
0000
,  // measure 14
0100
0000
0000
0000
,  // measure 15
0010
0000
0000
0000
,  // measure 16
1000
0000
0000
0000
,  // measure 17
0001
0000
0000
0000
,  // measure 18
1000
0000
0000
0000
,  // measure 19
0001
0000
0000
0000
,  // measure 20
0100
0000
0000
0000
,  // measure 21
0010
0000
0000
0000
,  // measure 22
0100
0000
0000
0000
,  // measure 23
0010
0000
0000
0000
,  // measure 24
1000
0000
0000
0000
,  // measure 25
1000
0000
0000
0000
,  // measure 26
0001
0000
0000
0000
,  // measure 27
0001
0000
0000
0000
,  // measure 28
0100
0000
0000
0000
,  // measure 29
0100
0000
0000
0000
,  // measure 30
0010
0000
0000
0000
,  // measure 31
0010
0000
0000
0000
,  // measure 32
1000
0000
0000
0000
,  // measure 33
0001
0000
0000
0000
,  // measure 34
1000
0000
0000
0000
,  // measure 35
0001
0000
0000
0000
,  // measure 36
0100
0000
0000
0000
,  // measure 37
0010
0000
0000
0000
,  // measure 38
0100
0000
0000
0000
,  // measure 39
0010
0000
0000
0000
,  // measure 40
1000
0000
0000
0000
,  // measure 41
0000
0000
0000
0001
,  // measure 42
0001
0000
0000
0100
,  // measure 43
0000
0000
0010
0000
,  // measure 44
1000
0000
0000
0000
,  // measure 45
0000
0000
0000
0000
,  // measure 46
0100
0000
0000
0010
,  // measure 47
0010
0000
0000
0000
,  // measure 48
0001
0000
0000
0000
,  // measure 49
1000
0000
0000
0000
,  // measure 50
0010
0000
0000
0000
,  // measure 51
0100
0000
0000
0000
,  // measure 52
0001
0000
0000
0000
,  // measure 53
0010
0000
0000
0000
,  // measure 54
0100
0000
0000
0000
,  // measure 55
1000
0000
0000
0000
,  // measure 56
0001
0000
0000
0000
,  // measure 57
0001
0000
0000
0000
,  // measure 58
1000
0000
0000
0000
,  // measure 59
1000
0000
0000
0000
,  // measure 60
0010
0000
0000
0000
,  // measure 61
0010
0000
0000
0000
,  // measure 62
0100
0000
0000
0000
,  // measure 63
0100
0000
0000
0000
,  // measure 64
0001
0000
0000
0000
,  // measure 65
1000
0000
0000
0000
,  // measure 66
0001
0000
0000
0000
,  // measure 67
1000
0000
0000
0000
,  // measure 68
0010
0000
0000
0000
,  // measure 69
0100
0000
0000
0000
,  // measure 70
0010
0000
0000
0000
,  // measure 71
0100
0000
0000
0000
,  // measure 72
1001
0000
1000
0000
,  // measure 73
1000
0000
1000
0000
,  // measure 74
1001
0000
0001
0000
,  // measure 75
0001
0000
0001
0000
,  // measure 76
1001
0000
0100
0000
,  // measure 77
0100
0000
0100
0000
,  // measure 78
0010
0000
0000
0000
,  // measure 79
1000
0000
0100
0000
,  // measure 80
0020
0000
0000
0000
,  // measure 81
0000
0000
0000
0000
,  // measure 82
0030
0000
0000
0000
;
