#TITLE:はっぴぃ夏祭り;
#SUBTITLE:;
#ARTIST:TEMPURA KIDZ;
#TITLETRANSLIT:Happy Natsumatsuri;
#SUBTITLETRANSLIT:;
#ARTISTTRANSLIT:;
#GENRE:J-POP;
#CREDIT:;
#BANNER:Happy Natsumatsuri.png;
#BACKGROUND:Happy Natsumatsuri-bg.png;
#LYRICSPATH:;
#CDTITLE:cdtitle.png;
#MUSIC:Happy Natsumatsuri.ogg;
#OFFSET:-0.080000;
#SAMPLESTART:43.789997;
#SAMPLELENGTH:15.902992;
#SELECTABLE:YES;
#BPMS:0.000000=152.000000
;
#STOPS:
;
#BGCHANGES:0.000=Happy Natsumatsuri.avi=1.000=0=0=0=StretchNoLoop==CrossFade_Fastest==,
99999=-nosongbg-=1.000=0=0=0 // don't automatically add -songbackground-
;
#KEYSOUNDS:;
#ATTACKS:;

//---------------dance-single - ----------------
#NOTES:
     dance-single:
     :
     Hard:
     12:
     0.507728,0.634835,0.334984,0.138896,0.559668,435.000000,394.000000,41.000000,17.000000,0.000000,0.000000,0.507728,0.634835,0.334984,0.138896,0.559668,435.000000,394.000000,41.000000,17.000000,0.000000,0.000000:
0000
0000
0000
0000
,
0000
0000
0000
0000
,
0000
0000
0000
0000
,
0000
0000
0000
0000
,
1000
0000
1000
0010
0000
0010
0100
0000
0000
0001
0000
0000
,
0010
0000
0010
0100
0000
0100
1000
0000
0000
0010
0000
0000
,
1000
0000
1000
0100
0000
0100
0010
0000
0010
0100
0000
0100
,
1000
0000
1000
0001
0000
0001
1000
0000
0000
0110
0000
0000
,
0001
0000
0001
0010
0000
0010
0100
0000
0000
1000
0000
0000
,
0010
0000
0010
0100
0000
0100
0001
0000
0000
0010
0000
0000
,
0001
0000
0001
0100
0000
0100
0010
0000
0010
0100
0000
0100
,
0001
0000
0001
1000
0000
1000
0001
0000
0000
0110
0000
0000
,
1000
0000
0000
0010
0000
0000
1010
0000
0000
1000
0000
1000
,
0010
0000
0010
0100
0000
0100
0001
0000
0000
1000
0000
0000
,
0001
0000
0000
0010
0000
0000
0011
0000
0000
0001
0000
0001
,
0010
0110
1100
0001
,
1000
0000
0000
0100
0000
0000
1100
0000
0000
1000
0000
1000
,
0100
0000
0100
0010
0000
0010
0001
0000
0000
1000
0000
0000
,
0001
0100
0101
0010
,
1000
0000
1000
0100
0000
0100
0010
0000
0000
0001
0000
0000
,
1001
1000
0110
0010
,
0100
0000
0100
0001
0000
0001
0010
0000
0000
0100
0000
0000
,
1100
1000
1001
0001
,
0100
0000
0100
0010
0000
0010
1000
0100
1000
0100
1000
0100
,
1000
0001
0101
0100
,
0001
0000
0001
1000
0000
1000
0100
0000
0100
0010
0000
0010
,
0001
1000
1001
0001
,
0110
1001
0110
1000
,
1100
0001
0101
1000
,
0001
0000
0010
0100
0000
0010
0001
0000
0000
1000
0000
0000
,
1010
0001
0011
1000
,
0001
0000
1000
0100
0000
1000
0010
0000
0000
0110
0000
0000
,
1000
0000
0001
0100
0000
0001
0010
0000
0000
0001
0000
0000
,
0010
0000
0010
0100
0000
0100
1000
0000
0000
0010
0000
0000
,
1000
0000
1000
0100
0000
0100
0010
0000
0010
0001
0000
0001
,
0200
0320
2030
3002
,
0013
0000
0100
0000
0010
0000
0100
0000
0010
0000
0100
0000
,
0110
1001
1100
0002
,
1003
0100
1000
0001
0100
0001
1000
0010
1000
0001
0010
0001
,
0200
0000
0000
0000
0310
1000
0100
1000
0001
1000
0000
0100
,
0020
0000
0000
0032
0000
0000
1003
0010
1000
0001
0010
0001
,
0200
0000
0000
0320
0000
0000
1030
0000
1000
0001
0000
0000
,
1000
0100
1000
0001
0100
0001
0010
0001
1000
0001
0000
1000
,
0010
0000
0010
0100
0000
0100
0001
0000
0001
0010
0001
1000
,
0002
0000
0000
0000
,
1003
1100
1001
0101
,
1000
0000
1000
0010
0000
0100
0000
0000
0001
0010
0000
0001
,
0000
0000
1000
0010
0000
1000
0100
0000
0000
1001
0000
0000
,
0001
0000
0001
0010
0000
0100
0000
0000
1000
0010
0000
1000
,
0000
0000
0001
0010
0000
0001
0100
0000
0000
1001
0000
0000
,
1000
0000
1000
0100
0000
0010
0000
0000
0001
0100
0000
0001
,
0000
0000
1000
0100
0000
1000
0010
0000
0000
1001
0000
0000
,
0001
0000
0001
0100
0000
0010
0000
0000
1000
0100
0000
1000
,
0001
0100
0001
1000
0010
1000
0100
0000
0000
1001
0000
0000
,
1000
0100
0010
0000
,
0001
0000
0001
0100
0000
0100
0010
0000
0000
1000
0000
0000
,
0001
0100
0010
0000
,
1000
0000
1000
0010
0000
0010
0100
0000
0000
0000
0000
0000
,
0001
0000
0001
1000
0000
1000
0100
0000
0100
1000
0000
0000
,
0001
0000
0001
0010
0000
0010
0100
0000
0000
1000
0000
0000
,
0010
0000
0100
0001
0000
0010
0001
0000
0000
0100
0000
0000
,
0011
1010
1001
1000
,
1010
0001
0011
1000
,
0001
0000
0100
0010
0000
0100
0001
0000
0000
1000
0000
0000
,
1100
0001
0101
1000
,
0001
0000
0100
0010
0000
1000
0010
0000
0000
1001
0000
0000
,
1000
0000
0010
0100
0000
0001
0100
0000
0000
0001
0000
0000
,
0010
0000
0010
0100
0000
0100
1000
0000
0000
0001
0000
0000
,
1000
0000
1000
0010
0000
0010
0100
0000
0100
0001
0000
0001
,
0020
0230
2300
3002
,
0103
0000
0000
0100
0000
0000
0010
0000
1001
0000
0000
0000
,
0010
0010
1000
0001
,
2000
0000
0000
0000
,
0002
0000
0000
0000
,
3003
0000
0000
0000
;

//---------------dance-single - ----------------
#NOTES:
     dance-single:
     :
     Medium:
     9:
     0.346656,0.423223,0.155236,0.032681,0.192003,297.000000,278.000000,19.000000,4.000000,0.000000,0.000000,0.346656,0.423223,0.155236,0.032681,0.192003,297.000000,278.000000,19.000000,4.000000,0.000000,0.000000:
0000
0000
0000
0000
,
0000
0000
0000
0000
,
0000
0000
0000
0000
,
0000
0000
0000
0000
,
1000
0000
0001
1000
0000
0000
0010
0000
0000
0100
0000
0000
,
0001
0000
1000
0001
0000
0000
0010
0000
0000
0100
0000
0000
,
1000
0000
0001
1000
0000
0000
0001
0000
1000
0001
0000
0000
,
1000
0000
0001
1000
0000
0000
0100
0000
0000
0010
0000
0000
,
0100
0000
0010
0100
0000
0000
1000
0000
0000
0001
0000
0000
,
0100
0000
0010
0100
0000
0000
0001
0000
0000
1000
0000
0000
,
0100
0000
0010
0100
0000
0000
1000
0000
0001
1000
0000
0000
,
0010
0000
0100
0010
0000
0000
1000
0000
0000
0001
0000
0000
,
1000
0000
0000
0100
0000
0000
0010
0000
0000
0001
0000
1000
,
0001
0100
0010
0000
,
1000
0000
0000
0100
0000
0000
0010
0000
0000
0001
0000
1000
,
0001
0100
0010
0000
,
1000
0000
0000
0001
0000
0000
1000
0000
0000
0010
0000
0100
,
0010
1000
0100
0000
,
1000
1000
0010
0010
,
0100
0000
0010
0100
0000
0000
0001
0000
0000
0000
0000
0000
,
1000
0000
0000
0000
0000
1000
0001
0000
0000
0000
0000
0001
,
1000
0000
0000
0000
0000
1000
0001
0000
0000
0100
0000
0000
,
0001
0010
0110
0100
,
1000
0000
1000
0001
0000
0001
0200
0000
0000
0000
0000
0000
,
0301
0010
0100
0010
,
0001
0000
0000
1000
0000
0010
1000
0000
0000
0000
0000
0000
,
1001
0000
0110
0000
,
1001
1001
0110
1000
,
0100
0010
0001
0000
,
1000
0000
0100
1000
0000
0000
0010
0000
0000
0100
0000
0000
,
0001
0010
0100
0000
,
1000
0000
0001
0100
0000
0000
0001
0000
0000
0010
0000
0000
,
0001
0001
1000
1000
,
0100
0010
0001
0000
,
0100
0100
0010
0010
,
1000
0001
1000
0001
,
1000
0000
0001
0000
1000
0000
0001
0000
1000
0000
0001
0000
,
1000
1010
0101
0011
,
0001
0000
0000
0000
0000
0001
1000
0000
0000
0000
0000
1000
,
0010
0000
0010
0000
0010
0000
0100
0000
0000
0010
0000
0000
,
1000
0000
0000
0000
0000
1000
0001
0000
0000
0000
0000
0001
,
0010
0000
0010
0000
0010
0000
0100
0000
1000
0001
0000
0000
,
0100
0000
0000
0000
0000
0100
0010
0000
0000
0000
0000
0010
,
1000
1100
0001
0101
,
2002
0000
0000
3003
,
0100
0100
0010
0010
,
1000
0000
0100
1000
0000
0000
0000
0000
0000
0010
0000
0000
,
1000
0000
0100
1000
0000
0000
0001
0000
0000
0100
0000
0000
,
0001
0000
1000
0001
0000
0000
0000
0000
0000
0100
0000
0000
,
0001
0000
1000
0001
0000
0000
1000
0000
0000
0100
0000
0000
,
1000
0000
0001
0010
0000
0000
0000
0000
0000
0001
0000
0000
,
1000
0000
0001
0100
0000
0000
0001
0000
0000
1000
0000
0000
,
0001
0000
0010
0001
0000
0000
0000
0000
0000
0100
0000
0000
,
0001
0010
0100
1001
,
0110
0010
1000
0000
,
1000
0100
0010
0001
,
0100
0001
1000
0000
,
0001
0010
0100
0000
,
1000
1000
0001
0001
,
0100
0100
0010
0000
,
1001
0000
0110
0000
,
1001
1001
0110
0010
,
1000
0100
0010
0000
,
0001
0000
0100
0001
0000
0000
1000
0000
0000
0010
0000
0000
,
0100
0001
0010
0000
,
0001
0000
1000
0001
0000
0000
0100
0000
0000
0000
0000
0000
,
0001
0001
0010
0010
,
0100
1000
0010
0000
,
1000
1000
0100
0100
,
0010
0001
0100
0010
,
1000
0000
0000
0001
0000
0000
1000
0000
0001
0000
0000
0000
,
1000
0001
1000
0100
,
0020
0000
0000
0000
,
0000
0000
0000
0000
,
0030
0000
0000
0000
;

//---------------dance-single - ----------------
#NOTES:
     dance-single:
     :
     Easy:
     6:
     0.236940,0.302302,0.065363,0.024511,0.000000,203.000000,195.000000,8.000000,3.000000,0.000000,0.000000,0.236940,0.302302,0.065363,0.024511,0.000000,203.000000,195.000000,8.000000,3.000000,0.000000,0.000000:
0000
0000
0000
0000
,
0000
0000
0000
0000
,
0000
0000
0000
0000
,
0000
0000
0000
0000
,
1000
0000
0001
0000
,
1000
0000
0010
0000
,
1000
0000
0100
0000
,
0010
0000
0001
0000
,
1000
0000
0100
0000
,
1000
0000
0001
0000
,
1000
0000
0010
0000
,
0100
0000
0001
0000
,
1000
1000
0001
0000
,
0001
0001
0100
0000
,
0100
0100
0010
0000
,
0010
0010
1000
0000
,
1000
1000
0100
0000
,
0100
0100
0010
0000
,
0010
0010
0001
0000
,
0001
0001
1000
1000
,
0001
0000
1000
0000
,
0010
0000
0100
0001
,
1000
0100
0010
0100
,
1000
1000
0002
0000
,
0103
0100
0010
0010
,
1000
0100
0010
0001
,
0100
0000
0110
0000
,
0001
1000
1001
0001
,
0001
1000
1000
0000
,
0100
0010
0001
1000
,
1000
0001
0001
0000
,
0100
0010
1000
0000
,
0001
0001
0010
0010
,
0100
1000
0010
0000
,
1000
1000
0010
0010
,
0100
0001
1000
0001
,
1000
0000
0001
0000
,
0010
0010
0100
0100
,
1000
0000
0001
0000
,
1000
0000
0010
0100
,
0001
0000
0010
0000
,
0100
0000
1000
0010
,
1000
0000
0100
0000
,
1000
1000
0001
0001
,
0200
0000
0000
0000
,
0310
0010
0100
0100
,
0001
1000
0000
1001
,
0000
0001
1000
0010
,
0100
0010
0000
0110
,
0000
0100
0001
1000
,
0001
0010
0000
0011
,
0000
0001
1000
0100
,
1000
0010
0000
1010
,
1000
0100
0010
0001
,
0100
0000
0000
0000
,
0010
0000
0000
0000
,
1000
0000
0000
0000
,
0001
0000
0000
0000
,
1000
0000
1000
0000
,
0001
0000
0001
0000
,
0100
0000
0110
0000
,
1000
0001
1001
1000
,
1000
0001
0001
0000
,
1000
0100
0010
0001
,
0001
1000
1000
0000
,
0001
0100
0010
0000
,
1000
1000
0010
0010
,
0100
0001
0010
0000
,
0001
0001
1000
1000
,
0010
0100
0010
1000
,
0100
0000
0100
0000
,
0010
0001
1000
0000
,
0002
0000
0000
0000
,
0000
0000
0000
0000
,
0003
0000
0000
0000
;

//---------------dance-single - ----------------
#NOTES:
     dance-single:
     :
     Beginner:
     3:
     0.128391,0.181381,0.000000,0.008170,0.000000,110.000000,110.000000,0.000000,1.000000,0.000000,0.000000,0.128391,0.181381,0.000000,0.008170,0.000000,110.000000,110.000000,0.000000,1.000000,0.000000,0.000000:
// measure 0
0000
0000
0000
0000
,  // measure 1
0000
0000
0000
0000
,  // measure 2
0000
0000
0000
0000
,  // measure 3
0000
0000
0000
0000
,  // measure 4
1000
0000
1000
0000
,  // measure 5
1000
0000
1000
0000
,  // measure 6
0001
0000
0001
0000
,  // measure 7
0001
0000
0001
0000
,  // measure 8
0100
0000
0100
0000
,  // measure 9
0100
0000
0100
0000
,  // measure 10
0010
0000
0010
0000
,  // measure 11
0010
0000
0010
0000
,  // measure 12
1000
0000
0000
0000
,  // measure 13
0001
0000
0000
0000
,  // measure 14
0010
0000
0000
0000
,  // measure 15
0100
0000
0000
0000
,  // measure 16
1000
0000
0000
0000
,  // measure 17
0001
0000
0000
0000
,  // measure 18
0100
0000
0000
0000
,  // measure 19
0010
0000
0000
0000
,  // measure 20
1000
0000
1000
0000
,  // measure 21
0100
0000
0100
0000
,  // measure 22
0010
0000
0010
0000
,  // measure 23
0001
0000
0001
0000
,  // measure 24
1000
0000
0000
0000
,  // measure 25
0010
0000
0000
0000
,  // measure 26
0100
0000
0100
0000
,  // measure 27
0001
1000
0001
0000
,  // measure 28
1000
0000
1000
0000
,  // measure 29
0001
0000
0001
0000
,  // measure 30
0100
0000
0100
0000
,  // measure 31
0010
0000
0010
0000
,  // measure 32
1000
0000
1000
0000
,  // measure 33
0001
0000
0001
0000
,  // measure 34
0010
0000
0010
0000
,  // measure 35
0100
0000
0100
0000
,  // measure 36
1000
0000
0000
0000
,  // measure 37
0001
0000
0001
0000
,  // measure 38
1000
0000
0000
0000
,  // measure 39
0001
0000
0000
0000
,  // measure 40
0100
0000
0000
0000
,  // measure 41
0010
0000
0000
0000
,  // measure 42
1000
0000
0000
0000
,  // measure 43
0100
0000
0000
0000
,  // measure 44
0010
0000
0000
0000
,  // measure 45
0001
0000
0001
0000
,  // measure 46
0000
1000
0000
1000
,  // measure 47
0000
0010
0000
0010
,  // measure 48
0000
0100
0000
0100
,  // measure 49
0000
0001
0000
0001
,  // measure 50
0000
0010
0000
0010
,  // measure 51
0000
0100
0000
0100
,  // measure 52
0000
1000
0000
1000
,  // measure 53
1000
0000
0000
0000
,  // measure 54
0001
0000
0000
0000
,  // measure 55
0000
0000
0000
0000
,  // measure 56
1000
0000
0000
0000
,  // measure 57
0000
0000
0000
0000
,  // measure 58
0001
0000
0000
0000
,  // measure 59
0100
0000
0000
0000
,  // measure 60
0010
0000
0010
0000
,  // measure 61
1000
0001
1000
0000
,  // measure 62
0001
0000
0001
0000
,  // measure 63
0100
0000
0100
0000
,  // measure 64
0010
0000
0010
0000
,  // measure 65
1000
0000
1000
0000
,  // measure 66
0001
0000
0001
0000
,  // measure 67
0010
0000
0010
0000
,  // measure 68
0100
0000
0100
0000
,  // measure 69
1000
0000
1000
0000
,  // measure 70
0001
0000
0000
0000
,  // measure 71
1000
0000
0000
0000
,  // measure 72
0002
0000
0000
0000
,  // measure 73
0000
0000
0000
0000
,  // measure 74
0003
0000
0000
0000
;
